请选择 进入手机版 | 继续访问电脑版
本站Q群713428235【盘盘多】已满,请新会员加原盘天堂新官方QQ群709708625【好多盘】,验证信息填写您在论坛的会员名,不填会员名的无法入群哈,进群后修改您的群名片名字为您在论坛的会员名,请务必修改,否则群成员多了不知道您是哪个会员。

原盘天堂

 找回密码
 立即注册
京东商城当当华为商城名牌时尚折扣网,一个新型的网上购物平台,我们每周为您精选3~4个国际知名品牌,商品折扣低至2折限时限量售卖,商品囊括时装、护肤品、箱包、皮具、配饰、香水等等,琳琅满目。亿格瑞A10硬盘播放器 苏宁易购
查看: 183|回复: 2

4k蓝光原盘bdmv 火线狙击 中字 in.the.line.of.fire.1993.2160p.bluray.hevc.truehd.7.1.atmos[86.9 GB]

[复制链接]

6152

主题

6859

帖子

133万

积分

管理员

Rank: 18Rank: 18Rank: 18Rank: 18Rank: 18

积分
1335008
发表于 2021-6-19 19:12:48 | 显示全部楼层 |阅读模式






◎译  名 火线狙击/火线/火线大行动(台)/火线追击
◎片  名 In the Line of Fire
◎年  代 1993
◎产  地 美国
◎类  别 剧情/动作/惊悚
◎语  言 英语
◎上映日期 1993-07-09
◎IMDb链接  https://www.imdb.com/title/tt0107206/
◎豆瓣评分 7.3/10 from 5241 users
◎豆瓣链接 https://douban.com/subject/1295733/
◎片  长 128 分钟
◎导  演 沃尔夫冈·彼德森 Wolfgang Petersen
◎编  剧 杰夫·马圭尔 Jeff Maguire
◎主  演 克林特·伊斯特伍德 Clint Eastwood
       约翰·马尔科维奇 John Malkovich
       蕾妮·罗素 Rene Russo
       迪伦·麦克德莫特 Dylan McDermott
       盖瑞·科尔 Gary Cole
       弗雷德·多尔顿·汤普森 Fred Dalton Thompson
       约翰·马奥尼 John Mahoney
       格雷戈里·艾伦·威廉斯 Gregory Alan Williams
       克莱德·草津 Clyde Kusatsu
       史蒂夫·海特纳 Steve Hytner
       托宾·贝尔 Tobin Bell
       Bob Schott
       艾尔莎·瑞雯 Elsa Raven
       帕特里卡·达博 Patrika Darbo
       瑞安·库托纳 Ryan Cutrona
       布赖恩·利比 Brian Libby
       埃里克·布鲁斯科特尔 Eric Bruskotter
       Patrick Caddell
       约翰·赫德 John Heard
       Alan Toy
       Carl Ciarfalio
       沃尔特·麦克弗森 Walt MacPherson
       罗伯特·皮特斯 Robert Peters
       Anthony Peck
       里克·赫斯特 Rick Hurst
       约书亚·马林纳 Joshua Malina
       William G. Schilling
       Robert Alan Beuth
       苏姗·李·霍夫曼 Susan Lee Hoffman
       西尔克·科扎特 Cylk Cozart
       柯克乔丹 Kirk Jordan
       Elliott J. Brown
       Ian Paul Cassidy
       Aaron Michael Lacey
       史蒂夫·雷尔斯巴克 Steve Railsback
       William Shipman
       Michael Werckle

◎标  签 动作 | 美国 | 克林特·伊斯特伍德 | ClintEastwood | 特工 | 1993 | 悬疑 | 美国电影

◎简  介

  
  肯尼迪总统的遇刺让身为他贴身保镖的弗兰克(克林特·伊斯特伍德 Clint Eastwood 饰)陷入了自责的情绪中不能自拔。即使多年过去,但只要一想到此时,弗兰克总觉得是自己的失职和大意造成了这一悲剧。某一日,一个神秘的电话引起了他的警觉。打电话的男人名叫米奇(约翰·马尔科维奇 John Malkovich 饰),他告诉弗兰克,自己准备暗杀现任总统,并邀请弗兰克玩一个所谓的“游戏”,这个游戏的成败将直接影响总统的命运。
  
  往事重演,这一次,弗兰克决定无论如何都要保护总统的安全。这个米奇到底是谁?他这么做的目的何在?在一连串的疑问面前,一场激烈而又危险的追杀游戏逐渐展开。
  

◎获奖情况

  第66届奥斯卡金像奖  (1994)
  最佳男配角(提名) 约翰·马尔科维奇
  最佳原创剧本(提名) 杰夫·马圭尔
  最佳剪辑(提名) 安妮·考特斯
  
  第51届金球奖  (1994)
  电影类最佳男配角(提名) 约翰·马尔科维奇
  
  第47届英国电影学院奖  (1994)
  电影奖最佳男配角(提名) 约翰·马尔科维奇
  电影奖最佳原创剧本(提名) 杰夫·马圭尔
  电影奖最佳剪辑(提名) 安妮·考特斯


DISC INFO:

Disc Title:     In.The.Line.Of.Fire.1993.2160p.BluRay.HEVC.TrueHD.7.1.Atmos-GLiNiAK
Disc Size:      93,303,925,195 bytes
Protection:     AACS2
Extras:         Ultra HD, BD-Java
BDInfo:         0.7.5.9 (compatible layout created by DVDFab 12.0.3.4)

PLAYLIST REPORT:

Name:                   00001.MPLS  
Length:                 2:08:37.709 (h:m:s.ms)
Size:                   84,417,312,768 bytes
Total Bitrate:          87.51 Mbps

VIDEO:

Codec                   Bitrate             Description     
-----                   -------             -----------     
MPEG-H HEVC Video       58316 kbps          2160p / 23.976 fps / 16:9 / Main 10 @ Level 5.1 @ High / 4:2:0 / 10 bits / 4000nits / HDR10 / BT.2020

AUDIO:

Codec                           Language        Bitrate         Description     
-----                           --------        -------         -----------     
Dolby TrueHD/Atmos Audio        English         4879 kbps       7.1+11 objects / 48 kHz / 4239 kbps / 24-bit (AC3 Core: 5.1 / 48 kHz / 640 kbps)
DTS-HD Master Audio             English         2234 kbps       5.1 / 48 kHz / 2234 kbps / 16-bit (DTS Core: 5.1 / 48 kHz / 1509 kbps / 16-bit)
DTS-HD Master Audio             English         1558 kbps       2.0 / 48 kHz / 1558 kbps / 16-bit (DTS Core: 2.0 / 48 kHz / 1509 kbps / 16-bit)
DTS-HD Master Audio             French          2203 kbps       5.1 / 48 kHz / 2203 kbps / 16-bit (DTS Core: 5.1 / 48 kHz / 1509 kbps / 16-bit)
DTS-HD Master Audio             German          2170 kbps       5.1 / 48 kHz / 2170 kbps / 16-bit (DTS Core: 5.1 / 48 kHz / 1509 kbps / 16-bit)
Dolby Digital Audio             Hungarian       192 kbps        2.0 / 48 kHz / 192 kbps
DTS-HD Master Audio             Italian         2182 kbps       5.1 / 48 kHz / 2182 kbps / 16-bit (DTS Core: 5.1 / 48 kHz / 1509 kbps / 16-bit)
DTS-HD Master Audio             Japanese        2128 kbps       5.1 / 48 kHz / 2128 kbps / 16-bit (DTS Core: 5.1 / 48 kHz / 1509 kbps / 16-bit)
Dolby Digital Audio             Portuguese      640 kbps        5.1 / 48 kHz / 640 kbps
Dolby Digital Audio             Russian         640 kbps        5.1 / 48 kHz / 640 kbps
DTS-HD Master Audio             Spanish         2181 kbps       5.1 / 48 kHz / 2181 kbps / 16-bit (DTS Core: 5.1 / 48 kHz / 1509 kbps / 16-bit)
Dolby Digital Audio             Spanish         640 kbps        5.1 / 48 kHz / 640 kbps
Dolby Digital Audio             Thai            640 kbps        5.1 / 48 kHz / 640 kbps
Dolby Digital Audio             English         192 kbps        2.0 / 48 kHz / 192 kbps / Dolby Surround

SUBTITLES:

Codec                           Language        Bitrate         Description     
-----                           --------        -------         -----------     
Presentation Graphics           English         36.425 kbps                     
Presentation Graphics           English         24.653 kbps                     
Presentation Graphics           English         36.394 kbps                     
Presentation Graphics           English         24.705 kbps                     
Presentation Graphics           Chinese         31.199 kbps                     
Presentation Graphics           Chinese         23.03 kbps                     
Presentation Graphics           Czech           22.427 kbps                     
Presentation Graphics           Danish          21.289 kbps                     
Presentation Graphics           Dutch           23.68 kbps                     
Presentation Graphics           Finnish         24.813 kbps                     
Presentation Graphics           French          25.007 kbps                     
Presentation Graphics           German          24.779 kbps                     
Presentation Graphics           Hungarian       21.219 kbps                     
Presentation Graphics           Italian         21.35 kbps                     
Presentation Graphics           Japanese        21.412 kbps                     
Presentation Graphics           Korean          18.679 kbps                     
Presentation Graphics           Norwegian       21.848 kbps                     
Presentation Graphics           Polish          24.02 kbps                     
Presentation Graphics           Portuguese      23.735 kbps                     
Presentation Graphics           Spanish         20.588 kbps                     
Presentation Graphics           Spanish         26.915 kbps                     
Presentation Graphics           Swedish         17.938 kbps                     
Presentation Graphics           Thai            21.193 kbps                     
Presentation Graphics           Japanese        0.246 kbps                     
Presentation Graphics           English         55.236 kbps                     
Presentation Graphics           Dutch           46.208 kbps                     
Presentation Graphics           French          45.899 kbps                     
Presentation Graphics           German          53.21 kbps                     
Presentation Graphics           Italian         51.68 kbps                     
Presentation Graphics           Japanese        40.828 kbps                     
Presentation Graphics           Portuguese      53.146 kbps                     
Presentation Graphics           Spanish         40.054 kbps     

Video
ID : 1
ID in the original source medium : 4113 (0x1011)
Format : HEVC
Format/Info : High Efficiency Video Coding
Format profile : Main [email protected]@High
HDR format : SMPTE ST 2086, HDR10 compatible
Codec ID : V_MPEGH/ISO/HEVC
Duration : 2 h 8 min
Bit rate : 58.3 Mb/s
Width : 3 840 pixels
Height : 2 160 pixels
Display aspect ratio : 16:9
Frame rate mode : Constant
Frame rate : 23.976 (24000/1001) FPS
Color space : YUV
Chroma subsampling : 4:2:0 (Type 2)
Bit depth : 10 bits
Bits/(Pixel*Frame) : 0.293
Stream size : 52.4 GiB (70%)
Language : English
Default : No
Forced : No
Color range : Limited
Color primaries : BT.2020
Transfer characteristics : PQ
Matrix coefficients : BT.2020 non-constant
Mastering display color primaries : Display P3
Mastering display luminance : min: 0.0050 cd/m2, max: 4000 cd/m2
Maximum Content Light Level : 1327 cd/m2
Maximum Frame-Average Light Level : 713 cd/m2
Original source medium : Blu-ray

Audio #1
ID : 2
ID in the original source medium : 4352 (0x1100)
Format : MLP FBA 16-ch
Format/Info : Meridian Lossless Packing FBA with 16-channel presentation
Commercial name : Dolby TrueHD with Dolby Atmos
Codec ID : A_TRUEHD
Duration : 2 h 8 min
Bit rate mode : Variable
Bit rate : 4 239 kb/s
Maximum bit rate : 7 251 kb/s
Channel(s) : 8 channels
Channel layout : L R C LFE Ls Rs Lb Rb
Sampling rate : 48.0 kHz
Frame rate : 1 200.000 FPS (40 SPF)
Bit depth : 24 bits
Compression mode : Lossless
Stream size : 3.81 GiB (5%)
Title : TrueHD 7.1 Atmos
Language : English
Default : Yes
Forced : No
Original source medium : Blu-ray
Number of dynamic objects : 11
Bed channel count : 1 channel
Bed channel configuration : LFE

Audio #2
ID : 3
Format : DTS XLL
Format/Info : Digital Theater Systems
Commercial name : DTS-HD Master Audio
Codec ID : A_DTS
Duration : 2 h 8 min
Bit rate mode : Variable
Bit rate : 3 989 kb/s
Channel(s) : 8 channels
Channel layout : C L R LFE Lb Rb Lss Rss
Sampling rate : 48.0 kHz
Frame rate : 93.750 FPS (512 SPF)
Bit depth : 24 bits
Compression mode : Lossless
Stream size : 3.58 GiB (5%)
Title : DTS-HD MA 7.1
Language : English
Default : No
Forced : No

Audio #3
ID : 4
ID in the original source medium : 4352 (0x1100)
Format : AC-3
Format/Info : Audio Coding 3
Commercial name : Dolby Digital
Codec ID : A_AC3
Duration : 2 h 8 min
Bit rate mode : Constant
Bit rate : 640 kb/s
Channel(s) : 6 channels
Channel layout : L R C LFE Ls Rs
Sampling rate : 48.0 kHz
Frame rate : 31.250 FPS (1536 SPF)
Compression mode : Lossy
Stream size : 589 MiB (1%)
Title : DD 5.1
Language : English
Service kind : Complete Main
Default : No
Forced : No
Original source medium : Blu-ray

Audio #4
ID : 5
ID in the original source medium : 4354 (0x1102)
Format : DTS XLL
Format/Info : Digital Theater Systems
Commercial name : DTS-HD Master Audio
Codec ID : A_DTS
Duration : 2 h 8 min
Bit rate mode : Variable
Bit rate : 1 558 kb/s
Channel(s) : 2 channels
Sampling rate : 48.0 kHz
Frame rate : 93.750 FPS (512 SPF)
Bit depth : 16 bits
Compression mode : Lossless
Stream size : 1.40 GiB (2%)
Title : Stereo
Language : English
Default : No
Forced : No
Original source medium : Blu-ray

Audio #5
ID : 6
ID in the original source medium : 4355 (0x1103)
Format : DTS XLL
Format/Info : Digital Theater Systems
Commercial name : DTS-HD Master Audio
Codec ID : A_DTS
Duration : 2 h 8 min
Bit rate mode : Variable
Bit rate : 2 203 kb/s
Channel(s) : 6 channels
Channel layout : C L R Ls Rs LFE
Sampling rate : 48.0 kHz
Frame rate : 93.750 FPS (512 SPF)
Bit depth : 16 bits
Compression mode : Lossless
Stream size : 1.98 GiB (3%)
Title : DTS-HD MA 5.1
Language : French
Default : No
Forced : No
Original source medium : Blu-ray

Audio #6
ID : 7
ID in the original source medium : 4356 (0x1104)
Format : DTS XLL
Format/Info : Digital Theater Systems
Commercial name : DTS-HD Master Audio
Codec ID : A_DTS
Duration : 2 h 8 min
Bit rate mode : Variable
Bit rate : 2 170 kb/s
Channel(s) : 6 channels
Channel layout : C L R Ls Rs LFE
Sampling rate : 48.0 kHz
Frame rate : 93.750 FPS (512 SPF)
Bit depth : 16 bits
Compression mode : Lossless
Stream size : 1.95 GiB (3%)
Title : DTS-HD MA 5.1
Language : German
Default : No
Forced : No
Original source medium : Blu-ray

Audio #7
ID : 8
ID in the original source medium : 4357 (0x1105)
Format : AC-3
Format/Info : Audio Coding 3
Commercial name : Dolby Digital
Codec ID : A_AC3
Duration : 2 h 8 min
Bit rate mode : Constant
Bit rate : 192 kb/s
Channel(s) : 2 channels
Channel layout : L R
Sampling rate : 48.0 kHz
Frame rate : 31.250 FPS (1536 SPF)
Compression mode : Lossy
Stream size : 177 MiB (0%)
Title : DD 2.0
Language : Hungarian
Service kind : Complete Main
Default : No
Forced : No
Original source medium : Blu-ray

Audio #8
ID : 9
ID in the original source medium : 4358 (0x1106)
Format : DTS XLL
Format/Info : Digital Theater Systems
Commercial name : DTS-HD Master Audio
Codec ID : A_DTS
Duration : 2 h 8 min
Bit rate mode : Variable
Bit rate : 2 182 kb/s
Channel(s) : 6 channels
Channel layout : C L R Ls Rs LFE
Sampling rate : 48.0 kHz
Frame rate : 93.750 FPS (512 SPF)
Bit depth : 16 bits
Compression mode : Lossless
Stream size : 1.96 GiB (3%)
Title : Surround 5.1
Language : Italian
Default : No
Forced : No
Original source medium : Blu-ray

Audio #9
ID : 10
ID in the original source medium : 4359 (0x1107)
Format : DTS XLL
Format/Info : Digital Theater Systems
Commercial name : DTS-HD Master Audio
Codec ID : A_DTS
Duration : 2 h 8 min
Bit rate mode : Variable
Bit rate : 2 128 kb/s
Channel(s) : 6 channels
Channel layout : C L R Ls Rs LFE
Sampling rate : 48.0 kHz
Frame rate : 93.750 FPS (512 SPF)
Bit depth : 16 bits
Compression mode : Lossless
Stream size : 1.91 GiB (3%)
Title : Surround 5.1
Language : Japanese
Default : No
Forced : No
Original source medium : Blu-ray

Audio #10
ID : 11
ID in the original source medium : 4360 (0x1108)
Format : AC-3
Format/Info : Audio Coding 3
Commercial name : Dolby Digital
Codec ID : A_AC3
Duration : 2 h 8 min
Bit rate mode : Constant
Bit rate : 640 kb/s
Channel(s) : 6 channels
Channel layout : L R C LFE Ls Rs
Sampling rate : 48.0 kHz
Frame rate : 31.250 FPS (1536 SPF)
Compression mode : Lossy
Stream size : 589 MiB (1%)
Title : DD 5.1
Language : Portuguese
Service kind : Complete Main
Default : No
Forced : No
Original source medium : Blu-ray

Audio #11
ID : 12
ID in the original source medium : 4361 (0x1109)
Format : AC-3
Format/Info : Audio Coding 3
Commercial name : Dolby Digital
Codec ID : A_AC3
Duration : 2 h 8 min
Bit rate mode : Constant
Bit rate : 640 kb/s
Channel(s) : 6 channels
Channel layout : L R C LFE Ls Rs
Sampling rate : 48.0 kHz
Frame rate : 31.250 FPS (1536 SPF)
Compression mode : Lossy
Stream size : 589 MiB (1%)
Title : DD 5.1
Language : Russian
Service kind : Complete Main
Default : No
Forced : No
Original source medium : Blu-ray

Audio #12
ID : 13
ID in the original source medium : 4362 (0x110A)
Format : DTS XLL
Format/Info : Digital Theater Systems
Commercial name : DTS-HD Master Audio
Codec ID : A_DTS
Duration : 2 h 8 min
Bit rate mode : Variable
Bit rate : 2 181 kb/s
Channel(s) : 6 channels
Channel layout : C L R Ls Rs LFE
Sampling rate : 48.0 kHz
Frame rate : 93.750 FPS (512 SPF)
Bit depth : 16 bits
Compression mode : Lossless
Stream size : 1.96 GiB (3%)
Title : DTS-HD MA 5.1
Language : Spanish
Default : No
Forced : No
Original source medium : Blu-ray

Audio #13
ID : 14
ID in the original source medium : 4363 (0x110B)
Format : AC-3
Format/Info : Audio Coding 3
Commercial name : Dolby Digital
Codec ID : A_AC3
Duration : 2 h 8 min
Bit rate mode : Constant
Bit rate : 640 kb/s
Channel(s) : 6 channels
Channel layout : L R C LFE Ls Rs
Sampling rate : 48.0 kHz
Frame rate : 31.250 FPS (1536 SPF)
Compression mode : Lossy
Stream size : 589 MiB (1%)
Title : DD 5.1
Language : Spanish
Service kind : Complete Main
Default : No
Forced : No
Original source medium : Blu-ray

Audio #14
ID : 15
ID in the original source medium : 4364 (0x110C)
Format : AC-3
Format/Info : Audio Coding 3
Commercial name : Dolby Digital
Codec ID : A_AC3
Duration : 2 h 8 min
Bit rate mode : Constant
Bit rate : 640 kb/s
Channel(s) : 6 channels
Channel layout : L R C LFE Ls Rs
Sampling rate : 48.0 kHz
Frame rate : 31.250 FPS (1536 SPF)
Compression mode : Lossy
Stream size : 589 MiB (1%)
Title : DD 5.1
Language : Thai
Service kind : Complete Main
Default : No
Forced : No
Original source medium : Blu-ray

Audio #15
ID : 16
ID in the original source medium : 4365 (0x110D)
Format : AC-3
Format/Info : Audio Coding 3
Commercial name : Dolby Digital
Format settings : Dolby Surround
Codec ID : A_AC3
Duration : 2 h 8 min
Bit rate mode : Constant
Bit rate : 192 kb/s
Channel(s) : 2 channels
Channel layout : L R
Sampling rate : 48.0 kHz
Frame rate : 31.250 FPS (1536 SPF)
Compression mode : Lossy
Stream size : 177 MiB (0%)
Title : DD 2.0
Language : English
Service kind : Complete Main
Default : No
Forced : No
Original source medium : Blu-ray

Text #1
ID : 17
Format : UTF-8
Codec ID : S_TEXT/UTF8
Codec ID/Info : UTF-8 Plain Text
Duration : 2 h 1 min
Bit rate : 45 b/s
Count of elements : 941
Stream size : 40.3 KiB (0%)
Title : SRT
Language : English
Default : Yes
Forced : No

Text #2
ID : 18
ID in the original source medium : 4768 (0x12A0)
Format : PGS
Muxing mode : zlib
Codec ID : S_HDMV/PGS
Codec ID/Info : Picture based subtitle format used on BDs/HD-DVDs
Duration : 2 h 5 min
Bit rate : 37.2 kb/s
Count of elements : 3176
Stream size : 33.5 MiB (0%)
Language : English
Default : No
Forced : No
Original source medium : Blu-ray

Text #3
ID : 19
ID in the original source medium : 4769 (0x12A1)
Format : PGS
Muxing mode : zlib
Codec ID : S_HDMV/PGS
Codec ID/Info : Picture based subtitle format used on BDs/HD-DVDs
Duration : 2 h 1 min
Bit rate : 26.1 kb/s
Count of elements : 1893
Stream size : 22.7 MiB (0%)
Language : English
Default : No
Forced : No
Original source medium : Blu-ray

Text #4
ID : 20
ID in the original source medium : 4770 (0x12A2)
Format : PGS
Muxing mode : zlib
Codec ID : S_HDMV/PGS
Codec ID/Info : Picture based subtitle format used on BDs/HD-DVDs
Duration : 2 h 5 min
Bit rate : 37.2 kb/s
Count of elements : 3160
Stream size : 33.5 MiB (0%)
Language : English
Default : No
Forced : No
Original source medium : Blu-ray

Text #5
ID : 21
ID in the original source medium : 4771 (0x12A3)
Format : PGS
Muxing mode : zlib
Codec ID : S_HDMV/PGS
Codec ID/Info : Picture based subtitle format used on BDs/HD-DVDs
Duration : 2 h 1 min
Bit rate : 26.2 kb/s
Count of elements : 1894
Stream size : 22.7 MiB (0%)
Language : English
Default : No
Forced : No
Original source medium : Blu-ray

Text #6
ID : 22
ID in the original source medium : 4772 (0x12A4)
Format : PGS
Muxing mode : zlib
Codec ID : S_HDMV/PGS
Codec ID/Info : Picture based subtitle format used on BDs/HD-DVDs
Duration : 2 h 1 min
Bit rate : 33.1 kb/s
Count of elements : 3194
Stream size : 28.7 MiB (0%)
Language : Chinese
Default : No
Forced : No
Original source medium : Blu-ray

Text #7
ID : 23
ID in the original source medium : 4773 (0x12A5)
Format : PGS
Muxing mode : zlib
Codec ID : S_HDMV/PGS
Codec ID/Info : Picture based subtitle format used on BDs/HD-DVDs
Duration : 2 h 1 min
Bit rate : 24.4 kb/s
Count of elements : 1946
Stream size : 21.2 MiB (0%)
Language : Chinese
Default : No
Forced : No
Original source medium : Blu-ray

Text #8
ID : 24
ID in the original source medium : 4774 (0x12A6)
Format : PGS
Muxing mode : zlib
Codec ID : S_HDMV/PGS
Codec ID/Info : Picture based subtitle format used on BDs/HD-DVDs
Duration : 2 h 1 min
Bit rate : 23.8 kb/s
Count of elements : 1791
Stream size : 20.6 MiB (0%)
Language : Czech
Default : No
Forced : No
Original source medium : Blu-ray

Text #9
ID : 25
ID in the original source medium : 4775 (0x12A7)
Format : PGS
Muxing mode : zlib
Codec ID : S_HDMV/PGS
Codec ID/Info : Picture based subtitle format used on BDs/HD-DVDs
Duration : 2 h 1 min
Bit rate : 22.6 kb/s
Count of elements : 1741
Stream size : 19.6 MiB (0%)
Language : Danish
Default : No
Forced : No
Original source medium : Blu-ray

Text #10
ID : 26
ID in the original source medium : 4776 (0x12A8)
Format : PGS
Muxing mode : zlib
Codec ID : S_HDMV/PGS
Codec ID/Info : Picture based subtitle format used on BDs/HD-DVDs
Duration : 2 h 7 min
Bit rate : 23.9 kb/s
Count of elements : 1774
Stream size : 21.8 MiB (0%)
Language : Dutch
Default : No
Forced : No
Original source medium : Blu-ray

Text #11
ID : 27
ID in the original source medium : 4777 (0x12A9)
Format : PGS
Muxing mode : zlib
Codec ID : S_HDMV/PGS
Codec ID/Info : Picture based subtitle format used on BDs/HD-DVDs
Duration : 2 h 1 min
Bit rate : 26.3 kb/s
Count of elements : 1934
Stream size : 22.8 MiB (0%)
Language : Finnish
Default : No
Forced : No
Original source medium : Blu-ray

Text #12
ID : 28
ID in the original source medium : 4778 (0x12AA)
Format : PGS
Muxing mode : zlib
Codec ID : S_HDMV/PGS
Codec ID/Info : Picture based subtitle format used on BDs/HD-DVDs
Duration : 2 h 7 min
Bit rate : 25.3 kb/s
Count of elements : 1891
Stream size : 23.0 MiB (0%)
Language : French
Default : No
Forced : No
Original source medium : Blu-ray

Text #13
ID : 29
ID in the original source medium : 4778 (0x12AA)
Format : PGS
Muxing mode : zlib
Codec ID : S_HDMV/PGS
Codec ID/Info : Picture based subtitle format used on BDs/HD-DVDs
Duration : 1 h 2 min
Bit rate : 215 b/s
Count of elements : 12
Stream size : 98.9 KiB (0%)
Language : French
Default : No
Forced : No
Original source medium : Blu-ray

Text #14
ID : 30
ID in the original source medium : 4779 (0x12AB)
Format : PGS
Muxing mode : zlib
Codec ID : S_HDMV/PGS
Codec ID/Info : Picture based subtitle format used on BDs/HD-DVDs
Duration : 2 h 1 min
Bit rate : 26.3 kb/s
Count of elements : 1866
Stream size : 22.8 MiB (0%)
Language : German
Default : No
Forced : No
Original source medium : Blu-ray

Text #15
ID : 31
ID in the original source medium : 4779 (0x12AB)
Format : PGS
Muxing mode : zlib
Codec ID : S_HDMV/PGS
Codec ID/Info : Picture based subtitle format used on BDs/HD-DVDs
Duration : 1 h 2 min
Bit rate : 280 b/s
Count of elements : 14
Stream size : 129 KiB (0%)
Language : German
Default : No
Forced : No
Original source medium : Blu-ray

Text #16
ID : 32
ID in the original source medium : 4780 (0x12AC)
Format : PGS
Muxing mode : zlib
Codec ID : S_HDMV/PGS
Codec ID/Info : Picture based subtitle format used on BDs/HD-DVDs
Duration : 2 h 1 min
Bit rate : 22.5 kb/s
Count of elements : 1785
Stream size : 19.5 MiB (0%)
Language : Hungarian
Default : No
Forced : No
Original source medium : Blu-ray

Text #17
ID : 33
ID in the original source medium : 4781 (0x12AD)
Format : PGS
Muxing mode : zlib
Codec ID : S_HDMV/PGS
Codec ID/Info : Picture based subtitle format used on BDs/HD-DVDs
Duration : 2 h 1 min
Bit rate : 22.6 kb/s
Count of elements : 1728
Stream size : 19.6 MiB (0%)
Language : Italian
Default : No
Forced : No
Original source medium : Blu-ray

Text #18
ID : 34
ID in the original source medium : 4781 (0x12AD)
Format : PGS
Muxing mode : zlib
Codec ID : S_HDMV/PGS
Codec ID/Info : Picture based subtitle format used on BDs/HD-DVDs
Duration : 39 min 8 s
Bit rate : 260 b/s
Count of elements : 8
Stream size : 74.6 KiB (0%)
Language : Italian
Default : No
Forced : No
Original source medium : Blu-ray

Text #19
ID : 35
ID in the original source medium : 4782 (0x12AE)
Format : PGS
Muxing mode : zlib
Codec ID : S_HDMV/PGS
Codec ID/Info : Picture based subtitle format used on BDs/HD-DVDs
Duration : 2 h 7 min
Bit rate : 21.7 kb/s
Count of elements : 2673
Stream size : 19.7 MiB (0%)
Language : Japanese
Default : No
Forced : No
Original source medium : Blu-ray

Text #20
ID : 36
ID in the original source medium : 4783 (0x12AF)
Format : PGS
Muxing mode : zlib
Codec ID : S_HDMV/PGS
Codec ID/Info : Picture based subtitle format used on BDs/HD-DVDs
Duration : 2 h 1 min
Bit rate : 19.8 kb/s
Count of elements : 1987
Stream size : 17.2 MiB (0%)
Language : Korean
Default : No
Forced : No
Original source medium : Blu-ray

Text #21
ID : 37
ID in the original source medium : 4784 (0x12B0)
Format : PGS
Muxing mode : zlib
Codec ID : S_HDMV/PGS
Codec ID/Info : Picture based subtitle format used on BDs/HD-DVDs
Duration : 2 h 1 min
Bit rate : 23.2 kb/s
Count of elements : 1759
Stream size : 20.1 MiB (0%)
Language : Norwegian
Default : No
Forced : No
Original source medium : Blu-ray

Text #22
ID : 38
ID in the original source medium : 4785 (0x12B1)
Format : PGS
Muxing mode : zlib
Codec ID : S_HDMV/PGS
Codec ID/Info : Picture based subtitle format used on BDs/HD-DVDs
Duration : 2 h 1 min
Bit rate : 25.5 kb/s
Count of elements : 1813
Stream size : 22.1 MiB (0%)
Language : Polish
Default : No
Forced : No
Original source medium : Blu-ray

Text #23
ID : 39
ID in the original source medium : 4786 (0x12B2)
Format : PGS
Muxing mode : zlib
Codec ID : S_HDMV/PGS
Codec ID/Info : Picture based subtitle format used on BDs/HD-DVDs
Duration : 2 h 1 min
Bit rate : 25.1 kb/s
Count of elements : 1927
Stream size : 21.8 MiB (0%)
Language : Portuguese
Default : No
Forced : No
Original source medium : Blu-ray

Text #24
ID : 40
ID in the original source medium : 4787 (0x12B3)
Format : PGS
Muxing mode : zlib
Codec ID : S_HDMV/PGS
Codec ID/Info : Picture based subtitle format used on BDs/HD-DVDs
Duration : 2 h 7 min
Bit rate : 20.8 kb/s
Count of elements : 1910
Stream size : 18.9 MiB (0%)
Language : Spanish
Default : No
Forced : No
Original source medium : Blu-ray

Text #25
ID : 41
ID in the original source medium : 4787 (0x12B3)
Format : PGS
Muxing mode : zlib
Codec ID : S_HDMV/PGS
Codec ID/Info : Picture based subtitle format used on BDs/HD-DVDs
Duration : 1 h 12 min
Bit rate : 85 b/s
Count of elements : 8
Stream size : 45.1 KiB (0%)
Language : Spanish
Default : No
Forced : No
Original source medium : Blu-ray

Text #26
ID : 42
ID in the original source medium : 4788 (0x12B4)
Format : PGS
Muxing mode : zlib
Codec ID : S_HDMV/PGS
Codec ID/Info : Picture based subtitle format used on BDs/HD-DVDs
Duration : 2 h 1 min
Bit rate : 28.5 kb/s
Count of elements : 2594
Stream size : 24.8 MiB (0%)
Language : Spanish
Default : No
Forced : No
Original source medium : Blu-ray

Text #27
ID : 43
ID in the original source medium : 4789 (0x12B5)
Format : PGS
Muxing mode : zlib
Codec ID : S_HDMV/PGS
Codec ID/Info : Picture based subtitle format used on BDs/HD-DVDs
Duration : 2 h 1 min
Bit rate : 19.0 kb/s
Count of elements : 1650
Stream size : 16.5 MiB (0%)
Language : Swedish
Default : No
Forced : No
Original source medium : Blu-ray

Text #28
ID : 44
ID in the original source medium : 4790 (0x12B6)
Format : PGS
Muxing mode : zlib
Codec ID : S_HDMV/PGS
Codec ID/Info : Picture based subtitle format used on BDs/HD-DVDs
Duration : 2 h 1 min
Bit rate : 22.5 kb/s
Count of elements : 1861
Stream size : 19.5 MiB (0%)
Language : Thai
Default : No
Forced : No
Original source medium : Blu-ray

Text #29
ID : 45
ID in the original source medium : 4791 (0x12B7)
Format : PGS
Muxing mode : zlib
Codec ID : S_HDMV/PGS
Codec ID/Info : Picture based subtitle format used on BDs/HD-DVDs
Duration : 2 h 1 min
Bit rate : 261 b/s
Count of elements : 32
Stream size : 232 KiB (0%)
Language : Japanese
Default : No
Forced : No
Original source medium : Blu-ray

Text #30
ID : 46
ID in the original source medium : 4792 (0x12B8)
Format : PGS
Muxing mode : zlib
Codec ID : S_HDMV/PGS
Codec ID/Info : Picture based subtitle format used on BDs/HD-DVDs
Duration : 2 h 3 min
Bit rate : 57.4 kb/s
Count of elements : 3932
Stream size : 50.8 MiB (0%)
Language : English
Default : No
Forced : No
Original source medium : Blu-ray

Text #31
ID : 47
ID in the original source medium : 4793 (0x12B9)
Format : PGS
Muxing mode : zlib
Codec ID : S_HDMV/PGS
Codec ID/Info : Picture based subtitle format used on BDs/HD-DVDs
Duration : 2 h 3 min
Bit rate : 48.0 kb/s
Count of elements : 3157
Stream size : 42.5 MiB (0%)
Language : Dutch
Default : No
Forced : No
Original source medium : Blu-ray

Text #32
ID : 48
ID in the original source medium : 4794 (0x12BA)
Format : PGS
Muxing mode : zlib
Codec ID : S_HDMV/PGS
Codec ID/Info : Picture based subtitle format used on BDs/HD-DVDs
Duration : 2 h 3 min
Bit rate : 47.7 kb/s
Count of elements : 3914
Stream size : 42.2 MiB (0%)
Language : French
Default : No
Forced : No
Original source medium : Blu-ray

Text #33
ID : 49
ID in the original source medium : 4795 (0x12BB)
Format : PGS
Muxing mode : zlib
Codec ID : S_HDMV/PGS
Codec ID/Info : Picture based subtitle format used on BDs/HD-DVDs
Duration : 2 h 3 min
Bit rate : 55.2 kb/s
Count of elements : 3934
Stream size : 49.0 MiB (0%)
Language : German
Default : No
Forced : No
Original source medium : Blu-ray

Text #34
ID : 50
ID in the original source medium : 4796 (0x12BC)
Format : PGS
Muxing mode : zlib
Codec ID : S_HDMV/PGS
Codec ID/Info : Picture based subtitle format used on BDs/HD-DVDs
Duration : 2 h 3 min
Bit rate : 53.7 kb/s
Count of elements : 3920
Stream size : 47.5 MiB (0%)
Language : Italian
Default : No
Forced : No
Original source medium : Blu-ray

Text #35
ID : 51
ID in the original source medium : 4797 (0x12BD)
Format : PGS
Muxing mode : zlib
Codec ID : S_HDMV/PGS
Codec ID/Info : Picture based subtitle format used on BDs/HD-DVDs
Duration : 2 h 3 min
Bit rate : 42.4 kb/s
Count of elements : 3155
Stream size : 37.6 MiB (0%)
Language : Japanese
Default : No
Forced : No
Original source medium : Blu-ray

Text #36
ID : 52
ID in the original source medium : 4798 (0x12BE)
Format : PGS
Muxing mode : zlib
Codec ID : S_HDMV/PGS
Codec ID/Info : Picture based subtitle format used on BDs/HD-DVDs
Duration : 2 h 3 min
Bit rate : 55.2 kb/s
Count of elements : 3940
Stream size : 48.9 MiB (0%)
Language : Portuguese
Default : No
Forced : No
Original source medium : Blu-ray

Text #37
ID : 53
ID in the original source medium : 4799 (0x12BF)
Format : PGS
Muxing mode : zlib
Codec ID : S_HDMV/PGS
Codec ID/Info : Picture based subtitle format used on BDs/HD-DVDs
Duration : 2 h 3 min
Bit rate : 41.6 kb/s
Count of elements : 3918
Stream size : 36.9 MiB (0%)
Language : Spanish
Default : No
Forced : No
Original source medium : Blu-ray

Menu
00:00:00.000 : Chapter 01
00:07:25.445 : Chapter 02
00:11:48.249 : Chapter 03
00:15:07.281 : Chapter 04
00:23:37.457 : Chapter 05
00:32:09.552 : Chapter 06
00:40:57.037 : Chapter 07
00:48:47.716 : Chapter 08
00:56:36.601 : Chapter 09
01:07:43.684 : Chapter 10
01:12:28.635 : Chapter 11
01:20:43.004 : Chapter 12
01:35:50.578 : Chapter 13
01:52:22.986 : Chapter 14
01:54:12.470 : Chapter 15
01:57:39.469 : Chapter 16

本帖子中包含更多资源

您需要 登录 才可以下载或查看,没有帐号?立即注册

x
回复

使用道具 举报

0

主题

821

帖子

3960

积分

论坛元老

Rank: 8Rank: 8

积分
3960
发表于 2021-6-25 14:21:47 | 显示全部楼层
谢谢楼主分享。
回复

使用道具 举报

0

主题

1715

帖子

3734

积分

论坛元老

Rank: 8Rank: 8

积分
3734
发表于 2021-6-26 23:12:22 | 显示全部楼层
感谢楼主分享
回复

使用道具 举报

您需要登录后才可以回帖 登录 | 立即注册

本版积分规则

QQ|Archiver|手机版|小黑屋|原盘天堂 好多盘 点击这里给我发消息

GMT+8, 2021-7-27 21:00 , Processed in 0.057167 second(s), 24 queries .

Powered by Discuz! X3.4

Copyright © 2001-2020, Tencent Cloud.

快速回复 返回顶部 返回列表