请选择 进入手机版 | 继续访问电脑版
本站Q群713428235【盘盘多】已满,请新会员加原盘天堂新官方QQ群709708625【好多盘】,验证信息填写您在论坛的会员名,不填会员名的无法入群哈,进群后修改您的群名片名字为您在论坛的会员名,请务必修改,否则群成员多了不知道您是哪个会员。

原盘天堂

 找回密码
 立即注册
京东商城当当华为商城名牌时尚折扣网,一个新型的网上购物平台,我们每周为您精选3~4个国际知名品牌,商品折扣低至2折限时限量售卖,商品囊括时装、护肤品、箱包、皮具、配饰、香水等等,琳琅满目。亿格瑞A10硬盘播放器 苏宁易购
查看: 66|回复: 2

4k蓝光原盘bdmv 夺宝奇兵3 中字 indiana.jones.and.the.last.crusade.1989.2160p.bluray.hevc.truehd.7.1.atmos[60.17 GB]

[复制链接]

6023

主题

6690

帖子

133万

积分

管理员

Rank: 18Rank: 18Rank: 18Rank: 18Rank: 18

积分
1332455
发表于 5 天前 | 显示全部楼层 |阅读模式






◎译  名 夺宝奇兵3/夺宝奇兵3:圣战奇兵/圣战奇兵/印地安纳・琼斯和最后的十字军/印地安纳・琼斯之圣战奇兵
◎片  名 Indiana Jones and the Last Crusade
◎年  代 1989
◎产  地 美国/英国
◎类  别 剧情/动作/奇幻/冒险
◎语  言 英语/德语/希腊语/阿拉伯语
◎上映日期 1989-05-24(美国)
◎IMDb链接  https://www.imdb.com/title/tt0097576/
◎豆瓣评分 8.2/10 from 57401 users
◎豆瓣链接 https://douban.com/subject/1293471/
◎片  长 127分钟
◎导  演 史蒂文·斯皮尔伯格 Steven Spielberg
◎编  剧 杰弗里·鲍姆 Jeffrey Boam / 乔治·卢卡斯 George Lucas / 门诺·迈依杰斯 Menno Meyjes / 菲利普·考夫曼 Philip Kaufman
◎主  演 哈里森·福特 Harrison Ford
       肖恩·康纳利 Sean Connery
       丹霍姆·艾略特 Denholm Elliott
       瑞凡·菲尼克斯 River Phoenix
       约翰·瑞斯-戴维斯 John Rhys-Davies
       艾莉森·杜迪 Alison Doody
       弗农·多布切夫 Vernon Dobtcheff
       帕特·罗奇 Pat Roach
       迈克尔·谢尔德 Michael Sheard
       罗纳德·莱西 Ronald Lacey
       伊斯拉·布莱尔 Isla Blair
       阿列克谢·赛尔 Alexei Sayle
       妮娜·阿姆斯特朗 Nina Armstrong
       Nick Gillard
       尤金·里皮斯基 Eugene Lipinski
       朱利安·格洛弗 Julian Glover
       迈克尔·伯恩 Michael Byrne
       布拉德利·格雷格 Bradley Gregg

◎标  签 冒险 | 美国 | 动作 | 探险 | 经典 | 1989 | 魔幻 | 奇幻

◎简  介

  
  传说用耶稣在最后的晚餐中用到的圣杯喝水,便能长生不老。在一次掘金活动中,记载圣杯的碑石被发现,圣杯存在的可能吸引着大批的疯狂的人展开寻找。印第安纳琼斯博士(Harrison Ford饰)也是他们中的一员,甚至连他的父亲老琼斯(Sean Connery饰)也陷入其中——但他给琼斯留下圣杯的笔记后便不知所踪。
  
  踏上威尼斯的土地,琼斯和事先约好的史奈达博士(Alison Doody饰)会面,他们在图书馆里凭线索找到圣盾后,却开始遭到莫名的来自十字剑兄弟的追杀。
  
  一番波折后,琼斯终于找到了老琼斯,同时,史奈达的纳粹身份暴露,笔记被抢走。圣杯随时都有可能落入纳粹的手中。
  
  于是,琼斯父子俩开始联袂上演拯救圣杯的精彩大戏!
  

◎获奖情况

  第62届奥斯卡金像奖  (1990)
  最佳音效剪辑 理查德·姆尼斯 / 本·贝尔特
  最佳音响(提名) 加里·萨默斯 / 托尼·道 / 肖恩·墨菲 / 本·贝尔特
  最佳原创配乐(提名) 约翰·威廉姆斯
  
  第13届日本电影学院奖  (1990)
  最佳外语片(提名)


DISC INFO:

Disc Title:     Indiana.Jones.and.the.Last.Crusade.1989.Complete.UHD.Bluray-JONES
Disc Size:      64,604,597,737 bytes
Protection:     AACS2
Extras:         Ultra HD, BD-Java
BDInfo:         0.7.5.9 (compatible layout created by DVDFab 12.0.3.2)

PLAYLIST REPORT:

Name:                   00040.MPLS  
Length:                 2:06:51.895 (h:m:s.ms)
Size:                   62,100,903,936 bytes
Total Bitrate:          65.27 Mbps

(*) Indicates included stream hidden by this playlist.

VIDEO:

Codec                   Bitrate             Description     
-----                   -------             -----------     
MPEG-H HEVC Video       49658 kbps          2160p / 23.976 fps / 16:9 / Main 10 @ Level 5.1 @ High / 4:2:0 / 10 bits / 4000nits / HDR10 / BT.2020
* MPEG-H HEVC Video     3366 kbps (6.35%)   1080p / 23.976 fps / 16:9 / Main 10 @ Level 5.1 @ High / 4:2:0 / 10 bits / 4000nits / Dolby Vision FEL / BT.2020

AUDIO:

Codec                           Language        Bitrate         Description     
-----                           --------        -------         -----------     
Dolby TrueHD/Atmos Audio        English         4674 kbps       7.1+11 objects / 48 kHz / 4034 kbps / 24-bit (AC3 Core: 5.1-EX / 48 kHz / 640 kbps)
Dolby Digital Audio             Spanish         640 kbps        5.1 / 48 kHz / 640 kbps
Dolby Digital Audio             French          640 kbps        5.1 / 48 kHz / 640 kbps
Dolby Digital Audio             Italian         640 kbps        5.1 / 48 kHz / 640 kbps
Dolby Digital Audio             Japanese        640 kbps        5.1 / 48 kHz / 640 kbps
Dolby Digital Audio             Japanese        224 kbps        2.0 / 48 kHz / 224 kbps / Dolby Surround
Dolby Digital Audio             Russian         224 kbps        2.0 / 48 kHz / 224 kbps / Dolby Surround

SUBTITLES:

Codec                           Language        Bitrate         Description     
-----                           --------        -------         -----------     
Presentation Graphics           English         23.519 kbps                     
Presentation Graphics           English         25.502 kbps                     
Presentation Graphics           Chinese         14.48 kbps                     
Presentation Graphics           Danish          16.146 kbps                     
Presentation Graphics           Spanish         20.609 kbps                     
Presentation Graphics           French          19.135 kbps                     
Presentation Graphics           Italian         21.06 kbps                     
Presentation Graphics           Japanese        15.644 kbps                     
Presentation Graphics           Korean          16.153 kbps                     
Presentation Graphics           Chinese         18.654 kbps                     
Presentation Graphics           Dutch           17.832 kbps                     
Presentation Graphics           Norwegian       17.121 kbps                     
Presentation Graphics           Russian         19.889 kbps                     
Presentation Graphics           Chinese         20.224 kbps                     
Presentation Graphics           Finnish         20.07 kbps                     
Presentation Graphics           Swedish         18.247 kbps                     
Presentation Graphics           Thai            19.002 kbps                     
Presentation Graphics           Japanese        0.14 kbps   


Video
ID : 1
ID in the original source medium : 4113 (0x1011)
Format : HEVC
Format/Info : High Efficiency Video Coding
Format profile : Main [email protected]@High
HDR format : SMPTE ST 2086, HDR10 compatible
Codec ID : V_MPEGH/ISO/HEVC
Duration : 2 h 6 min
Bit rate : 49.7 Mb/s
Width : 3 840 pixels
Height : 2 160 pixels
Display aspect ratio : 16:9
Frame rate mode : Constant
Frame rate : 23.976 (24000/1001) FPS
Color space : YUV
Chroma subsampling : 4:2:0 (Type 2)
Bit depth : 10 bits
Bits/(Pixel*Frame) : 0.250
Stream size : 44.0 GiB (80%)
Language : English
Default : No
Forced : No
Color range : Limited
Color primaries : BT.2020
Transfer characteristics : PQ
Matrix coefficients : BT.2020 non-constant
Mastering display color primaries : Display P3
Mastering display luminance : min: 0.0050 cd/m2, max: 4000 cd/m2
Maximum Content Light Level : 1000 cd/m2
Maximum Frame-Average Light Level : 516 cd/m2
Original source medium : Blu-ray

Audio #1
ID : 2
ID in the original source medium : 4352 (0x1100)
Format : MLP FBA 16-ch
Format/Info : Meridian Lossless Packing FBA with 16-channel presentation
Commercial name : Dolby TrueHD with Dolby Atmos
Codec ID : A_TRUEHD
Duration : 2 h 6 min
Bit rate mode : Variable
Bit rate : 4 034 kb/s
Maximum bit rate : 5 772 kb/s
Channel(s) : 8 channels
Channel layout : L R C LFE Ls Rs Lb Rb
Sampling rate : 48.0 kHz
Frame rate : 1 200.000 FPS (40 SPF)
Bit depth : 24 bits
Compression mode : Lossless
Stream size : 3.57 GiB (7%)
Title : TrueHD 7.1 Atmos
Language : English
Default : Yes
Forced : No
Original source medium : Blu-ray
Number of dynamic objects : 11
Bed channel count : 1 channel
Bed channel configuration : LFE

Audio #2
ID : 3
Format : DTS XLL
Format/Info : Digital Theater Systems
Commercial name : DTS-HD Master Audio
Codec ID : A_DTS
Duration : 2 h 6 min
Bit rate mode : Variable
Bit rate : 4 330 kb/s
Channel(s) : 8 channels
Channel layout : C L R LFE Lb Rb Lss Rss
Sampling rate : 48.0 kHz
Frame rate : 93.750 FPS (512 SPF)
Bit depth : 24 bits
Compression mode : Lossless
Stream size : 3.84 GiB (7%)
Title : DTS-HD MA 7.1
Language : English
Default : No
Forced : No

Audio #3
ID : 4
ID in the original source medium : 4352 (0x1100)
Format : AC-3
Format/Info : Audio Coding 3
Commercial name : Dolby Digital
Format settings : Dolby Surround EX
Codec ID : A_AC3
Duration : 2 h 6 min
Bit rate mode : Constant
Bit rate : 640 kb/s
Channel(s) : 6 channels
Channel layout : L R C LFE Ls Rs
Sampling rate : 48.0 kHz
Frame rate : 31.250 FPS (1536 SPF)
Compression mode : Lossy
Stream size : 581 MiB (1%)
Title : DD 5.1
Language : English
Service kind : Complete Main
Default : No
Forced : No
Original source medium : Blu-ray

Audio #4
ID : 5
ID in the original source medium : 4353 (0x1101)
Format : AC-3
Format/Info : Audio Coding 3
Commercial name : Dolby Digital
Codec ID : A_AC3
Duration : 2 h 6 min
Bit rate mode : Constant
Bit rate : 640 kb/s
Channel(s) : 6 channels
Channel layout : L R C LFE Ls Rs
Sampling rate : 48.0 kHz
Frame rate : 31.250 FPS (1536 SPF)
Compression mode : Lossy
Stream size : 581 MiB (1%)
Title : DD 5.1
Language : Spanish
Service kind : Complete Main
Default : No
Forced : No
Original source medium : Blu-ray

Audio #5
ID : 6
ID in the original source medium : 4354 (0x1102)
Format : AC-3
Format/Info : Audio Coding 3
Commercial name : Dolby Digital
Codec ID : A_AC3
Duration : 2 h 6 min
Bit rate mode : Constant
Bit rate : 640 kb/s
Channel(s) : 6 channels
Channel layout : L R C LFE Ls Rs
Sampling rate : 48.0 kHz
Frame rate : 31.250 FPS (1536 SPF)
Compression mode : Lossy
Stream size : 581 MiB (1%)
Title : DD 5.1
Language : French
Service kind : Complete Main
Default : No
Forced : No
Original source medium : Blu-ray

Audio #6
ID : 7
ID in the original source medium : 4355 (0x1103)
Format : AC-3
Format/Info : Audio Coding 3
Commercial name : Dolby Digital
Codec ID : A_AC3
Duration : 2 h 6 min
Bit rate mode : Constant
Bit rate : 640 kb/s
Channel(s) : 6 channels
Channel layout : L R C LFE Ls Rs
Sampling rate : 48.0 kHz
Frame rate : 31.250 FPS (1536 SPF)
Compression mode : Lossy
Stream size : 581 MiB (1%)
Title : DD 5.1
Language : Italian
Service kind : Complete Main
Default : No
Forced : No
Original source medium : Blu-ray

Audio #7
ID : 8
ID in the original source medium : 4356 (0x1104)
Format : AC-3
Format/Info : Audio Coding 3
Commercial name : Dolby Digital
Codec ID : A_AC3
Duration : 2 h 6 min
Bit rate mode : Constant
Bit rate : 640 kb/s
Channel(s) : 6 channels
Channel layout : L R C LFE Ls Rs
Sampling rate : 48.0 kHz
Frame rate : 31.250 FPS (1536 SPF)
Compression mode : Lossy
Stream size : 581 MiB (1%)
Title : DD 5.1
Language : Japanese
Service kind : Complete Main
Default : No
Forced : No
Original source medium : Blu-ray

Audio #8
ID : 9
ID in the original source medium : 4357 (0x1105)
Format : AC-3
Format/Info : Audio Coding 3
Commercial name : Dolby Digital
Format settings : Dolby Surround
Codec ID : A_AC3
Duration : 2 h 6 min
Bit rate mode : Constant
Bit rate : 224 kb/s
Channel(s) : 2 channels
Channel layout : L R
Sampling rate : 48.0 kHz
Frame rate : 31.250 FPS (1536 SPF)
Compression mode : Lossy
Stream size : 203 MiB (0%)
Title : DD 2.0
Language : Japanese
Service kind : Complete Main
Default : No
Forced : No
Original source medium : Blu-ray

Audio #9
ID : 10
ID in the original source medium : 4358 (0x1106)
Format : AC-3
Format/Info : Audio Coding 3
Commercial name : Dolby Digital
Format settings : Dolby Surround
Codec ID : A_AC3
Duration : 2 h 6 min
Bit rate mode : Constant
Bit rate : 224 kb/s
Channel(s) : 2 channels
Channel layout : L R
Sampling rate : 48.0 kHz
Frame rate : 31.250 FPS (1536 SPF)
Compression mode : Lossy
Stream size : 203 MiB (0%)
Title : DD 2.0
Language : Russian
Service kind : Complete Main
Default : No
Forced : No
Original source medium : Blu-ray

Text #1
ID : 11
ID in the original source medium : 4768 (0x12A0)
Format : PGS
Muxing mode : zlib
Codec ID : S_HDMV/PGS
Codec ID/Info : Picture based subtitle format used on BDs/HD-DVDs
Duration : 1 h 58 min
Bit rate : 25.3 kb/s
Count of elements : 2388
Stream size : 21.3 MiB (0%)
Language : English
Default : No
Forced : No
Original source medium : Blu-ray

Text #2
ID : 12
Format : UTF-8
Codec ID : S_TEXT/UTF8
Codec ID/Info : UTF-8 Plain Text
Duration : 1 h 58 min
Bit rate : 39 b/s
Count of elements : 1180
Stream size : 34.0 KiB (0%)
Title : SRT
Language : English
Default : Yes
Forced : No

Text #3
ID : 13
ID in the original source medium : 4769 (0x12A1)
Format : PGS
Muxing mode : zlib
Codec ID : S_HDMV/PGS
Codec ID/Info : Picture based subtitle format used on BDs/HD-DVDs
Duration : 1 h 59 min
Bit rate : 27.1 kb/s
Count of elements : 2612
Stream size : 23.1 MiB (0%)
Language : English
Default : No
Forced : No
Original source medium : Blu-ray

Text #4
ID : 14
ID in the original source medium : 4770 (0x12A2)
Format : PGS
Muxing mode : zlib
Codec ID : S_HDMV/PGS
Codec ID/Info : Picture based subtitle format used on BDs/HD-DVDs
Duration : 2 h 4 min
Bit rate : 14.7 kb/s
Count of elements : 1776
Stream size : 13.1 MiB (0%)
Language : Chinese
Default : No
Forced : No
Original source medium : Blu-ray

Text #5
ID : 15
ID in the original source medium : 4771 (0x12A3)
Format : PGS
Muxing mode : zlib
Codec ID : S_HDMV/PGS
Codec ID/Info : Picture based subtitle format used on BDs/HD-DVDs
Duration : 2 h 4 min
Bit rate : 16.4 kb/s
Count of elements : 1628
Stream size : 14.7 MiB (0%)
Language : Danish
Default : No
Forced : No
Original source medium : Blu-ray

Text #6
ID : 16
ID in the original source medium : 4772 (0x12A4)
Format : PGS
Muxing mode : zlib
Codec ID : S_HDMV/PGS
Codec ID/Info : Picture based subtitle format used on BDs/HD-DVDs
Duration : 2 h 6 min
Bit rate : 20.7 kb/s
Count of elements : 1758
Stream size : 18.7 MiB (0%)
Language : Spanish
Default : No
Forced : No
Original source medium : Blu-ray

Text #7
ID : 17
ID in the original source medium : 4773 (0x12A5)
Format : PGS
Muxing mode : zlib
Codec ID : S_HDMV/PGS
Codec ID/Info : Picture based subtitle format used on BDs/HD-DVDs
Duration : 2 h 6 min
Bit rate : 19.2 kb/s
Count of elements : 1730
Stream size : 17.4 MiB (0%)
Language : French
Default : No
Forced : No
Original source medium : Blu-ray

Text #8
ID : 18
ID in the original source medium : 4774 (0x12A6)
Format : PGS
Muxing mode : zlib
Codec ID : S_HDMV/PGS
Codec ID/Info : Picture based subtitle format used on BDs/HD-DVDs
Duration : 2 h 6 min
Bit rate : 21.2 kb/s
Count of elements : 1756
Stream size : 19.1 MiB (0%)
Language : Italian
Default : No
Forced : No
Original source medium : Blu-ray

Text #9
ID : 19
ID in the original source medium : 4775 (0x12A7)
Format : PGS
Muxing mode : zlib
Codec ID : S_HDMV/PGS
Codec ID/Info : Picture based subtitle format used on BDs/HD-DVDs
Duration : 1 h 58 min
Bit rate : 16.8 kb/s
Count of elements : 1942
Stream size : 14.2 MiB (0%)
Language : Japanese
Default : No
Forced : No
Original source medium : Blu-ray

Text #10
ID : 20
ID in the original source medium : 4776 (0x12A8)
Format : PGS
Muxing mode : zlib
Codec ID : S_HDMV/PGS
Codec ID/Info : Picture based subtitle format used on BDs/HD-DVDs
Duration : 2 h 5 min
Bit rate : 16.3 kb/s
Count of elements : 2116
Stream size : 14.7 MiB (0%)
Language : Korean
Default : No
Forced : No
Original source medium : Blu-ray

Text #11
ID : 21
ID in the original source medium : 4777 (0x12A9)
Format : PGS
Muxing mode : zlib
Codec ID : S_HDMV/PGS
Codec ID/Info : Picture based subtitle format used on BDs/HD-DVDs
Duration : 2 h 6 min
Bit rate : 18.8 kb/s
Count of elements : 1730
Stream size : 16.9 MiB (0%)
Language : Chinese
Default : No
Forced : No
Original source medium : Blu-ray

Text #12
ID : 22
ID in the original source medium : 4778 (0x12AA)
Format : PGS
Muxing mode : zlib
Codec ID : S_HDMV/PGS
Codec ID/Info : Picture based subtitle format used on BDs/HD-DVDs
Duration : 2 h 4 min
Bit rate : 18.1 kb/s
Count of elements : 1584
Stream size : 16.2 MiB (0%)
Language : Dutch
Default : No
Forced : No
Original source medium : Blu-ray

Text #13
ID : 23
ID in the original source medium : 4779 (0x12AB)
Format : PGS
Muxing mode : zlib
Codec ID : S_HDMV/PGS
Codec ID/Info : Picture based subtitle format used on BDs/HD-DVDs
Duration : 2 h 4 min
Bit rate : 17.4 kb/s
Count of elements : 1690
Stream size : 15.5 MiB (0%)
Language : Norwegian
Default : No
Forced : No
Original source medium : Blu-ray

Text #14
ID : 24
ID in the original source medium : 4780 (0x12AC)
Format : PGS
Muxing mode : zlib
Codec ID : S_HDMV/PGS
Codec ID/Info : Picture based subtitle format used on BDs/HD-DVDs
Duration : 2 h 6 min
Bit rate : 20.0 kb/s
Count of elements : 1746
Stream size : 18.0 MiB (0%)
Language : Russian
Default : No
Forced : No
Original source medium : Blu-ray

Text #15
ID : 25
ID in the original source medium : 4781 (0x12AD)
Format : PGS
Muxing mode : zlib
Codec ID : S_HDMV/PGS
Codec ID/Info : Picture based subtitle format used on BDs/HD-DVDs
Duration : 2 h 5 min
Bit rate : 20.4 kb/s
Count of elements : 2180
Stream size : 18.4 MiB (0%)
Language : Chinese
Default : No
Forced : No
Original source medium : Blu-ray

Text #16
ID : 26
ID in the original source medium : 4782 (0x12AE)
Format : PGS
Muxing mode : zlib
Codec ID : S_HDMV/PGS
Codec ID/Info : Picture based subtitle format used on BDs/HD-DVDs
Duration : 2 h 4 min
Bit rate : 20.4 kb/s
Count of elements : 1728
Stream size : 18.2 MiB (0%)
Language : Finnish
Default : No
Forced : No
Original source medium : Blu-ray

Text #17
ID : 27
ID in the original source medium : 4783 (0x12AF)
Format : PGS
Muxing mode : zlib
Codec ID : S_HDMV/PGS
Codec ID/Info : Picture based subtitle format used on BDs/HD-DVDs
Duration : 2 h 4 min
Bit rate : 18.5 kb/s
Count of elements : 1644
Stream size : 16.6 MiB (0%)
Language : Swedish
Default : No
Forced : No
Original source medium : Blu-ray

Text #18
ID : 28
ID in the original source medium : 4784 (0x12B0)
Format : PGS
Muxing mode : zlib
Codec ID : S_HDMV/PGS
Codec ID/Info : Picture based subtitle format used on BDs/HD-DVDs
Duration : 2 h 5 min
Bit rate : 19.1 kb/s
Count of elements : 2068
Stream size : 17.2 MiB (0%)
Language : Thai
Default : No
Forced : No
Original source medium : Blu-ray

Text #19
ID : 29
ID in the original source medium : 4785 (0x12B1)
Format : PGS
Muxing mode : zlib
Codec ID : S_HDMV/PGS
Codec ID/Info : Picture based subtitle format used on BDs/HD-DVDs
Duration : 1 h 17 min
Bit rate : 228 b/s
Count of elements : 20
Stream size : 130 KiB (0%)
Language : Japanese
Default : No
Forced : No
Original source medium : Blu-ray

Menu
00:00:00.000 : Chapter 01
00:04:41.906 : Chapter 02
00:08:11.032 : Chapter 03
00:11:48.749 : Chapter 04
00:14:14.186 : Chapter 05
00:17:19.413 : Chapter 06
00:22:14.583 : Chapter 07
00:24:51.448 : Chapter 08
00:26:52.152 : Chapter 09
00:30:15.396 : Chapter 10
00:36:31.480 : Chapter 11
00:41:10.301 : Chapter 12
00:44:41.553 : Chapter 13
00:47:42.401 : Chapter 14
00:50:23.562 : Chapter 15
00:54:47.534 : Chapter 16
00:56:30.887 : Chapter 17
01:00:15.903 : Chapter 18
01:03:08.367 : Chapter 19
01:05:31.260 : Chapter 20
01:07:47.688 : Chapter 21
01:10:43.906 : Chapter 22
01:13:35.994 : Chapter 23
01:16:11.358 : Chapter 24
01:18:57.065 : Chapter 25
01:21:19.749 : Chapter 26
01:23:28.086 : Chapter 27
01:25:16.778 : Chapter 28
01:26:58.004 : Chapter 29
01:31:21.767 : Chapter 30
01:36:57.102 : Chapter 31
01:38:53.177 : Chapter 32
01:41:32.211 : Chapter 33
01:49:18.301 : Chapter 34
01:56:05.458 : Chapter 35
02:00:05.948 : Chapter 36

本帖子中包含更多资源

您需要 登录 才可以下载或查看,没有帐号?立即注册

x
回复

使用道具 举报

0

主题

385

帖子

2143

积分

金牌会员

Rank: 6Rank: 6

积分
2143
发表于 4 天前 | 显示全部楼层
感谢楼主分享
回复

使用道具 举报

0

主题

753

帖子

3730

积分

论坛元老

Rank: 8Rank: 8

积分
3730
发表于 3 天前 | 显示全部楼层
谢谢分享!看看
回复

使用道具 举报

您需要登录后才可以回帖 登录 | 立即注册

本版积分规则

QQ|Archiver|手机版|小黑屋|原盘天堂 好多盘 点击这里给我发消息

GMT+8, 2021-6-13 09:32 , Processed in 0.055093 second(s), 24 queries .

Powered by Discuz! X3.4

Copyright © 2001-2020, Tencent Cloud.

快速回复 返回顶部 返回列表