请选择 进入手机版 | 继续访问电脑版
本站Q群713428235【盘盘多】已满,请新会员加原盘天堂新官方QQ群709708625【好多盘】,验证信息填写您在论坛的会员名,不填会员名的无法入群哈,进群后修改您的群名片名字为您在论坛的会员名,请务必修改,否则群成员多了不知道您是哪个会员。

原盘天堂

 找回密码
 立即注册
京东商城当当华为商城名牌时尚折扣网,一个新型的网上购物平台,我们每周为您精选3~4个国际知名品牌,商品折扣低至2折限时限量售卖,商品囊括时装、护肤品、箱包、皮具、配饰、香水等等,琳琅满目。亿格瑞A10硬盘播放器 苏宁易购
查看: 39|回复: 3

4k蓝光原盘bdmv 夺宝奇兵2 中字 indiana.jones.and.the.temple.of.doom.1984.2160p.bluray.hevc.truehd.7.1.atmos[59.88 GB]

[复制链接]

6023

主题

6690

帖子

133万

积分

管理员

Rank: 18Rank: 18Rank: 18Rank: 18Rank: 18

积分
1332455
发表于 5 天前 | 显示全部楼层 |阅读模式






◎译  名 夺宝奇兵2/夺宝奇兵2:魔域奇兵/魔宫传奇/魔域奇兵/印地安纳·琼斯和魔域奇兵/印地安纳·琼斯与墓室/印地安纳·琼斯之魔域奇兵
◎片  名 Indiana Jones and the Temple of Doom
◎年  代 1984
◎产  地 美国/英国
◎类  别 动作/冒险
◎语  言 英语/僧伽罗语/上海话/粤语
◎上映日期 1984-05-23(美国)
◎IMDb链接  https://www.imdb.com/title/tt0087469/
◎豆瓣评分 7.8/10 from 46782 users
◎豆瓣链接 https://douban.com/subject/1301434/
◎片  长 118分钟
◎导  演 史蒂文·斯皮尔伯格 Steven Spielberg
◎编  剧 威拉德·赫依克 Willard Huyck / 格洛丽亚·卡茨 Gloria Katz / 乔治·卢卡斯 George Lucas
◎主  演 哈里森·福特 Harrison Ford
       凯特·卡普肖 Kate Capshaw
       关继威 Jonathan Ke Quan
       阿莫瑞什·普瑞 Amrish Puri
       罗珊·塞斯 Roshan Seth
       乔治·卢卡斯 George Lucas
       巴斯卡尔·帕特尔 Bhasker Patel
       里克·扬 Ric Young
       丹·艾克罗伊德 Dan Aykroyd
       叶西园 David Yip
       西德尼·甘尼斯 Sidney Ganis
       菲利普·丹 Philip Tan
       乔宏 Roy Chiao
       菲利普·斯通 Philip Stone
       安东尼·鲍威尔 Anthony Powell
       帕特·罗奇 Pat Roach
       Denavaka Hamine
       弗兰克·马歇尔 Frank Marshall
       Arthur F. Repola

◎标  签 冒险 | 美国 | 动作 | 斯皮尔伯格 | 探险 | 经典 | 美国电影 | 1984

◎简  介

  
  中国,印第安纳琼斯博士(Harrison Ford饰)与上海黑帮老大交易,对方在换得努尔哈赤的骨灰后便背信弃义,欲灭琼斯之口。关键时刻,机灵小鬼豆丁(Jonathan Ke Quan饰)救下琼斯博士和无故卷进的一位歌女威莉(Kate Capshaw饰)。
  
  由于三人乘坐的飞机失事,跳机后,乘着橡皮艇,他们竟漂流到了印度的一个村子。这里河水干涸,庄稼尽毁,饥荒横行,民不聊生。当地人将之归咎为彭高皇宫的妖孽作怪,并将“从天而降”的琼斯一行视为神灵的化身,他们请求琼斯帮他们拿回被掳走的圣石和所有的小孩子。
  
  魔宫果然充满古怪,统治者是个小屁孩,贵族们吃水蛭、巨蟒、甲虫、猴脑,皇宫内部更是机关重重,误打误撞间,他们目睹到血腥的邪教献祭仪式……这一仗注定艰苦异常!
  

◎获奖情况

  第57届奥斯卡金像奖  (1985)
  最佳视觉效果 丹尼斯·穆伦 / 迈克尔·J·麦卡利斯特尔 / 洛尔恩·彼得森 / 乔治·吉布斯
  最佳原创配乐(提名) 约翰·威廉姆斯


DISC INFO:

Disc Title:     Indiana.Jones.and.the.Temple.of.Doom.1984.2160p.BluRay.HEVC.TrueHD.7.1.Atmos-ESiR
Disc Size:      64,278,164,930 bytes
Protection:     AACS2
Extras:         Ultra HD, BD-Java
BDInfo:         0.7.5.9 (compatible layout created by DVDFab 12.0.3.2)

PLAYLIST REPORT:

Name:                   00040.MPLS  
Length:                 1:58:26.808 (h:m:s.ms)
Size:                   62,077,483,008 bytes
Total Bitrate:          69.88 Mbps

(*) Indicates included stream hidden by this playlist.

VIDEO:

Codec                   Bitrate             Description     
-----                   -------             -----------     
MPEG-H HEVC Video       53605 kbps          2160p / 23.976 fps / 16:9 / Main 10 @ Level 5.1 @ High / 4:2:0 / 10 bits / 4000nits / HDR10 / BT.2020
* MPEG-H HEVC Video     3697 kbps (6.45%)   1080p / 23.976 fps / 16:9 / Main 10 @ Level 5.1 @ High / 4:2:0 / 10 bits / 4000nits / Dolby Vision FEL / BT.2020

AUDIO:

Codec                           Language        Bitrate         Description     
-----                           --------        -------         -----------     
Dolby TrueHD/Atmos Audio        English         4960 kbps       7.1+11 objects / 48 kHz / 4320 kbps / 24-bit (AC3 Core: 5.1-EX / 48 kHz / 640 kbps)
Dolby Digital Audio             Spanish         640 kbps        5.1 / 48 kHz / 640 kbps
Dolby Digital Audio             French          640 kbps        5.1 / 48 kHz / 640 kbps
Dolby Digital Audio             Italian         640 kbps        5.1 / 48 kHz / 640 kbps
Dolby Digital Audio             Japanese        640 kbps        5.1 / 48 kHz / 640 kbps
Dolby Digital Audio             Japanese        224 kbps        2.0 / 48 kHz / 224 kbps / Dolby Surround
Dolby Digital Audio             Russian         224 kbps        2.0 / 48 kHz / 224 kbps / Dolby Surround

SUBTITLES:

Codec                           Language        Bitrate         Description     
-----                           --------        -------         -----------     
Presentation Graphics           English         16.779 kbps                     
Presentation Graphics           English         21.133 kbps                     
Presentation Graphics           Chinese         10.541 kbps                     
Presentation Graphics           Danish          14.205 kbps                     
Presentation Graphics           Spanish         15.121 kbps                     
Presentation Graphics           French          13.385 kbps                     
Presentation Graphics           Italian         14.954 kbps                     
Presentation Graphics           Japanese        11.368 kbps                     
Presentation Graphics           Korean          11.454 kbps                     
Presentation Graphics           Chinese         11.196 kbps                     
Presentation Graphics           Dutch           12.591 kbps                     
Presentation Graphics           Norwegian       12.619 kbps                     
Presentation Graphics           Russian         14.835 kbps                     
Presentation Graphics           Chinese         12.477 kbps                     
Presentation Graphics           Finnish         14.914 kbps                     
Presentation Graphics           Swedish         13.602 kbps                     
Presentation Graphics           Thai            12.317 kbps                     
Presentation Graphics           Japanese        0.054 kbps     


Video
ID : 1
ID in the original source medium : 4113 (0x1011)
Format : HEVC
Format/Info : High Efficiency Video Coding
Format profile : Main [email protected]@High
HDR format : SMPTE ST 2086, HDR10 compatible
Codec ID : V_MPEGH/ISO/HEVC
Duration : 1 h 58 min
Bit rate : 53.6 Mb/s
Width : 3 840 pixels
Height : 2 160 pixels
Display aspect ratio : 16:9
Frame rate mode : Constant
Frame rate : 23.976 (24000/1001) FPS
Color space : YUV
Chroma subsampling : 4:2:0 (Type 2)
Bit depth : 10 bits
Bits/(Pixel*Frame) : 0.270
Stream size : 44.4 GiB (81%)
Language : English
Default : No
Forced : No
Color range : Limited
Color primaries : BT.2020
Transfer characteristics : PQ
Matrix coefficients : BT.2020 non-constant
Mastering display color primaries : Display P3
Mastering display luminance : min: 0.0050 cd/m2, max: 4000 cd/m2
Maximum Content Light Level : 1000 cd/m2
Maximum Frame-Average Light Level : 346 cd/m2
Original source medium : Blu-ray

Audio #1
ID : 2
ID in the original source medium : 4352 (0x1100)
Format : MLP FBA 16-ch
Format/Info : Meridian Lossless Packing FBA with 16-channel presentation
Commercial name : Dolby TrueHD with Dolby Atmos
Codec ID : A_TRUEHD
Duration : 1 h 58 min
Bit rate mode : Variable
Bit rate : 4 320 kb/s
Maximum bit rate : 6 240 kb/s
Channel(s) : 8 channels
Channel layout : L R C LFE Ls Rs Lb Rb
Sampling rate : 48.0 kHz
Frame rate : 1 200.000 FPS (40 SPF)
Bit depth : 24 bits
Compression mode : Lossless
Stream size : 3.57 GiB (7%)
Title : DD 5.1
Language : English
Default : Yes
Forced : No
Original source medium : Blu-ray
Number of dynamic objects : 11
Bed channel count : 1 channel
Bed channel configuration : LFE

Audio #2
ID : 3
Format : DTS XLL
Format/Info : Digital Theater Systems
Commercial name : DTS-HD Master Audio
Codec ID : A_DTS
Duration : 1 h 58 min
Bit rate mode : Variable
Bit rate : 4 477 kb/s
Channel(s) : 8 channels
Channel layout : C L R LFE Lb Rb Lss Rss
Sampling rate : 48.0 kHz
Frame rate : 93.750 FPS (512 SPF)
Bit depth : 24 bits
Compression mode : Lossless
Stream size : 3.70 GiB (7%)
Title : DTS-HD MA 7.1
Language : English
Default : No
Forced : No

Audio #3
ID : 4
ID in the original source medium : 4352 (0x1100)
Format : AC-3
Format/Info : Audio Coding 3
Commercial name : Dolby Digital
Format settings : Dolby Surround EX
Codec ID : A_AC3
Duration : 1 h 58 min
Bit rate mode : Constant
Bit rate : 640 kb/s
Channel(s) : 6 channels
Channel layout : L R C LFE Ls Rs
Sampling rate : 48.0 kHz
Frame rate : 31.250 FPS (1536 SPF)
Compression mode : Lossy
Stream size : 542 MiB (1%)
Title : DD 5.1
Language : English
Service kind : Complete Main
Default : No
Forced : No
Original source medium : Blu-ray

Audio #4
ID : 5
ID in the original source medium : 4353 (0x1101)
Format : AC-3
Format/Info : Audio Coding 3
Commercial name : Dolby Digital
Codec ID : A_AC3
Duration : 1 h 58 min
Bit rate mode : Constant
Bit rate : 640 kb/s
Channel(s) : 6 channels
Channel layout : L R C LFE Ls Rs
Sampling rate : 48.0 kHz
Frame rate : 31.250 FPS (1536 SPF)
Compression mode : Lossy
Stream size : 542 MiB (1%)
Title : DD 5.1
Language : Spanish
Service kind : Complete Main
Default : No
Forced : No
Original source medium : Blu-ray

Audio #5
ID : 6
ID in the original source medium : 4354 (0x1102)
Format : AC-3
Format/Info : Audio Coding 3
Commercial name : Dolby Digital
Codec ID : A_AC3
Duration : 1 h 58 min
Bit rate mode : Constant
Bit rate : 640 kb/s
Channel(s) : 6 channels
Channel layout : L R C LFE Ls Rs
Sampling rate : 48.0 kHz
Frame rate : 31.250 FPS (1536 SPF)
Compression mode : Lossy
Stream size : 542 MiB (1%)
Title : DD 5.1
Language : French
Service kind : Complete Main
Default : No
Forced : No
Original source medium : Blu-ray

Audio #6
ID : 7
ID in the original source medium : 4355 (0x1103)
Format : AC-3
Format/Info : Audio Coding 3
Commercial name : Dolby Digital
Codec ID : A_AC3
Duration : 1 h 58 min
Bit rate mode : Constant
Bit rate : 640 kb/s
Channel(s) : 6 channels
Channel layout : L R C LFE Ls Rs
Sampling rate : 48.0 kHz
Frame rate : 31.250 FPS (1536 SPF)
Compression mode : Lossy
Stream size : 542 MiB (1%)
Title : DD 5.1
Language : Italian
Service kind : Complete Main
Default : No
Forced : No
Original source medium : Blu-ray

Audio #7
ID : 8
ID in the original source medium : 4356 (0x1104)
Format : AC-3
Format/Info : Audio Coding 3
Commercial name : Dolby Digital
Codec ID : A_AC3
Duration : 1 h 58 min
Bit rate mode : Constant
Bit rate : 640 kb/s
Channel(s) : 6 channels
Channel layout : L R C LFE Ls Rs
Sampling rate : 48.0 kHz
Frame rate : 31.250 FPS (1536 SPF)
Compression mode : Lossy
Stream size : 542 MiB (1%)
Title : DD 5.1
Language : Japanese
Service kind : Complete Main
Default : No
Forced : No
Original source medium : Blu-ray

Audio #8
ID : 9
ID in the original source medium : 4357 (0x1105)
Format : AC-3
Format/Info : Audio Coding 3
Commercial name : Dolby Digital
Format settings : Dolby Surround
Codec ID : A_AC3
Duration : 1 h 58 min
Bit rate mode : Constant
Bit rate : 224 kb/s
Channel(s) : 2 channels
Channel layout : L R
Sampling rate : 48.0 kHz
Frame rate : 31.250 FPS (1536 SPF)
Compression mode : Lossy
Stream size : 190 MiB (0%)
Title : DD 2.0
Language : Japanese
Service kind : Complete Main
Default : No
Forced : No
Original source medium : Blu-ray

Audio #9
ID : 10
ID in the original source medium : 4358 (0x1106)
Format : AC-3
Format/Info : Audio Coding 3
Commercial name : Dolby Digital
Format settings : Dolby Surround
Codec ID : A_AC3
Duration : 1 h 58 min
Bit rate mode : Constant
Bit rate : 224 kb/s
Channel(s) : 2 channels
Channel layout : L R
Sampling rate : 48.0 kHz
Frame rate : 31.250 FPS (1536 SPF)
Compression mode : Lossy
Stream size : 190 MiB (0%)
Title : DD 2.0
Language : Russian
Service kind : Complete Main
Default : No
Forced : No
Original source medium : Blu-ray

Text #1
ID : 11
Format : UTF-8
Codec ID : S_TEXT/UTF8
Codec ID/Info : UTF-8 Plain Text
Duration : 1 h 52 min
Bit rate : 27 b/s
Count of elements : 863
Stream size : 22.5 KiB (0%)
Title : SRT
Language : English
Default : Yes
Forced : No

Text #2
ID : 12
ID in the original source medium : 4768 (0x12A0)
Format : PGS
Muxing mode : zlib
Codec ID : S_HDMV/PGS
Codec ID/Info : Picture based subtitle format used on BDs/HD-DVDs
Duration : 1 h 52 min
Bit rate : 17.7 kb/s
Count of elements : 1734
Stream size : 14.2 MiB (0%)
Language : English
Default : No
Forced : No
Original source medium : Blu-ray

Text #3
ID : 13
ID in the original source medium : 4769 (0x12A1)
Format : PGS
Muxing mode : zlib
Codec ID : S_HDMV/PGS
Codec ID/Info : Picture based subtitle format used on BDs/HD-DVDs
Duration : 1 h 52 min
Bit rate : 22.3 kb/s
Count of elements : 2234
Stream size : 17.9 MiB (0%)
Language : English
Default : No
Forced : No
Original source medium : Blu-ray

Text #4
ID : 14
ID in the original source medium : 4770 (0x12A2)
Format : PGS
Muxing mode : zlib
Codec ID : S_HDMV/PGS
Codec ID/Info : Picture based subtitle format used on BDs/HD-DVDs
Duration : 1 h 57 min
Bit rate : 10.6 kb/s
Count of elements : 1244
Stream size : 8.93 MiB (0%)
Language : Chinese
Default : No
Forced : No
Original source medium : Blu-ray

Text #5
ID : 15
ID in the original source medium : 4771 (0x12A3)
Format : PGS
Muxing mode : zlib
Codec ID : S_HDMV/PGS
Codec ID/Info : Picture based subtitle format used on BDs/HD-DVDs
Duration : 1 h 55 min
Bit rate : 14.6 kb/s
Count of elements : 1342
Stream size : 12.0 MiB (0%)
Language : Danish
Default : No
Forced : No
Original source medium : Blu-ray

Text #6
ID : 16
ID in the original source medium : 4772 (0x12A4)
Format : PGS
Muxing mode : zlib
Codec ID : S_HDMV/PGS
Codec ID/Info : Picture based subtitle format used on BDs/HD-DVDs
Duration : 1 h 57 min
Bit rate : 15.2 kb/s
Count of elements : 1372
Stream size : 12.8 MiB (0%)
Language : Spanish
Default : No
Forced : No
Original source medium : Blu-ray

Text #7
ID : 17
ID in the original source medium : 4773 (0x12A5)
Format : PGS
Muxing mode : zlib
Codec ID : S_HDMV/PGS
Codec ID/Info : Picture based subtitle format used on BDs/HD-DVDs
Duration : 1 h 57 min
Bit rate : 13.5 kb/s
Count of elements : 1262
Stream size : 11.3 MiB (0%)
Language : French
Default : No
Forced : No
Original source medium : Blu-ray

Text #8
ID : 18
ID in the original source medium : 4774 (0x12A6)
Format : PGS
Muxing mode : zlib
Codec ID : S_HDMV/PGS
Codec ID/Info : Picture based subtitle format used on BDs/HD-DVDs
Duration : 1 h 57 min
Bit rate : 15.0 kb/s
Count of elements : 1368
Stream size : 12.7 MiB (0%)
Language : Italian
Default : No
Forced : No
Original source medium : Blu-ray

Text #9
ID : 19
ID in the original source medium : 4775 (0x12A7)
Format : PGS
Muxing mode : zlib
Codec ID : S_HDMV/PGS
Codec ID/Info : Picture based subtitle format used on BDs/HD-DVDs
Duration : 1 h 52 min
Bit rate : 12.0 kb/s
Count of elements : 1410
Stream size : 9.63 MiB (0%)
Language : Japanese
Default : No
Forced : No
Original source medium : Blu-ray

Text #10
ID : 20
ID in the original source medium : 4776 (0x12A8)
Format : PGS
Muxing mode : zlib
Codec ID : S_HDMV/PGS
Codec ID/Info : Picture based subtitle format used on BDs/HD-DVDs
Duration : 1 h 57 min
Bit rate : 11.5 kb/s
Count of elements : 1504
Stream size : 9.70 MiB (0%)
Language : Korean
Default : No
Forced : No
Original source medium : Blu-ray

Text #11
ID : 21
ID in the original source medium : 4777 (0x12A9)
Format : PGS
Muxing mode : zlib
Codec ID : S_HDMV/PGS
Codec ID/Info : Picture based subtitle format used on BDs/HD-DVDs
Duration : 1 h 57 min
Bit rate : 11.3 kb/s
Count of elements : 1510
Stream size : 9.49 MiB (0%)
Language : Chinese
Default : No
Forced : No
Original source medium : Blu-ray

Text #12
ID : 22
ID in the original source medium : 4778 (0x12AA)
Format : PGS
Muxing mode : zlib
Codec ID : S_HDMV/PGS
Codec ID/Info : Picture based subtitle format used on BDs/HD-DVDs
Duration : 1 h 55 min
Bit rate : 12.9 kb/s
Count of elements : 1116
Stream size : 10.7 MiB (0%)
Language : Dutch
Default : No
Forced : No
Original source medium : Blu-ray

Text #13
ID : 23
ID in the original source medium : 4779 (0x12AB)
Format : PGS
Muxing mode : zlib
Codec ID : S_HDMV/PGS
Codec ID/Info : Picture based subtitle format used on BDs/HD-DVDs
Duration : 1 h 55 min
Bit rate : 13.0 kb/s
Count of elements : 1278
Stream size : 10.7 MiB (0%)
Language : Norwegian
Default : No
Forced : No
Original source medium : Blu-ray

Text #14
ID : 24
ID in the original source medium : 4780 (0x12AC)
Format : PGS
Muxing mode : zlib
Codec ID : S_HDMV/PGS
Codec ID/Info : Picture based subtitle format used on BDs/HD-DVDs
Duration : 1 h 57 min
Bit rate : 14.9 kb/s
Count of elements : 1272
Stream size : 12.6 MiB (0%)
Language : Russian
Default : No
Forced : No
Original source medium : Blu-ray

Text #15
ID : 25
ID in the original source medium : 4781 (0x12AD)
Format : PGS
Muxing mode : zlib
Codec ID : S_HDMV/PGS
Codec ID/Info : Picture based subtitle format used on BDs/HD-DVDs
Duration : 1 h 57 min
Bit rate : 12.5 kb/s
Count of elements : 1606
Stream size : 10.6 MiB (0%)
Language : Chinese
Default : No
Forced : No
Original source medium : Blu-ray

Text #16
ID : 26
ID in the original source medium : 4782 (0x12AE)
Format : PGS
Muxing mode : zlib
Codec ID : S_HDMV/PGS
Codec ID/Info : Picture based subtitle format used on BDs/HD-DVDs
Duration : 1 h 55 min
Bit rate : 15.3 kb/s
Count of elements : 1314
Stream size : 12.6 MiB (0%)
Language : Finnish
Default : No
Forced : No
Original source medium : Blu-ray

Text #17
ID : 27
ID in the original source medium : 4783 (0x12AF)
Format : PGS
Muxing mode : zlib
Codec ID : S_HDMV/PGS
Codec ID/Info : Picture based subtitle format used on BDs/HD-DVDs
Duration : 1 h 55 min
Bit rate : 14.0 kb/s
Count of elements : 1336
Stream size : 11.5 MiB (0%)
Language : Swedish
Default : No
Forced : No
Original source medium : Blu-ray

Text #18
ID : 28
ID in the original source medium : 4784 (0x12B0)
Format : PGS
Muxing mode : zlib
Codec ID : S_HDMV/PGS
Codec ID/Info : Picture based subtitle format used on BDs/HD-DVDs
Duration : 1 h 57 min
Bit rate : 12.4 kb/s
Count of elements : 1482
Stream size : 10.4 MiB (0%)
Language : Thai
Default : No
Forced : No
Original source medium : Blu-ray

Text #19
ID : 29
ID in the original source medium : 4785 (0x12B1)
Format : PGS
Muxing mode : zlib
Codec ID : S_HDMV/PGS
Codec ID/Info : Picture based subtitle format used on BDs/HD-DVDs
Duration : 10 min 32 s
Bit rate : 603 b/s
Count of elements : 6
Stream size : 46.6 KiB (0%)
Language : Japanese
Default : No
Forced : No
Original source medium : Blu-ray

Menu
00:00:00.000 : Chapter 01
00:02:54.841 : Chapter 02
00:08:07.278 : Chapter 03
00:10:52.693 : Chapter 04
00:12:51.312 : Chapter 05
00:16:00.542 : Chapter 06
00:19:49.980 : Chapter 07
00:26:28.503 : Chapter 08
00:28:42.762 : Chapter 09
00:31:49.032 : Chapter 10
00:35:20.660 : Chapter 11
00:38:56.751 : Chapter 12
00:41:20.144 : Chapter 13
00:46:24.031 : Chapter 14
00:50:42.831 : Chapter 15
00:52:06.456 : Chapter 16
00:56:08.365 : Chapter 17
00:59:56.843 : Chapter 18
01:05:57.036 : Chapter 19
01:09:52.021 : Chapter 20
01:13:08.550 : Chapter 21
01:17:08.290 : Chapter 22
01:24:01.578 : Chapter 23
01:27:33.206 : Chapter 24
01:29:20.855 : Chapter 25
01:35:03.447 : Chapter 26
01:39:23.791 : Chapter 27
01:41:51.271 : Chapter 28
01:43:38.795 : Chapter 29
01:49:57.507 : Chapter 30
01:53:10.867 : Chapter 31

本帖子中包含更多资源

您需要 登录 才可以下载或查看,没有帐号?立即注册

x
回复

使用道具 举报

0

主题

753

帖子

3730

积分

论坛元老

Rank: 8Rank: 8

积分
3730
发表于 4 天前 | 显示全部楼层
分享愉快 谢谢楼主
回复

使用道具 举报

0

主题

385

帖子

2143

积分

金牌会员

Rank: 6Rank: 6

积分
2143
发表于 4 天前 | 显示全部楼层
感谢楼主分享
回复

使用道具 举报

0

主题

753

帖子

3730

积分

论坛元老

Rank: 8Rank: 8

积分
3730
发表于 3 天前 | 显示全部楼层
谢谢分享!看看
回复

使用道具 举报

您需要登录后才可以回帖 登录 | 立即注册

本版积分规则

QQ|Archiver|手机版|小黑屋|原盘天堂 好多盘 点击这里给我发消息

GMT+8, 2021-6-13 10:35 , Processed in 0.056672 second(s), 24 queries .

Powered by Discuz! X3.4

Copyright © 2001-2020, Tencent Cloud.

快速回复 返回顶部 返回列表