请选择 进入手机版 | 继续访问电脑版
本站Q群713428235【盘盘多】已满,请新会员加原盘天堂新官方QQ群709708625【好多盘】,验证信息填写您在论坛的会员名,不填会员名的无法入群哈,进群后修改您的群名片名字为您在论坛的会员名,请务必修改,否则群成员多了不知道您是哪个会员。

原盘天堂

 找回密码
 立即注册
京东商城当当华为商城名牌时尚折扣网,一个新型的网上购物平台,我们每周为您精选3~4个国际知名品牌,商品折扣低至2折限时限量售卖,商品囊括时装、护肤品、箱包、皮具、配饰、香水等等,琳琅满目。亿格瑞A10硬盘播放器 苏宁易购
查看: 96|回复: 4

4k蓝光原盘bdmv 姜戈 英语原版 django.1966.2160p.bluray.hevc.dts-hd.ma.1.0[86.04 GB]

[复制链接]

6023

主题

6690

帖子

133万

积分

管理员

Rank: 18Rank: 18Rank: 18Rank: 18Rank: 18

积分
1332463
发表于 2021-6-4 07:17:15 | 显示全部楼层 |阅读模式








◎译  名 姜戈/迪亚戈
◎片  名 Django
◎年  代 1966
◎产  地 意大利/西班牙
◎类  别 西部
◎语  言 意大利语
◎上映日期 1966-11-02
◎IMDb链接  https://www.imdb.com/title/tt0060315/
◎豆瓣评分 7.6/10 from 3490 users
◎豆瓣链接 https://douban.com/subject/1963163/
◎片  长 Spain: 87 分钟(censored version)
◎导  演 赛尔乔·科尔布奇 Sergio Corbucci
◎编  剧 赛尔乔·科尔布奇 Sergio Corbucci / 布鲁诺·科尔布奇 Bruno Corbucci / 皮耶罗·里易欣 Piero Vivarelli / 何塞·吉铁雷斯·马埃索 José Gutiérrez Maesso / 弗兰科·罗塞蒂 Franco Rossetti
◎主  演 弗兰科·内罗 Franco Nero
       何塞·博达洛 José Bódalo
       洛雷达娜·努斯齐亚克 Loredana Nusciak
       安赫尔·阿尔瓦雷斯 Ángel Álvarez
       吉诺·佩尔尼切 Gino Pernice
       Rafael Albaicín
       Flora Carosello
       José Terrón
       卢西亚诺·罗西 Luciano Rossi
       Cris Huerta
       Lucio De Santis
       José Canalejas
       爱德华多·法哈多 Eduardo Fajardo

◎标  签 意大利 | 西部片 | 西部 | 1966 | 意大利电影 | 塞吉奥·科布奇 | 1960s | 动作

◎简  介

  
  荒凉的旷野,一群暴虐的劫匪正在鞭挞一位美丽的姑娘玛丽亚(萝蕾丹娜·卡波莱特 Loredana Cappelletti饰)。幸得迪亚戈(弗兰科·尼罗 Franco Nero饰)的解救。他神秘而冷峻,拖着一副棺材漫步在泥泞的荒野上。迪亚戈带着玛丽亚来到荒凉的小镇,人们对他的到来充满好奇,更对这副棺材里隐藏的秘密而惶惶不安。
  
  本片作为意大利西部片的经典暴力之作,曾在世界多国遭到禁映。2012年,鬼才导演昆汀·塔伦蒂诺拍摄的《被解放的姜戈》,向此片致敬。
  
DISC INFO:

Disc Title:     Django.1966.COMPLETE.UHD.BLURAY-B0MBARDiERS
Disc Size:      92,382,623,820 bytes
Protection:     AACS2
Extras:         Ultra HD
BDInfo:         0.7.5.9 (compatible layout created by DVDFab 12.0.3.1)

PLAYLIST REPORT:

Name:                   00100.MPLS  
Length:                 1:31:40.661 (h:m:s.ms)
Size:                   70,178,107,392 bytes
Total Bitrate:          102.06 Mbps

(*) Indicates included stream hidden by this playlist.

VIDEO:

Codec                   Bitrate             Description     
-----                   -------             -----------     
MPEG-H HEVC Video       94957 kbps          2160p / 23.976 fps / 16:9 / Main 10 @ Level 5.1 @ High / 4:2:0 / 10 bits / 1000nits / HDR10 / BT.2020
* MPEG-H HEVC Video     77 kbps (0.08%)     1080p / 23.976 fps / 16:9 / Main 10 @ Level 5.1 @ High / 4:2:0 / 10 bits / 1000nits / Dolby Vision MEL / BT.2020

AUDIO:

Codec                           Language        Bitrate         Description     
-----                           --------        -------         -----------     
DTS-HD Master Audio             English         1062 kbps       1.0 / 48 kHz / 1062 kbps / 24-bit (DTS Core: 1.0 / 48 kHz / 768 kbps / 24-bit)
DTS-HD Master Audio             Italian         1070 kbps       1.0 / 48 kHz / 1070 kbps / 24-bit (DTS Core: 1.0 / 48 kHz / 768 kbps / 24-bit)
Dolby Digital Audio             English         192 kbps        2.0 / 48 kHz / 192 kbps

SUBTITLES:

Codec                           Language        Bitrate         Description     
-----                           --------        -------         -----------     
Presentation Graphics           English         23.703 kbps                     
Presentation Graphics           English         16.321 kbps  

Video
ID : 1
ID in the original source medium : 4113 (0x1011)
Format : HEVC
Format/Info : High Efficiency Video Coding
Format profile : Main [email protected]@High
HDR format : SMPTE ST 2086, HDR10 compatible
Codec ID : V_MPEGH/ISO/HEVC
Duration : 1 h 31 min
Bit rate : 95.0 Mb/s
Width : 3 840 pixels
Height : 2 160 pixels
Display aspect ratio : 16:9
Frame rate mode : Constant
Frame rate : 23.976 (24000/1001) FPS
Color space : YUV
Chroma subsampling : 4:2:0 (Type 2)
Bit depth : 10 bits
Bits/(Pixel*Frame) : 0.477
Stream size : 60.8 GiB (96%)
Language : English
Default : No
Forced : No
Color range : Limited
Color primaries : BT.2020
Transfer characteristics : PQ
Matrix coefficients : BT.2020 non-constant
Mastering display color primaries : BT.2020
Mastering display luminance : min: 0.0001 cd/m2, max: 1000 cd/m2
Original source medium : Blu-ray

Audio #1
ID : 2
ID in the original source medium : 4352 (0x1100)
Format : DTS XLL
Format/Info : Digital Theater Systems
Commercial name : DTS-HD Master Audio
Codec ID : A_DTS
Duration : 1 h 31 min
Bit rate mode : Variable
Bit rate : 1 062 kb/s
Channel(s) : 1 channel
Channel layout : C
Sampling rate : 48.0 kHz
Frame rate : 93.750 FPS (512 SPF)
Bit depth : 24 bits
Compression mode : Lossless
Stream size : 696 MiB (1%)
Title : DTS-HD MA 1.0
Language : English
Default : Yes
Forced : No
Original source medium : Blu-ray

Audio #2
ID : 3
Format : AC-3
Format/Info : Audio Coding 3
Commercial name : Dolby Digital
Codec ID : A_AC3
Duration : 1 h 31 min
Bit rate mode : Constant
Bit rate : 640 kb/s
Channel(s) : 1 channel
Channel layout : C
Sampling rate : 48.0 kHz
Frame rate : 31.250 FPS (1536 SPF)
Compression mode : Lossy
Stream size : 420 MiB (1%)
Title : DD 1.0
Language : English
Service kind : Complete Main
Default : No
Forced : No

Audio #3
ID : 4
ID in the original source medium : 4353 (0x1101)
Format : DTS XLL
Format/Info : Digital Theater Systems
Commercial name : DTS-HD Master Audio
Codec ID : A_DTS
Duration : 1 h 31 min
Bit rate mode : Variable
Bit rate : 1 070 kb/s
Channel(s) : 1 channel
Channel layout : C
Sampling rate : 48.0 kHz
Frame rate : 93.750 FPS (512 SPF)
Bit depth : 24 bits
Compression mode : Lossless
Stream size : 702 MiB (1%)
Title : DTS-HD MA 1.0
Language : Italian
Default : No
Forced : No
Original source medium : Blu-ray

Audio #4
ID : 5
Format : AC-3
Format/Info : Audio Coding 3
Commercial name : Dolby Digital
Codec ID : A_AC3
Duration : 1 h 31 min
Bit rate mode : Constant
Bit rate : 640 kb/s
Channel(s) : 1 channel
Channel layout : C
Sampling rate : 48.0 kHz
Frame rate : 31.250 FPS (1536 SPF)
Compression mode : Lossy
Stream size : 420 MiB (1%)
Title : DD 1.0
Language : Italian
Service kind : Complete Main
Default : No
Forced : No

Audio #5
ID : 6
ID in the original source medium : 4354 (0x1102)
Format : AC-3
Format/Info : Audio Coding 3
Commercial name : Dolby Digital
Codec ID : A_AC3
Duration : 1 h 31 min
Bit rate mode : Constant
Bit rate : 192 kb/s
Channel(s) : 2 channels
Channel layout : L R
Sampling rate : 48.0 kHz
Frame rate : 31.250 FPS (1536 SPF)
Compression mode : Lossy
Stream size : 126 MiB (0%)
Title : DD 2.0
Language : English
Service kind : Complete Main
Default : No
Forced : No
Original source medium : Blu-ray

Text #1
ID : 7
Format : UTF-8
Codec ID : S_TEXT/UTF8
Codec ID/Info : UTF-8 Plain Text
Duration : 1 h 31 min
Bit rate : 31 b/s
Count of elements : 609
Stream size : 21.1 KiB (0%)
Title : English-SRT
Language : English
Default : Yes
Forced : No

Text #2
ID : 8
ID in the original source medium : 4768 (0x12A0)
Format : PGS
Muxing mode : zlib
Codec ID : S_HDMV/PGS
Codec ID/Info : Picture based subtitle format used on BDs/HD-DVDs
Duration : 1 h 31 min
Bit rate : 23.7 kb/s
Count of elements : 1478
Stream size : 15.5 MiB (0%)
Title : English-PGS
Language : English
Default : No
Forced : No
Original source medium : Blu-ray

Text #3
ID : 9
ID in the original source medium : 4769 (0x12A1)
Format : PGS
Muxing mode : zlib
Codec ID : S_HDMV/PGS
Codec ID/Info : Picture based subtitle format used on BDs/HD-DVDs
Duration : 1 h 30 min
Bit rate : 16.5 kb/s
Count of elements : 978
Stream size : 10.7 MiB (0%)
Title : English-PGS
Language : English
Default : No
Forced : No
Original source medium : Blu-ray

Menu
00:00:00.000 : Chapter 01
00:08:26.130 : Chapter 02
00:14:09.223 : Chapter 03
00:22:36.271 : Chapter 04
00:29:18.214 : Chapter 05
00:38:14.166 : Chapter 06
00:49:53.573 : Chapter 07
00:55:10.807 : Chapter 08
01:02:40.631 : Chapter 09
01:09:09.770 : Chapter 10
01:17:54.628 : Chapter 11
01:23:47.188 : Chapter 12

本帖子中包含更多资源

您需要 登录 才可以下载或查看,没有帐号?立即注册

x
回复

使用道具 举报

0

主题

753

帖子

3730

积分

论坛元老

Rank: 8Rank: 8

积分
3730
发表于 2021-6-4 11:01:37 | 显示全部楼层

不错,支持下楼主
回复

使用道具 举报

0

主题

753

帖子

3730

积分

论坛元老

Rank: 8Rank: 8

积分
3730
发表于 6 天前 | 显示全部楼层
分享愉快 谢谢楼主
回复

使用道具 举报

0

主题

753

帖子

3730

积分

论坛元老

Rank: 8Rank: 8

积分
3730
发表于 5 天前 | 显示全部楼层
发贴辛苦,谢谢分享
回复

使用道具 举报

0

主题

14

帖子

63

积分

注册会员

Rank: 2

积分
63
发表于 昨天 07:13 | 显示全部楼层
不错的资源,鼎力支持
回复

使用道具 举报

您需要登录后才可以回帖 登录 | 立即注册

本版积分规则

QQ|Archiver|手机版|小黑屋|原盘天堂 好多盘 点击这里给我发消息

GMT+8, 2021-6-13 11:26 , Processed in 0.055056 second(s), 24 queries .

Powered by Discuz! X3.4

Copyright © 2001-2020, Tencent Cloud.

快速回复 返回顶部 返回列表