请选择 进入手机版 | 继续访问电脑版
本站Q群713428235【盘盘多】已满,请新会员加原盘天堂新官方QQ群709708625【好多盘】,验证信息填写您在论坛的会员名,不填会员名的无法入群哈,进群后修改您的群名片名字为您在论坛的会员名,请务必修改,否则群成员多了不知道您是哪个会员。

原盘天堂

 找回密码
 立即注册
京东商城当当华为商城名牌时尚折扣网,一个新型的网上购物平台,我们每周为您精选3~4个国际知名品牌,商品折扣低至2折限时限量售卖,商品囊括时装、护肤品、箱包、皮具、配饰、香水等等,琳琅满目。亿格瑞A10硬盘播放器 苏宁易购
查看: 92|回复: 3

2d蓝光原盘bdmv 信使 英语原版 the.courier.2020.1080p.bluray.avc.dts-hd.ma.5.1[41.29 GB]

[复制链接]

6023

主题

6690

帖子

133万

积分

管理员

Rank: 18Rank: 18Rank: 18Rank: 18Rank: 18

积分
1332463
发表于 2021-6-3 12:36:08 | 显示全部楼层 |阅读模式








◎译  名 信使/军情谍报(港)/情报人员/铁幕行动(台)/铁皮木/Ironbark
◎片  名 The Courier
◎年  代 2020
◎产  地 英国/美国
◎类  别 惊悚
◎语  言 英语
◎上映日期 2020-01-24(圣丹斯电影节)/2021-03-19(美国)/2021-05-17(英国)
◎IMDb链接  https://www.imdb.com/title/tt8368512/
◎豆瓣评分 7.3/10 from 7056 users
◎豆瓣链接 https://douban.com/subject/30212001/
◎片  长 111分钟
◎导  演 多米尼克·库克 Dominic Cooke
◎编  剧 汤姆·奥康纳 Tom O'Connor
◎主  演 本尼迪克特·康伯巴奇 Benedict Cumberbatch
       瑞秋·布罗斯纳安 Rachel Brosnahan
       梅拉布·尼尼泽 Merab Ninidze
       玛丽亚·米罗诺娃 Mariya Mironova
       安东·莱瑟 Anton Lesser
       安格斯·瑞特 Angus Wright
       大卫·巴克·琼斯 David Bark-Jones
       米尔斯·理查森 Miles Richardson
       杰西·巴克利 Jessie Buckley
       基里尔·彼洛高夫 Kirill Pirogov
       Yuri Klimov
       马里安·洛伦西克 Marian Lorencik
       艾丽丝·奥尔尤因 Alice Orr-Ewing
       乔纳森·哈登 Jonathan Harden
       伊莲娜·艾尔米纳斯 Elina Alminas
       阿勒斯·比利克 Ales Bilík
       安德烈·库尔加诺夫 Andrey Kurganov
       奥德·马利 Ondrej Malý
       贝恩·科拉科 Bern Collaço
       迪诺·布加迪 Deano Bugatti
       拉塞尔·巴洛格 Russell Balogh
       约瑟夫·巴德拉玛 Joseph Balderrama
       Angus Wright

◎标  签 间谍 | 冷战 | 英国 | 卷福 | 战争 | 英国电影 | BenedictCumberbatch | 2020

◎简  介

  
  根据英国商人葛雷维尔韦恩(Greville Wynne)的真实故事改编。
  
  《信使》描述葛雷维尔(本尼迪克特·康伯巴奇 饰)在冷战期间与苏联线人欧列格潘科夫斯基(Oleg Penkovsky),暗中协助中情局渗透苏联的核子计划,并提供了成功阻止古巴导弹危机的重要情报。
  

DISC INFO:

Disc Title:     The.Courier.2020.1080p.BluRay.AVC.DTS-HD.MA.5.1-FGT
Disc Size:      44,338,936,855 bytes
Protection:     AACS
Extras:         BD-Java
BDInfo:         0.7.5.9 (compatible layout created by DVDFab 12.0.3.1)

PLAYLIST REPORT:

Name:                   00467.MPLS  
Length:                 1:52:00.755 (h:m:s.ms)
Size:                   35,325,616,128 bytes
Total Bitrate:          42.05 Mbps

VIDEO:

Codec                   Bitrate             Description     
-----                   -------             -----------     
MPEG-4 AVC Video        36216 kbps          1080p / 23.976 fps / 16:9 / High Profile 4.1

AUDIO:

Codec                           Language        Bitrate         Description     
-----                           --------        -------         -----------     
DTS-HD Master Audio             English         3489 kbps       5.1 / 48 kHz / 3489 kbps / 24-bit (DTS Core: 5.1 / 48 kHz / 1509 kbps / 24-bit)
Dolby Digital Audio             English         192 kbps        2.0 / 48 kHz / 192 kbps

SUBTITLES:

Codec                           Language        Bitrate         Description     
-----                           --------        -------         -----------     
Presentation Graphics           English         30.44 kbps                     
Presentation Graphics           Spanish         30.71 kbps     

Video
ID : 1
ID in the original source medium : 4113 (0x1011)
Format : AVC
Format/Info : Advanced Video Codec
Format profile : [email protected]
Format settings : CABAC / 4 Ref Frames
Format settings, CABAC : Yes
Format settings, Reference frames : 4 frames
Codec ID : V_MPEG4/ISO/AVC
Duration : 1 h 52 min
Bit rate mode : Variable
Bit rate : 34.5 Mb/s
Maximum bit rate : 37.0 Mb/s
Width : 1 920 pixels
Height : 1 080 pixels
Display aspect ratio : 16:9
Frame rate mode : Constant
Frame rate : 23.976 (24000/1001) FPS
Color space : YUV
Chroma subsampling : 4:2:0
Bit depth : 8 bits
Scan type : Progressive
Bits/(Pixel*Frame) : 0.695
Stream size : 27.0 GiB (90%)
Language : English
Default : No
Forced : No
Original source medium : Blu-ray

Audio #1
ID : 2
ID in the original source medium : 4352 (0x1100)
Format : DTS XLL
Format/Info : Digital Theater Systems
Commercial name : DTS-HD Master Audio
Codec ID : A_DTS
Duration : 1 h 52 min
Bit rate mode : Variable
Bit rate : 3 489 kb/s
Channel(s) : 6 channels
Channel layout : C L R Ls Rs LFE
Sampling rate : 48.0 kHz
Frame rate : 93.750 FPS (512 SPF)
Bit depth : 24 bits
Compression mode : Lossless
Stream size : 2.73 GiB (9%)
Title : DTS-HD MA 5.1
Language : English
Default : Yes
Forced : No
Original source medium : Blu-ray

Audio #2
ID : 3
ID in the original source medium : 4353 (0x1101)
Format : AC-3
Format/Info : Audio Coding 3
Commercial name : Dolby Digital
Codec ID : A_AC3
Duration : 1 h 52 min
Bit rate mode : Constant
Bit rate : 192 kb/s
Channel(s) : 2 channels
Channel layout : L R
Sampling rate : 48.0 kHz
Frame rate : 31.250 FPS (1536 SPF)
Compression mode : Lossy
Stream size : 154 MiB (1%)
Title : DD 2.0
Language : English
Service kind : Complete Main
Default : No
Forced : No
Original source medium : Blu-ray

Text #1
ID : 4
Format : UTF-8
Codec ID : S_TEXT/UTF8
Codec ID/Info : UTF-8 Plain Text
Duration : 1 h 43 min
Bit rate : 46 b/s
Count of elements : 1005
Stream size : 35.5 KiB (0%)
Title : English-SRT
Language : English
Default : Yes
Forced : No

Text #2
ID : 5
ID in the original source medium : 4608 (0x1200)
Format : PGS
Muxing mode : zlib
Codec ID : S_HDMV/PGS
Codec ID/Info : Picture based subtitle format used on BDs/HD-DVDs
Duration : 1 h 43 min
Bit rate : 32.9 kb/s
Count of elements : 2321
Stream size : 24.4 MiB (0%)
Title : English-PGS
Language : English
Default : No
Forced : No
Original source medium : Blu-ray

Text #3
ID : 6
ID in the original source medium : 4609 (0x1201)
Format : PGS
Muxing mode : zlib
Codec ID : S_HDMV/PGS
Codec ID/Info : Picture based subtitle format used on BDs/HD-DVDs
Duration : 1 h 50 min
Bit rate : 31.1 kb/s
Count of elements : 2245
Stream size : 24.6 MiB (0%)
Title : Spanish-PGS
Language : Spanish
Default : No
Forced : No
Original source medium : Blu-ray

Menu
00:00:00.000 : Chapter 01
00:05:01.134 : Chapter 02
00:14:26.115 : Chapter 03
00:22:49.076 : Chapter 04
00:28:33.002 : Chapter 05
00:34:35.031 : Chapter 06
00:40:07.071 : Chapter 07
00:45:46.368 : Chapter 08
00:51:15.572 : Chapter 09
00:57:35.285 : Chapter 10
01:05:10.615 : Chapter 11
01:12:18.584 : Chapter 12
01:19:23.717 : Chapter 13
01:27:03.551 : Chapter 14
01:32:00.473 : Chapter 15
01:41:22.242 : Chapter 16

本帖子中包含更多资源

您需要 登录 才可以下载或查看,没有帐号?立即注册

x
回复

使用道具 举报

0

主题

316

帖子

1453

积分

金牌会员

Rank: 6Rank: 6

积分
1453
发表于 2021-6-4 17:06:23 | 显示全部楼层
感谢楼主分享
回复

使用道具 举报

0

主题

385

帖子

2143

积分

金牌会员

Rank: 6Rank: 6

积分
2143
发表于 2021-6-5 20:06:49 | 显示全部楼层
楼主好资源,谢谢
回复

使用道具 举报

0

主题

753

帖子

3730

积分

论坛元老

Rank: 8Rank: 8

积分
3730
发表于 6 天前 | 显示全部楼层
分享愉快 谢谢楼主
回复

使用道具 举报

您需要登录后才可以回帖 登录 | 立即注册

本版积分规则

QQ|Archiver|手机版|小黑屋|原盘天堂 好多盘 点击这里给我发消息

GMT+8, 2021-6-13 11:19 , Processed in 0.054628 second(s), 25 queries .

Powered by Discuz! X3.4

Copyright © 2001-2020, Tencent Cloud.

快速回复 返回顶部 返回列表