请选择 进入手机版 | 继续访问电脑版
本站Q群713428235【盘盘多】已满,请新会员加原盘天堂新官方QQ群709708625【好多盘】,验证信息填写您在论坛的会员名,不填会员名的无法入群哈,进群后修改您的群名片名字为您在论坛的会员名,请务必修改,否则群成员多了不知道您是哪个会员。

原盘天堂

 找回密码
 立即注册
京东商城当当华为商城名牌时尚折扣网,一个新型的网上购物平台,我们每周为您精选3~4个国际知名品牌,商品折扣低至2折限时限量售卖,商品囊括时装、护肤品、箱包、皮具、配饰、香水等等,琳琅满目。亿格瑞A10硬盘播放器 苏宁易购
查看: 91|回复: 2

2d蓝光原盘bdmv 狩猎 英语原版hunted.2020.1080p.bluray.avc.dts-hd.ma.5.1[18.34 GB]

[复制链接]

6023

主题

6690

帖子

133万

积分

管理员

Rank: 18Rank: 18Rank: 18Rank: 18Rank: 18

积分
1332455
发表于 2021-6-3 12:10:03 | 显示全部楼层 |阅读模式








◎译  名 狩猎/大猎逃(台)/Cosmogonie
◎片  名 Hunted
◎年  代 2020
◎产  地 比利时/法国/爱尔兰
◎类  别 动作/惊悚
◎语  言 英语
◎上映日期 2020-08-21(加拿大奇幻电影节)
◎IMDb链接  https://www.imdb.com/title/tt10011228/
◎豆瓣评分 5.0/10 from 486 users
◎豆瓣链接 https://douban.com/subject/35156050/
◎片  长 86分钟
◎导  演 文森特·帕兰德 Vincent Paronnaud
◎编  剧 文森特·帕兰德 Vincent Paronnaud / Léa Pernollet / 史蒂芬·希尔兹 Stephen Shields / 戴维·H·皮克林 David H. Pickering
◎主  演 露西·德拜 Lucie Debay
       克里斯蒂安·布朗查特 Christian Bronchart
       阿里耶·沃索尔特 Arieh Worthalter
       赖恩·布罗迪 Ryan Brodie
       Kevin Van Doorslaer

◎标  签 惊悚 | 比利时 | 犯罪 | 暴力 | 2020 | 恐怖 | 比利时电影 | 2021

◎简  介

  
  夏娃在酒吧遇见了她认为是一个有魅力的家伙。 然而,一旦她意识到自己遇到了精神病患者和他的同伙,事情就大错特错了。 他们进行了追逐死亡行动,直到她决定与森林作斗争,成为她的唯一盟友。
  
DISC INFO:

Disc Title:     Hunted.2020.1080p.BluRay.AVC.DTS-HD.MA.5.1-FGT
Disc Size:      19,692,253,359 bytes
Protection:     AACS
BDInfo:         0.7.5.9 (compatible layout created by DVDFab 12.0.2.9)

PLAYLIST REPORT:

Name:                   00005.MPLS  
Length:                 1:27:01.716 (h:m:s.ms)
Size:                   19,312,232,448 bytes
Total Bitrate:          29.59 Mbps

VIDEO:

Codec                   Bitrate             Description     
-----                   -------             -----------     
MPEG-4 AVC Video        26000 kbps          1080p / 23.976 fps / 16:9 / High Profile 4.1

AUDIO:

Codec                           Language        Bitrate         Description     
-----                           --------        -------         -----------     
DTS-HD Master Audio             English         1986 kbps       5.1 / 48 kHz / 1986 kbps / 16-bit (DTS Core: 5.1 / 48 kHz / 1509 kbps / 16-bit)

SUBTITLES:

Codec                           Language        Bitrate         Description     
-----                           --------        -------         -----------     
Presentation Graphics           English         25.882 kbps                     
Presentation Graphics           French          20.088 kbps                     
Presentation Graphics           Spanish         19.868 kbps      

Video
ID : 1
ID in the original source medium : 4113 (0x1011)
Format : AVC
Format/Info : Advanced Video Codec
Format profile : [email protected]
Format settings : CABAC / 4 Ref Frames
Format settings, CABAC : Yes
Format settings, Reference frames : 4 frames
Codec ID : V_MPEG4/ISO/AVC
Duration : 1 h 27 min
Bit rate mode : Variable
Bit rate : 25.9 Mb/s
Maximum bit rate : 38.0 Mb/s
Width : 1 920 pixels
Height : 1 080 pixels
Display aspect ratio : 16:9
Frame rate mode : Constant
Frame rate : 23.976 (24000/1001) FPS
Color space : YUV
Chroma subsampling : 4:2:0
Bit depth : 8 bits
Scan type : Progressive
Bits/(Pixel*Frame) : 0.522
Stream size : 15.8 GiB (93%)
Language : English
Default : No
Forced : No
Original source medium : Blu-ray

Audio
ID : 2
ID in the original source medium : 4352 (0x1100)
Format : DTS XLL
Format/Info : Digital Theater Systems
Commercial name : DTS-HD Master Audio
Codec ID : A_DTS
Duration : 1 h 27 min
Bit rate mode : Variable
Bit rate : 1 986 kb/s
Channel(s) : 6 channels
Channel layout : C L R Ls Rs LFE
Sampling rate : 48.0 kHz
Frame rate : 93.750 FPS (512 SPF)
Bit depth : 16 bits
Compression mode : Lossless
Stream size : 1.21 GiB (7%)
Title : DTS-HD MA 5.1
Language : English
Default : Yes
Forced : No
Original source medium : Blu-ray

Text #1
ID : 3
Format : UTF-8
Codec ID : S_TEXT/UTF8
Codec ID/Info : UTF-8 Plain Text
Duration : 1 h 22 min
Bit rate : 33 b/s
Count of elements : 987
Stream size : 20.3 KiB (0%)
Title : English-SRT
Language : English
Default : Yes
Forced : No

Text #2
ID : 4
ID in the original source medium : 4608 (0x1200)
Format : PGS
Muxing mode : zlib
Codec ID : S_HDMV/PGS
Codec ID/Info : Picture based subtitle format used on BDs/HD-DVDs
Duration : 1 h 26 min
Bit rate : 26.1 kb/s
Count of elements : 2296
Stream size : 16.1 MiB (0%)
Title : English-PGS
Language : English
Default : No
Forced : No
Original source medium : Blu-ray

Text #3
ID : 5
ID in the original source medium : 4609 (0x1201)
Format : PGS
Muxing mode : zlib
Codec ID : S_HDMV/PGS
Codec ID/Info : Picture based subtitle format used on BDs/HD-DVDs
Duration : 1 h 21 min
Bit rate : 21.5 kb/s
Count of elements : 1334
Stream size : 12.5 MiB (0%)
Title : French-PGS
Language : French
Default : No
Forced : No
Original source medium : Blu-ray

Text #4
ID : 6
ID in the original source medium : 4610 (0x1202)
Format : PGS
Muxing mode : zlib
Codec ID : S_HDMV/PGS
Codec ID/Info : Picture based subtitle format used on BDs/HD-DVDs
Duration : 1 h 21 min
Bit rate : 21.2 kb/s
Count of elements : 1360
Stream size : 12.4 MiB (0%)
Title : Spanish-PGS
Language : Spanish
Default : No
Forced : No
Original source medium : Blu-ray

Menu
00:00:00.000 : Chapter 01
00:08:47.860 : Chapter 02
00:19:10.524 : Chapter 03
00:28:48.518 : Chapter 04
00:38:13.833 : Chapter 05
00:49:17.829 : Chapter 06
01:00:24.329 : Chapter 07
01:09:22.324 : Chapter 08
01:18:51.852 : Chapter 09

本帖子中包含更多资源

您需要 登录 才可以下载或查看,没有帐号?立即注册

x
回复

使用道具 举报

0

主题

316

帖子

1453

积分

金牌会员

Rank: 6Rank: 6

积分
1453
发表于 2021-6-4 17:02:14 | 显示全部楼层
感谢楼主分享
回复

使用道具 举报

0

主题

385

帖子

2143

积分

金牌会员

Rank: 6Rank: 6

积分
2143
发表于 2021-6-4 17:23:00 | 显示全部楼层
楼主辛苦了,感谢分享!
回复

使用道具 举报

您需要登录后才可以回帖 登录 | 立即注册

本版积分规则

QQ|Archiver|手机版|小黑屋|原盘天堂 好多盘 点击这里给我发消息

GMT+8, 2021-6-13 10:33 , Processed in 0.054971 second(s), 25 queries .

Powered by Discuz! X3.4

Copyright © 2001-2020, Tencent Cloud.

快速回复 返回顶部 返回列表