请选择 进入手机版 | 继续访问电脑版
本站Q群713428235【盘盘多】已满,请新会员加原盘天堂新官方QQ群709708625【好多盘】,验证信息填写您在论坛的会员名,不填会员名的无法入群哈,进群后修改您的群名片名字为您在论坛的会员名,请务必修改,否则群成员多了不知道您是哪个会员。

原盘天堂

 找回密码
 立即注册
京东商城当当华为商城名牌时尚折扣网,一个新型的网上购物平台,我们每周为您精选3~4个国际知名品牌,商品折扣低至2折限时限量售卖,商品囊括时装、护肤品、箱包、皮具、配饰、香水等等,琳琅满目。亿格瑞A10硬盘播放器 苏宁易购
查看: 96|回复: 3

2d蓝光原盘bdmv 秘密窝点 英语原版 the.nest.2020.1080p.bluray.avc.dts-hd.ma.5.1[31.97 GB]

[复制链接]

6023

主题

6690

帖子

133万

积分

管理员

Rank: 18Rank: 18Rank: 18Rank: 18Rank: 18

积分
1332463
发表于 2021-6-3 11:31:50 | 显示全部楼层 |阅读模式









◎译  名 秘密窝点/金窝骇浪(台)/破碎归巢/上流假丈(港)/危险之家
◎片  名 The Nest
◎年  代 2020
◎产  地 英国/加拿大
◎类  别 剧情
◎语  言 英语
◎上映日期 2020-01-26(圣丹斯电影节)/2020-09-18(美国)
◎IMDb链接  https://www.imdb.com/title/tt8338762/
◎豆瓣评分 6.0/10 from 817 users
◎豆瓣链接 https://douban.com/subject/30206909/
◎片  长 107分钟
◎导  演 肖恩·德金
◎编  剧 肖恩·德金
◎主  演 裘德·洛
       凯莉·库恩
       安妮·雷德
       查理·肖特韦尔
       阿迪勒·阿赫塔尔
       塔蒂娜·琼斯
       迈克尔·卡尔金
       伯纳多·桑托斯
       凯萨·哈姆隆德
       朱利安·费罗
       奥利弗·加茨

◎标  签 剧情 | 英国 | 家庭 | 2020 | 裘德·洛 | 美国 | JudeLaw | 惊悚

◎简  介

  
  讲述雄心勃勃的企业家Rory带着他的美国妻子和孩子回到家乡英国,探索新的商机。而在放弃了安全的美国郊区生活后,他们居住在80年代古英式庄园里,新环境将对家庭造成巨大威胁,这栋怪异的独立楼房让家人之间隔阂越来越深,每个人都进入了一个自我毁灭的循环,不知道自己能否生存下来。
  

◎获奖情况

  第92届美国国家评论协会奖  (2020)
  十佳独立电影
  
  第30届哥谭独立电影奖  (2020)
  最佳男演员(提名) 裘德·洛
  最佳女演员(提名) 凯莉·库恩
  
  第33届芝加哥影评人协会奖  (2020)
  最佳女主角(提名) 凯莉·库恩


DISC INFO:

Disc Title:     The.Nest.2020.1080p.BluRay.AVC.DTS-HD.MA.5.1-iNTEGRUM
Disc Size:      34,324,346,921 bytes
Protection:     AACS
Extras:         BD-Java
BDInfo:         0.7.5.9 (compatible layout created by DVDFab 12.0.2.9)

PLAYLIST REPORT:

Name:                   01002.MPLS  
Length:                 1:47:31.486 (h:m:s.ms)
Size:                   31,451,049,984 bytes
Total Bitrate:          39.00 Mbps

VIDEO:

Codec                   Bitrate             Description     
-----                   -------             -----------     
MPEG-4 AVC Video        32000 kbps          1080p / 23.976 fps / 16:9 / High Profile 4.1

AUDIO:

Codec                           Language        Bitrate         Description     
-----                           --------        -------         -----------     
DTS-HD Master Audio             English         2873 kbps       5.1 / 48 kHz / 2873 kbps / 24-bit (DTS Core: 5.1 / 48 kHz / 1509 kbps / 24-bit)
DTS-HD Master Audio             English         1661 kbps       2.0 / 48 kHz / 1661 kbps / 24-bit (DTS Core: 2.0 / 48 kHz / 1509 kbps / 24-bit)
Dolby Digital Audio             English         192 kbps        2.0 / 48 kHz / 192 kbps

SUBTITLES:

Codec                           Language        Bitrate         Description     
-----                           --------        -------         -----------     
Presentation Graphics           English         29.904 kbps                     
Presentation Graphics           Spanish         31.205 kbps   

Video
ID : 1
ID in the original source medium : 4113 (0x1011)
Format : AVC
Format/Info : Advanced Video Codec
Format profile : [email protected]
Format settings : CABAC / 4 Ref Frames
Format settings, CABAC : Yes
Format settings, Reference frames : 4 frames
Codec ID : V_MPEG4/ISO/AVC
Duration : 1 h 47 min
Bit rate mode : Constant
Bit rate : 32.0 Mb/s
Width : 1 920 pixels
Height : 1 080 pixels
Display aspect ratio : 16:9
Frame rate mode : Constant
Frame rate : 23.976 (24000/1001) FPS
Color space : YUV
Chroma subsampling : 4:2:0
Bit depth : 8 bits
Scan type : Progressive
Bits/(Pixel*Frame) : 0.644
Stream size : 23.5 GiB (87%)
Language : English
Default : No
Forced : No
Original source medium : Blu-ray

Audio #1
ID : 2
ID in the original source medium : 4352 (0x1100)
Format : DTS XLL
Format/Info : Digital Theater Systems
Commercial name : DTS-HD Master Audio
Codec ID : A_DTS
Duration : 1 h 47 min
Bit rate mode : Variable
Bit rate : 2 873 kb/s
Channel(s) : 6 channels
Channel layout : C L R Ls Rs LFE
Sampling rate : 48.0 kHz
Frame rate : 93.750 FPS (512 SPF)
Bit depth : 24 bits
Compression mode : Lossless
Stream size : 2.16 GiB (8%)
Title : DTS-HD MA 5.1
Language : English
Default : Yes
Forced : No
Original source medium : Blu-ray

Audio #2
ID : 3
ID in the original source medium : 4353 (0x1101)
Format : DTS XLL
Format/Info : Digital Theater Systems
Commercial name : DTS-HD Master Audio
Codec ID : A_DTS
Duration : 1 h 47 min
Bit rate mode : Variable
Bit rate : 1 661 kb/s
Channel(s) : 2 channels
Channel layout : L R
Sampling rate : 48.0 kHz
Frame rate : 93.750 FPS (512 SPF)
Bit depth : 24 bits
Compression mode : Lossless
Stream size : 1.25 GiB (5%)
Title : DTS-HD MA 2.0
Language : English
Default : No
Forced : No
Original source medium : Blu-ray

Audio #3
ID : 4
ID in the original source medium : 4354 (0x1102)
Format : AC-3
Format/Info : Audio Coding 3
Commercial name : Dolby Digital
Codec ID : A_AC3
Duration : 1 h 47 min
Bit rate mode : Constant
Bit rate : 192 kb/s
Channel(s) : 2 channels
Channel layout : L R
Sampling rate : 48.0 kHz
Frame rate : 31.250 FPS (1536 SPF)
Compression mode : Lossy
Stream size : 148 MiB (1%)
Title : DD 2.0
Language : English
Service kind : Complete Main
Default : No
Forced : No
Original source medium : Blu-ray

Text #1
ID : 5
Format : UTF-8
Codec ID : S_TEXT/UTF8
Codec ID/Info : UTF-8 Plain Text
Duration : 1 h 39 min
Bit rate : 48 b/s
Count of elements : 1285
Stream size : 35.4 KiB (0%)
Title : English-SRT
Language : English
Default : Yes
Forced : No

Text #2
ID : 6
ID in the original source medium : 4608 (0x1200)
Format : PGS
Muxing mode : zlib
Codec ID : S_HDMV/PGS
Codec ID/Info : Picture based subtitle format used on BDs/HD-DVDs
Duration : 1 h 42 min
Bit rate : 31.2 kb/s
Count of elements : 1864
Stream size : 23.0 MiB (0%)
Title : English-PGS
Language : English
Default : No
Forced : No
Original source medium : Blu-ray

Text #3
ID : 7
ID in the original source medium : 4609 (0x1201)
Format : PGS
Muxing mode : zlib
Codec ID : S_HDMV/PGS
Codec ID/Info : Picture based subtitle format used on BDs/HD-DVDs
Duration : 1 h 39 min
Bit rate : 33.6 kb/s
Count of elements : 1917
Stream size : 24.0 MiB (0%)
Title : Spanish-PGS
Language : Spanish
Default : No
Forced : No
Original source medium : Blu-ray

Menu
00:00:00.000 : Chapter 01
00:08:14.619 : Chapter 02
00:19:58.322 : Chapter 03
00:30:48.596 : Chapter 04
00:41:02.501 : Chapter 05
00:51:42.808 : Chapter 06
00:59:26.771 : Chapter 07
01:07:38.763 : Chapter 08
01:17:25.474 : Chapter 09
01:23:31.881 : Chapter 10
01:32:59.991 : Chapter 11
01:42:50.873 : Chapter 12
01:47:30.777 : Chapter 13

本帖子中包含更多资源

您需要 登录 才可以下载或查看,没有帐号?立即注册

x
回复

使用道具 举报

0

主题

7

帖子

34

积分

新手上路

Rank: 1

积分
34
发表于 6 天前 | 显示全部楼层

支持一下分享好资源
回复

使用道具 举报

0

主题

438

帖子

3442

积分

论坛元老

Rank: 8Rank: 8

积分
3442
发表于 5 天前 | 显示全部楼层
楼主发贴辛苦了,谢谢楼主分享
回复

使用道具 举报

0

主题

71

帖子

369

积分

中级会员

Rank: 3Rank: 3

积分
369
发表于 3 天前 | 显示全部楼层
支持分享资源
回复

使用道具 举报

您需要登录后才可以回帖 登录 | 立即注册

本版积分规则

QQ|Archiver|手机版|小黑屋|原盘天堂 好多盘 点击这里给我发消息

GMT+8, 2021-6-13 11:30 , Processed in 0.059063 second(s), 25 queries .

Powered by Discuz! X3.4

Copyright © 2001-2020, Tencent Cloud.

快速回复 返回顶部 返回列表