请选择 进入手机版 | 继续访问电脑版
本站Q群713428235【盘盘多】已满,请新会员加原盘天堂新官方QQ群709708625【好多盘】,验证信息填写您在论坛的会员名,不填会员名的无法入群哈,进群后修改您的群名片名字为您在论坛的会员名,请务必修改,否则群成员多了不知道您是哪个会员。

原盘天堂

 找回密码
 立即注册
京东商城当当华为商城名牌时尚折扣网,一个新型的网上购物平台,我们每周为您精选3~4个国际知名品牌,商品折扣低至2折限时限量售卖,商品囊括时装、护肤品、箱包、皮具、配饰、香水等等,琳琅满目。亿格瑞A10硬盘播放器 苏宁易购
查看: 48|回复: 1

2d蓝光原盘bdmv 致奥利维亚 英语原版 to.olivia.2021.1080p.bluray.avc.dts-hd.ma.5.1[31.8 GB]

[复制链接]

6023

主题

6690

帖子

133万

积分

管理员

Rank: 18Rank: 18Rank: 18Rank: 18Rank: 18

积分
1332463
发表于 2021-6-2 10:16:01 | 显示全部楼层 |阅读模式






◎译  名 致奥利维亚/An Extra July/An Unquiet Life
◎片  名 To Olivia
◎年  代 2021
◎产  地 英国
◎类  别 剧情
◎语  言 英语
◎上映日期 2021-02-19(英国)
◎IMDb链接  https://www.imdb.com/title/tt7598106/
◎豆瓣评分 /10 from 0 users
◎豆瓣链接 https://douban.com/subject/34899619/
◎片  长 90分钟
◎导  演 约翰·海伊 John Hay
◎编  剧 约翰·海伊 John Hay / 大卫·罗根 David Logan
◎主  演 凯莉·霍威 Keeley Hawes
       休·博纳维尔 Hugh Bonneville
       萨姆·修汉 Sam Heughan
       康勒斯·希尔 Conleth Hill
       杰弗里·帕尔默 Geoffrey Palmer
       萨姆·菲利普斯 Sam Phillips
       迈克尔·吉普森 Michael Jibson

◎标  签 凯莉·霍威 | 英国电影 | 传记 | 萨姆·修汉 | 婚姻 | 历史 | 剧情 | 家庭

◎简  介

  
  根据传记《An Unquiet Life》改编,讲述了好莱坞著名影星Patricia Neal(帕德里夏·妮尔)和她的丈夫——英国作家Roald Dahl(罗尔德·达尔,《查理和巧克力工厂》的作者)之间波澜起伏的婚姻故事。
  
  Keeley Hawes将扮演1962年的Patricia(38岁),当时她与丈夫Dahl生活在英国乡间。原本平静的生活很快被一系列意外和巨变打破。
  
DISC INFO:

Disc Title:     To.Olivia.2021.1080p.BluRay.AVC.DTS-HD.MA.5.1-F2L
Disc Size:      34,136,989,822 bytes
Protection:     AACS
Extras:         50Hz Content
BDInfo:         0.7.5.9 (compatible layout created by DVDFab 12.0.2.9)

PLAYLIST REPORT:

Name:                   00000.MPLS  
Length:                 1:34:10.000 (h:m:s.ms)
Size:                   30,079,678,272 bytes
Total Bitrate:          42.59 Mbps

VIDEO:

Codec                   Bitrate             Description     
-----                   -------             -----------     
MPEG-4 AVC Video        34910 kbps          1080p / 24 fps / 16:9 / High Profile 4.1

AUDIO:

Codec                           Language        Bitrate         Description     
-----                           --------        -------         -----------     
LPCM Audio                      English         2304 kbps       2.0 / 48 kHz / 2304 kbps / 24-bit
DTS-HD Master Audio             English         3296 kbps       5.1 / 48 kHz / 3296 kbps / 24-bit (DTS Core: 5.1 / 48 kHz / 768 kbps / 24-bit)

SUBTITLES:

Codec                           Language        Bitrate         Description     
-----                           --------        -------         -----------     
Presentation Graphics           English         44.484 kbps     

Video
ID : 1
ID in the original source medium : 4113 (0x1011)
Format : AVC
Format/Info : Advanced Video Codec
Format profile : [email protected]
Format settings : CABAC / 4 Ref Frames
Format settings, CABAC : Yes
Format settings, Reference frames : 4 frames
Codec ID : V_MPEG4/ISO/AVC
Duration : 1 h 34 min
Bit rate mode : Variable
Bit rate : 34.7 Mb/s
Maximum bit rate : 38.0 Mb/s
Width : 1 920 pixels
Height : 1 080 pixels
Display aspect ratio : 16:9
Frame rate mode : Constant
Frame rate : 24.000 FPS
Color space : YUV
Chroma subsampling : 4:2:0
Bit depth : 8 bits
Scan type : Progressive
Bits/(Pixel*Frame) : 0.696
Stream size : 22.8 GiB (86%)
Language : English
Default : No
Forced : No
Original source medium : Blu-ray

Audio #1
ID : 2
ID in the original source medium : 4353 (0x1101)
Format : DTS XLL
Format/Info : Digital Theater Systems
Commercial name : DTS-HD Master Audio
Codec ID : A_DTS
Duration : 1 h 34 min
Bit rate mode : Variable
Bit rate : 3 296 kb/s
Channel(s) : 6 channels
Channel layout : C L R Ls Rs LFE
Sampling rate : 48.0 kHz
Frame rate : 93.750 FPS (512 SPF)
Bit depth : 24 bits
Compression mode : Lossless
Delay relative to video : 83 ms
Stream size : 2.17 GiB (8%)
Title : DTS-HD MA 5.1
Language : English
Default : Yes
Forced : No
Original source medium : Blu-ray

Audio #2
ID : 3
ID in the original source medium : 4352 (0x1100)
Format : PCM
Format settings : Little / Signed
Codec ID : A_PCM/INT/LIT
Duration : 1 h 34 min
Bit rate mode : Constant
Bit rate : 2 304 kb/s
Channel(s) : 2 channels
Sampling rate : 48.0 kHz
Frame rate : 30.000 FPS (1600 SPF)
Bit depth : 24 bits
Stream size : 1.52 GiB (6%)
Title : LCPM 2.0
Language : English
Default : No
Forced : No
Original source medium : Blu-ray

Text #1
ID : 4
Format : UTF-8
Codec ID : S_TEXT/UTF8
Codec ID/Info : UTF-8 Plain Text
Duration : 1 h 26 min
Bit rate : 51 b/s
Count of elements : 1062
Stream size : 32.5 KiB (0%)
Title : English-SRT
Language : English
Default : Yes
Forced : No

Text #2
ID : 5
ID in the original source medium : 4608 (0x1200)
Format : PGS
Muxing mode : zlib
Codec ID : S_HDMV/PGS
Codec ID/Info : Picture based subtitle format used on BDs/HD-DVDs
Duration : 1 h 27 min
Bit rate : 47.9 kb/s
Count of elements : 2362
Stream size : 30.0 MiB (0%)
Language : English
Default : No
Forced : No
Original source medium : Blu-ray

Menu
00:00:00.083 : Chapter 01
00:06:55.041 : Chapter 02
00:15:24.583 : Chapter 03
00:23:53.375 : Chapter 04
00:33:56.333 : Chapter 05
00:43:24.166 : Chapter 06
00:51:52.416 : Chapter 07
00:57:47.791 : Chapter 08
01:08:11.500 : Chapter 09
01:15:20.875 : Chapter 10
01:21:23.541 : Chapter 11
01:27:31.458 : Chapter 12

本帖子中包含更多资源

您需要 登录 才可以下载或查看,没有帐号?立即注册

x
回复

使用道具 举报

0

主题

316

帖子

1453

积分

金牌会员

Rank: 6Rank: 6

积分
1453
发表于 2021-6-4 16:56:51 | 显示全部楼层
感谢楼主分享
回复

使用道具 举报

您需要登录后才可以回帖 登录 | 立即注册

本版积分规则

QQ|Archiver|手机版|小黑屋|原盘天堂 好多盘 点击这里给我发消息

GMT+8, 2021-6-13 11:17 , Processed in 0.053670 second(s), 25 queries .

Powered by Discuz! X3.4

Copyright © 2001-2020, Tencent Cloud.

快速回复 返回顶部 返回列表