请选择 进入手机版 | 继续访问电脑版
本站Q群713428235【盘盘多】已满,请新会员加原盘天堂新官方QQ群709708625【好多盘】,验证信息填写您在论坛的会员名,不填会员名的无法入群哈,进群后修改您的群名片名字为您在论坛的会员名,请务必修改,否则群成员多了不知道您是哪个会员。

原盘天堂

 找回密码
 立即注册
京东商城当当华为商城名牌时尚折扣网,一个新型的网上购物平台,我们每周为您精选3~4个国际知名品牌,商品折扣低至2折限时限量售卖,商品囊括时装、护肤品、箱包、皮具、配饰、香水等等,琳琅满目。亿格瑞A10硬盘播放器 苏宁易购
查看: 81|回复: 6

4k蓝光原盘bdmv 幻影英雄 中字 last.action.hero.1993.2160p.bluray.hevc.truehd.7.1.atmos[82.42 GB]

[复制链接]

6023

主题

6690

帖子

133万

积分

管理员

Rank: 18Rank: 18Rank: 18Rank: 18Rank: 18

积分
1332455
发表于 2021-6-1 15:36:57 | 显示全部楼层 |阅读模式






◎译  名 幻影英雄/最后的打斗英雄/最后的动作英雄/最后魔鬼英雄(台)
◎片  名 Last Action Hero
◎年  代 1993
◎产  地 美国
◎类  别 喜剧/动作/奇幻/冒险
◎语  言 英语
◎上映日期 1993-06-18
◎IMDb链接  https://www.imdb.com/title/tt0107362/
◎豆瓣评分 7.6/10 from 7272 users
◎豆瓣链接 https://douban.com/subject/1300343/
◎片  长 130 分钟
◎导  演 约翰·麦克蒂尔南 John McTiernan
◎编  剧 沙恩·布莱克 Shane Black / David Arnott / 扎克·佩恩 Zak Penn / Adam Leff / 戴维阿诺特 David Arnott
◎主  演 阿诺·施瓦辛格 Arnold Schwarzenegger
       F·默里·亚伯拉罕 F. Murray Abraham
       阿特·卡尼 Art Carney
       查尔斯·丹斯 Charles Dance
       弗兰克·麦克雷 Frank McRae
       汤姆·诺南 Tom Noonan
       罗伯特·普罗斯基 Robert Prosky
       安东尼·奎恩 Anthony Quinn
       梅塞迪丝·鲁尔 Mercedes Ruehl
       奥斯汀·奥布莱恩 Austin O'Brien
       伊恩·麦克莱恩 Ian McKellen
       田中通教授 Professor Toru Tanaka
       琼·普莱怀特 Joan Plowright
       Keith Barish
       凯伦·达菲 Karen Duffy
       迈克尔·V·格佐 Michael V. Gazzo
       丹尼·德维托 Danny DeVito
       莉扎·吉邦斯 Leeza Gibbons
       詹姆斯·贝鲁什 James Belushi
       达蒙·韦恩斯 Damon Wayans
       小理查德 Little Richard
       尚格·云顿 Jean-Claude Van Damme
       玛利亚·施莱沃 Maria Shriver
       Chris Connelly
       M.C. Hammer
       波斯·怀特 Persia White
       拉里·弗格森 Larry Ferguson
       Ryan Todd
       Peter Kent
       马文·范·皮伯斯 Melvin Van Peebles
       考林·加普 Colleen Camp
       安娜纳瓦罗 Anna Navarro
       蒂娜·特纳 Tina Turner
       Dagmar Koller
       Henry Kingi
       里克·杜科蒙 Rick Ducommun
       Neriah Davis
       R.C. Bates
       Bobbie Brown
       罗伯特·帕特里克 Robert Patrick
       安吉·艾佛哈特 Angie Everhart
       小托马斯·罗萨莱斯 Thomas Rosales Jr.
       迈克·马斯喀特 Mike Muscat
       Billy D. Lucas
       切维·切斯 Chevy Chase
       布里吉特·威尔逊 Bridgette Wilson-Sampras
       Anthony Peck
       史文-欧尔·托尔森 Sven-Ole Thorsen
       莎朗·斯通 Sharon Stone
       诺亚·艾默里奇 Noah Emmerich
       Jason Menz
       Bryan Hanna
       Michael Straka
       Symba Smith
       李·雷赫曼 Lee Reherman

◎标  签 动作 | 美国 | 科幻 | 喜剧 | 施瓦辛格 | 1993 | 阿诺德·施瓦辛格 | 美国电影

◎简  介

  
  杰克系列电影是由施瓦辛格主演的系列电影。在这电影中,施瓦辛格扮演的杰克(阿诺•施瓦辛格 Arnold Schwarzenegger 饰)总是世界的救世主,每当他的老对头班尼迪(查里斯•丹斯 Charles Dance 饰)出来作恶时,杰克总是能及时赶到,讲班尼迪打得落花流水。小男孩丹尼是杰克系列电影的忠实影迷,杰克系列电影的前三集他都能倒背如流。这天他的好朋友,电影放映员尼克给了丹尼一张神奇的电影,丹尼凭着这张电影票进入到了还未上演的杰克系列第四集中。
  
  不料班尼迪抢走了丹尼的电影票,从电影中来到了现实中。他的目标就是除掉杰克的扮演者施瓦辛格,这样在电影世界里就不再有人能够阻止他的邪恶计划。
  
DISC INFO:

Disc Title:     Last.Action.Hero.1993.2160p.BluRay.HEVC.TrueHD.7.1.Atmos-ESiR
Disc Size:      88,480,939,314 bytes
Protection:     AACS2
Extras:         Ultra HD, BD-Java
BDInfo:         0.7.5.9 (compatible layout created by DVDFab 12.0.2.9)

PLAYLIST REPORT:

Name:                   00001.MPLS  
Length:                 2:10:55.847 (h:m:s.ms)
Size:                   83,680,456,704 bytes
Total Bitrate:          85.22 Mbps

VIDEO:

Codec                   Bitrate             Description     
-----                   -------             -----------     
MPEG-H HEVC Video       58940 kbps          2160p / 23.976 fps / 16:9 / Main 10 @ Level 5.1 @ High / 4:2:0 / 10 bits / 4000nits / HDR10 / BT.2020

AUDIO:

Codec                           Language        Bitrate         Description     
-----                           --------        -------         -----------     
Dolby TrueHD/Atmos Audio        English         5297 kbps       7.1+11 objects / 48 kHz / 4657 kbps / 24-bit (AC3 Core: 5.1 / 48 kHz / 640 kbps)
DTS-HD Master Audio             English         2366 kbps       5.1 / 48 kHz / 2366 kbps / 16-bit (DTS Core: 5.1 / 48 kHz / 1509 kbps / 16-bit)
DTS-HD Master Audio             English         1569 kbps       2.0 / 48 kHz / 1569 kbps / 16-bit (DTS Core: 2.0 / 48 kHz / 1509 kbps / 16-bit)
Dolby Digital Audio             Czech           640 kbps        5.1 / 48 kHz / 640 kbps
DTS-HD Master Audio             French          2301 kbps       5.1 / 48 kHz / 2301 kbps / 16-bit (DTS Core: 5.1 / 48 kHz / 1509 kbps / 16-bit)
Dolby Digital Audio             French          192 kbps        2.0 / 48 kHz / 192 kbps / Dolby Surround
DTS-HD Master Audio             German          2379 kbps       5.1 / 48 kHz / 2379 kbps / 16-bit (DTS Core: 5.1 / 48 kHz / 1509 kbps / 16-bit)
Dolby Digital Audio             Hungarian       640 kbps        5.1 / 48 kHz / 640 kbps
Dolby Digital Audio             Italian         640 kbps        5.1 / 48 kHz / 640 kbps
Dolby Digital Audio             Polish          640 kbps        5.1 / 48 kHz / 640 kbps
DTS-HD Master Audio             Spanish         2386 kbps       5.1 / 48 kHz / 2386 kbps / 16-bit (DTS Core: 5.1 / 48 kHz / 1509 kbps / 16-bit)
Dolby Digital Audio             Spanish         640 kbps        5.1 / 48 kHz / 640 kbps
Dolby Digital Audio             Thai            192 kbps        2.0 / 48 kHz / 192 kbps
Dolby Digital Audio             English         192 kbps        2.0 / 48 kHz / 192 kbps / Dolby Surround

SUBTITLES:

Codec                           Language        Bitrate         Description     
-----                           --------        -------         -----------     
Presentation Graphics           English         35.447 kbps                     
Presentation Graphics           English         31.174 kbps                     
Presentation Graphics           English         35.209 kbps                     
Presentation Graphics           English         31.185 kbps                     
Presentation Graphics           Chinese         23.862 kbps                     
Presentation Graphics           Chinese         18.471 kbps                     
Presentation Graphics           Czech           23.653 kbps                     
Presentation Graphics           Danish          24.104 kbps                     
Presentation Graphics           Dutch           22.741 kbps                     
Presentation Graphics           Finnish         22.544 kbps                     
Presentation Graphics           French          25.104 kbps                     
Presentation Graphics           German          30.194 kbps                     
Presentation Graphics           Hungarian       22.157 kbps                     
Presentation Graphics           Italian         24.395 kbps                     
Presentation Graphics           Korean          24.562 kbps                     
Presentation Graphics           Norwegian       23.749 kbps                     
Presentation Graphics           Polish          20.777 kbps                     
Presentation Graphics           Spanish         25.271 kbps                     
Presentation Graphics           Spanish         27.321 kbps                     
Presentation Graphics           Swedish         24.172 kbps                     
Presentation Graphics           Thai            29.913 kbps                     
Presentation Graphics           French          0.149 kbps                     
Presentation Graphics           English         41.77 kbps                     
Presentation Graphics           Chinese         30.49 kbps                     
Presentation Graphics           Dutch           33.516 kbps                     
Presentation Graphics           French          35.402 kbps                     
Presentation Graphics           German          39.181 kbps                     
Presentation Graphics           Italian         35.635 kbps                     
Presentation Graphics           Korean          30.348 kbps                     
Presentation Graphics           Spanish         35.481 kbps                     
Presentation Graphics           Spanish         39.035 kbps                     
Presentation Graphics           Thai            39.352 kbps      

Video
ID : 1
ID in the original source medium : 4113 (0x1011)
Format : HEVC
Format/Info : High Efficiency Video Coding
Format profile : Main [email protected]@High
HDR format : SMPTE ST 2086, HDR10 compatible
Codec ID : V_MPEGH/ISO/HEVC
Duration : 2 h 10 min
Bit rate : 58.9 Mb/s
Width : 3 840 pixels
Height : 2 160 pixels
Display aspect ratio : 16:9
Frame rate mode : Constant
Frame rate : 23.976 (24000/1001) FPS
Color space : YUV
Chroma subsampling : 4:2:0 (Type 2)
Bit depth : 10 bits
Bits/(Pixel*Frame) : 0.296
Stream size : 53.9 GiB (72%)
Language : English
Default : No
Forced : No
Color range : Limited
Color primaries : BT.2020
Transfer characteristics : PQ
Matrix coefficients : BT.2020 non-constant
Mastering display color primaries : Display P3
Mastering display luminance : min: 0.0050 cd/m2, max: 4000 cd/m2
Maximum Content Light Level : 3991 cd/m2
Maximum Frame-Average Light Level : 1352 cd/m2
Original source medium : Blu-ray

Audio #1
ID : 2
ID in the original source medium : 4352 (0x1100)
Format : MLP FBA 16-ch
Format/Info : Meridian Lossless Packing FBA with 16-channel presentation
Commercial name : Dolby TrueHD with Dolby Atmos
Codec ID : A_TRUEHD
Duration : 2 h 10 min
Bit rate mode : Variable
Bit rate : 4 657 kb/s
Maximum bit rate : 8 667 kb/s
Channel(s) : 8 channels
Channel layout : L R C LFE Ls Rs Lb Rb
Sampling rate : 48.0 kHz
Frame rate : 1 200.000 FPS (40 SPF)
Bit depth : 24 bits
Compression mode : Lossless
Stream size : 4.26 GiB (6%)
Title : TrueHD 7.1 Atmos
Language : English
Default : Yes
Forced : No
Original source medium : Blu-ray
Number of dynamic objects : 11
Bed channel count : 1 channel
Bed channel configuration : LFE

Audio #2
ID : 3
Format : DTS XLL
Format/Info : Digital Theater Systems
Commercial name : DTS-HD Master Audio
Codec ID : A_DTS
Duration : 2 h 10 min
Bit rate mode : Variable
Bit rate : 4 336 kb/s
Channel(s) : 8 channels
Channel layout : C L R LFE Lb Rb Lss Rss
Sampling rate : 48.0 kHz
Frame rate : 93.750 FPS (512 SPF)
Bit depth : 24 bits
Compression mode : Lossless
Stream size : 3.97 GiB (5%)
Title : DTS-HD MA 7.1
Language : English
Default : No
Forced : No

Audio #3
ID : 4
ID in the original source medium : 4352 (0x1100)
Format : AC-3
Format/Info : Audio Coding 3
Commercial name : Dolby Digital
Codec ID : A_AC3
Duration : 2 h 10 min
Bit rate mode : Constant
Bit rate : 640 kb/s
Channel(s) : 6 channels
Channel layout : L R C LFE Ls Rs
Sampling rate : 48.0 kHz
Frame rate : 31.250 FPS (1536 SPF)
Compression mode : Lossy
Stream size : 599 MiB (1%)
Title : DD 5.1
Language : English
Service kind : Complete Main
Default : No
Forced : No
Original source medium : Blu-ray

Audio #4
ID : 5
ID in the original source medium : 4354 (0x1102)
Format : DTS XLL
Format/Info : Digital Theater Systems
Commercial name : DTS-HD Master Audio
Codec ID : A_DTS
Duration : 2 h 10 min
Bit rate mode : Variable
Bit rate : 1 569 kb/s
Channel(s) : 2 channels
Sampling rate : 48.0 kHz
Frame rate : 93.750 FPS (512 SPF)
Bit depth : 16 bits
Compression mode : Lossless
Stream size : 1.44 GiB (2%)
Title : DTS-HD MA 2.0
Language : English
Default : No
Forced : No
Original source medium : Blu-ray

Audio #5
ID : 6
ID in the original source medium : 4355 (0x1103)
Format : AC-3
Format/Info : Audio Coding 3
Commercial name : Dolby Digital
Codec ID : A_AC3
Duration : 2 h 10 min
Bit rate mode : Constant
Bit rate : 640 kb/s
Channel(s) : 6 channels
Channel layout : L R C LFE Ls Rs
Sampling rate : 48.0 kHz
Frame rate : 31.250 FPS (1536 SPF)
Compression mode : Lossy
Stream size : 599 MiB (1%)
Title : DD 5.1
Language : Czech
Service kind : Complete Main
Default : No
Forced : No
Original source medium : Blu-ray

Audio #6
ID : 7
ID in the original source medium : 4356 (0x1104)
Format : DTS XLL
Format/Info : Digital Theater Systems
Commercial name : DTS-HD Master Audio
Codec ID : A_DTS
Duration : 2 h 10 min
Bit rate mode : Variable
Bit rate : 2 301 kb/s
Channel(s) : 6 channels
Channel layout : C L R Ls Rs LFE
Sampling rate : 48.0 kHz
Frame rate : 93.750 FPS (512 SPF)
Bit depth : 16 bits
Compression mode : Lossless
Stream size : 2.10 GiB (3%)
Title : DTS-HD MA 5.1
Language : French
Default : No
Forced : No
Original source medium : Blu-ray

Audio #7
ID : 8
ID in the original source medium : 4357 (0x1105)
Format : AC-3
Format/Info : Audio Coding 3
Commercial name : Dolby Digital
Format settings : Dolby Surround
Codec ID : A_AC3
Duration : 2 h 10 min
Bit rate mode : Constant
Bit rate : 192 kb/s
Channel(s) : 2 channels
Channel layout : L R
Sampling rate : 48.0 kHz
Frame rate : 31.250 FPS (1536 SPF)
Compression mode : Lossy
Stream size : 180 MiB (0%)
Title : DD 2.0
Language : French
Service kind : Complete Main
Default : No
Forced : No
Original source medium : Blu-ray

Audio #8
ID : 9
ID in the original source medium : 4358 (0x1106)
Format : DTS XLL
Format/Info : Digital Theater Systems
Commercial name : DTS-HD Master Audio
Codec ID : A_DTS
Duration : 2 h 10 min
Bit rate mode : Variable
Bit rate : 2 379 kb/s
Channel(s) : 6 channels
Channel layout : C L R Ls Rs LFE
Sampling rate : 48.0 kHz
Frame rate : 93.750 FPS (512 SPF)
Bit depth : 16 bits
Compression mode : Lossless
Stream size : 2.18 GiB (3%)
Title : DTS-HD MA 5.1
Language : German
Default : No
Forced : No
Original source medium : Blu-ray

Audio #9
ID : 10
ID in the original source medium : 4359 (0x1107)
Format : AC-3
Format/Info : Audio Coding 3
Commercial name : Dolby Digital
Codec ID : A_AC3
Duration : 2 h 10 min
Bit rate mode : Constant
Bit rate : 640 kb/s
Channel(s) : 6 channels
Channel layout : L R C LFE Ls Rs
Sampling rate : 48.0 kHz
Frame rate : 31.250 FPS (1536 SPF)
Compression mode : Lossy
Stream size : 599 MiB (1%)
Title : DD 5.1
Language : Hungarian
Service kind : Complete Main
Default : No
Forced : No
Original source medium : Blu-ray

Audio #10
ID : 11
ID in the original source medium : 4360 (0x1108)
Format : AC-3
Format/Info : Audio Coding 3
Commercial name : Dolby Digital
Codec ID : A_AC3
Duration : 2 h 10 min
Bit rate mode : Constant
Bit rate : 640 kb/s
Channel(s) : 6 channels
Channel layout : L R C LFE Ls Rs
Sampling rate : 48.0 kHz
Frame rate : 31.250 FPS (1536 SPF)
Compression mode : Lossy
Stream size : 599 MiB (1%)
Title : DD 5.1
Language : Italian
Service kind : Complete Main
Default : No
Forced : No
Original source medium : Blu-ray

Audio #11
ID : 12
ID in the original source medium : 4361 (0x1109)
Format : AC-3
Format/Info : Audio Coding 3
Commercial name : Dolby Digital
Codec ID : A_AC3
Duration : 2 h 10 min
Bit rate mode : Constant
Bit rate : 640 kb/s
Channel(s) : 6 channels
Channel layout : L R C LFE Ls Rs
Sampling rate : 48.0 kHz
Frame rate : 31.250 FPS (1536 SPF)
Compression mode : Lossy
Stream size : 599 MiB (1%)
Title : DD 5.1
Language : Polish
Service kind : Complete Main
Default : No
Forced : No
Original source medium : Blu-ray

Audio #12
ID : 13
ID in the original source medium : 4362 (0x110A)
Format : DTS XLL
Format/Info : Digital Theater Systems
Commercial name : DTS-HD Master Audio
Codec ID : A_DTS
Duration : 2 h 10 min
Bit rate mode : Variable
Bit rate : 2 386 kb/s
Channel(s) : 6 channels
Channel layout : C L R Ls Rs LFE
Sampling rate : 48.0 kHz
Frame rate : 93.750 FPS (512 SPF)
Bit depth : 16 bits
Compression mode : Lossless
Stream size : 2.18 GiB (3%)
Title : DTS-HD MA 5.1
Language : Spanish
Default : No
Forced : No
Original source medium : Blu-ray

Audio #13
ID : 14
ID in the original source medium : 4363 (0x110B)
Format : AC-3
Format/Info : Audio Coding 3
Commercial name : Dolby Digital
Codec ID : A_AC3
Duration : 2 h 10 min
Bit rate mode : Constant
Bit rate : 640 kb/s
Channel(s) : 6 channels
Channel layout : L R C LFE Ls Rs
Sampling rate : 48.0 kHz
Frame rate : 31.250 FPS (1536 SPF)
Compression mode : Lossy
Stream size : 599 MiB (1%)
Title : DD 5.1
Language : Spanish
Service kind : Complete Main
Default : No
Forced : No
Original source medium : Blu-ray

Audio #14
ID : 15
ID in the original source medium : 4364 (0x110C)
Format : AC-3
Format/Info : Audio Coding 3
Commercial name : Dolby Digital
Codec ID : A_AC3
Duration : 2 h 10 min
Bit rate mode : Constant
Bit rate : 192 kb/s
Channel(s) : 2 channels
Channel layout : L R
Sampling rate : 48.0 kHz
Frame rate : 31.250 FPS (1536 SPF)
Compression mode : Lossy
Stream size : 180 MiB (0%)
Title : DD 2.0
Language : Thai
Service kind : Complete Main
Default : No
Forced : No
Original source medium : Blu-ray

Audio #15
ID : 16
ID in the original source medium : 4365 (0x110D)
Format : AC-3
Format/Info : Audio Coding 3
Commercial name : Dolby Digital
Format settings : Dolby Surround
Codec ID : A_AC3
Duration : 2 h 10 min
Bit rate mode : Constant
Bit rate : 192 kb/s
Channel(s) : 2 channels
Channel layout : L R
Sampling rate : 48.0 kHz
Frame rate : 31.250 FPS (1536 SPF)
Compression mode : Lossy
Stream size : 180 MiB (0%)
Title : DD 2.0
Language : English
Service kind : Complete Main
Default : No
Forced : No
Original source medium : Blu-ray

Text #1
ID : 17
Format : UTF-8
Codec ID : S_TEXT/UTF8
Codec ID/Info : UTF-8 Plain Text
Duration : 2 h 2 min
Bit rate : 57 b/s
Count of elements : 1326
Stream size : 51.7 KiB (0%)
Title : English-SRT
Language : English
Default : Yes
Forced : No

Text #2
ID : 18
ID in the original source medium : 4768 (0x12A0)
Format : PGS
Muxing mode : zlib
Codec ID : S_HDMV/PGS
Codec ID/Info : Picture based subtitle format used on BDs/HD-DVDs
Duration : 2 h 10 min
Bit rate : 35.6 kb/s
Count of elements : 3166
Stream size : 33.2 MiB (0%)
Title : English-SDH-PGS
Language : English
Default : No
Forced : No
Original source medium : Blu-ray

Text #3
ID : 19
ID in the original source medium : 4769 (0x12A1)
Format : PGS
Muxing mode : zlib
Codec ID : S_HDMV/PGS
Codec ID/Info : Picture based subtitle format used on BDs/HD-DVDs
Duration : 2 h 2 min
Bit rate : 33.3 kb/s
Count of elements : 2658
Stream size : 29.2 MiB (0%)
Title : English-PGS
Language : English
Default : No
Forced : No
Original source medium : Blu-ray

Text #4
ID : 20
ID in the original source medium : 4770 (0x12A2)
Format : PGS
Muxing mode : zlib
Codec ID : S_HDMV/PGS
Codec ID/Info : Picture based subtitle format used on BDs/HD-DVDs
Duration : 2 h 10 min
Bit rate : 35.4 kb/s
Count of elements : 3128
Stream size : 33.0 MiB (0%)
Title : English-SDH-PGS
Language : English
Default : No
Forced : No
Original source medium : Blu-ray

Text #5
ID : 21
ID in the original source medium : 4771 (0x12A3)
Format : PGS
Muxing mode : zlib
Codec ID : S_HDMV/PGS
Codec ID/Info : Picture based subtitle format used on BDs/HD-DVDs
Duration : 2 h 2 min
Bit rate : 33.3 kb/s
Count of elements : 2658
Stream size : 29.2 MiB (0%)
Title : English-PGS
Language : English
Default : No
Forced : No
Original source medium : Blu-ray

Text #6
ID : 22
ID in the original source medium : 4772 (0x12A4)
Format : PGS
Muxing mode : zlib
Codec ID : S_HDMV/PGS
Codec ID/Info : Picture based subtitle format used on BDs/HD-DVDs
Duration : 2 h 2 min
Bit rate : 25.5 kb/s
Count of elements : 2679
Stream size : 22.3 MiB (0%)
Title : Chinese-PGS
Language : Chinese
Default : No
Forced : No
Original source medium : Blu-ray

Text #7
ID : 23
ID in the original source medium : 4773 (0x12A5)
Format : PGS
Muxing mode : zlib
Codec ID : S_HDMV/PGS
Codec ID/Info : Picture based subtitle format used on BDs/HD-DVDs
Duration : 2 h 2 min
Bit rate : 19.8 kb/s
Count of elements : 2466
Stream size : 17.3 MiB (0%)
Title : Chinese-PGS
Language : Chinese
Default : No
Forced : No
Original source medium : Blu-ray

Text #8
ID : 24
ID in the original source medium : 4774 (0x12A6)
Format : PGS
Muxing mode : zlib
Codec ID : S_HDMV/PGS
Codec ID/Info : Picture based subtitle format used on BDs/HD-DVDs
Duration : 2 h 2 min
Bit rate : 25.3 kb/s
Count of elements : 1918
Stream size : 22.2 MiB (0%)
Title : Czech-PGS
Language : Czech
Default : No
Forced : No
Original source medium : Blu-ray

Text #9
ID : 25
ID in the original source medium : 4774 (0x12A6)
Format : PGS
Muxing mode : zlib
Codec ID : S_HDMV/PGS
Codec ID/Info : Picture based subtitle format used on BDs/HD-DVDs
Duration : 9 min 19 s
Bit rate : 729 b/s
Count of elements : 6
Stream size : 49.8 KiB (0%)
Title : Czech-FORCED-PGS
Language : Czech
Default : No
Forced : No
Original source medium : Blu-ray

Text #10
ID : 26
ID in the original source medium : 4775 (0x12A7)
Format : PGS
Muxing mode : zlib
Codec ID : S_HDMV/PGS
Codec ID/Info : Picture based subtitle format used on BDs/HD-DVDs
Duration : 2 h 9 min
Bit rate : 24.3 kb/s
Count of elements : 1952
Stream size : 22.6 MiB (0%)
Title : Danish-PGS
Language : Danish
Default : No
Forced : No
Original source medium : Blu-ray

Text #11
ID : 27
ID in the original source medium : 4776 (0x12A8)
Format : PGS
Muxing mode : zlib
Codec ID : S_HDMV/PGS
Codec ID/Info : Picture based subtitle format used on BDs/HD-DVDs
Duration : 2 h 2 min
Bit rate : 24.3 kb/s
Count of elements : 1938
Stream size : 21.3 MiB (0%)
Title : Dutch-PGS
Language : Dutch
Default : No
Forced : No
Original source medium : Blu-ray

Text #12
ID : 28
ID in the original source medium : 4777 (0x12A9)
Format : PGS
Muxing mode : zlib
Codec ID : S_HDMV/PGS
Codec ID/Info : Picture based subtitle format used on BDs/HD-DVDs
Duration : 2 h 9 min
Bit rate : 22.7 kb/s
Count of elements : 1964
Stream size : 21.1 MiB (0%)
Title : Finnish-PGS
Language : Finnish
Default : No
Forced : No
Original source medium : Blu-ray

Text #13
ID : 29
ID in the original source medium : 4778 (0x12AA)
Format : PGS
Muxing mode : zlib
Codec ID : S_HDMV/PGS
Codec ID/Info : Picture based subtitle format used on BDs/HD-DVDs
Duration : 2 h 9 min
Bit rate : 25.3 kb/s
Count of elements : 1968
Stream size : 23.5 MiB (0%)
Title : French-PGS
Language : French
Default : No
Forced : No
Original source medium : Blu-ray

Text #14
ID : 30
ID in the original source medium : 4778 (0x12AA)
Format : PGS
Muxing mode : zlib
Codec ID : S_HDMV/PGS
Codec ID/Info : Picture based subtitle format used on BDs/HD-DVDs
Duration : 2 h 9 min
Bit rate : 94 b/s
Count of elements : 14
Stream size : 89.1 KiB (0%)
Title : French-FORCED-PGS
Language : French
Default : No
Forced : No
Original source medium : Blu-ray

Text #15
ID : 31
ID in the original source medium : 4779 (0x12AB)
Format : PGS
Muxing mode : zlib
Codec ID : S_HDMV/PGS
Codec ID/Info : Picture based subtitle format used on BDs/HD-DVDs
Duration : 2 h 2 min
Bit rate : 32.3 kb/s
Count of elements : 1968
Stream size : 28.3 MiB (0%)
Title : German-PGS
Language : German
Default : No
Forced : No
Original source medium : Blu-ray

Text #16
ID : 32
ID in the original source medium : 4779 (0x12AB)
Format : PGS
Muxing mode : zlib
Codec ID : S_HDMV/PGS
Codec ID/Info : Picture based subtitle format used on BDs/HD-DVDs
Duration : 9 min 19 s
Bit rate : 905 b/s
Count of elements : 8
Stream size : 61.8 KiB (0%)
Title : German-FORCED-PGS
Language : German
Default : No
Forced : No
Original source medium : Blu-ray

Text #17
ID : 33
ID in the original source medium : 4780 (0x12AC)
Format : PGS
Muxing mode : zlib
Codec ID : S_HDMV/PGS
Codec ID/Info : Picture based subtitle format used on BDs/HD-DVDs
Duration : 2 h 9 min
Bit rate : 22.3 kb/s
Count of elements : 1942
Stream size : 20.7 MiB (0%)
Title : Hungarian-PGS
Language : Hungarian
Default : No
Forced : No
Original source medium : Blu-ray

Text #18
ID : 34
ID in the original source medium : 4780 (0x12AC)
Format : PGS
Muxing mode : zlib
Codec ID : S_HDMV/PGS
Codec ID/Info : Picture based subtitle format used on BDs/HD-DVDs
Duration : 26 min 2 s
Bit rate : 404 b/s
Count of elements : 10
Stream size : 77.2 KiB (0%)
Title : Hungarian-FORCED-PGS
Language : Hungarian
Default : No
Forced : No
Original source medium : Blu-ray

Text #19
ID : 35
ID in the original source medium : 4781 (0x12AD)
Format : PGS
Muxing mode : zlib
Codec ID : S_HDMV/PGS
Codec ID/Info : Picture based subtitle format used on BDs/HD-DVDs
Duration : 2 h 2 min
Bit rate : 26.1 kb/s
Count of elements : 1950
Stream size : 22.8 MiB (0%)
Title : Italian-PGS
Language : Italian
Default : No
Forced : No
Original source medium : Blu-ray

Text #20
ID : 36
ID in the original source medium : 4781 (0x12AD)
Format : PGS
Muxing mode : zlib
Codec ID : S_HDMV/PGS
Codec ID/Info : Picture based subtitle format used on BDs/HD-DVDs
Duration : 9 min 19 s
Bit rate : 950 b/s
Count of elements : 8
Stream size : 64.9 KiB (0%)
Title : Italian-FORCED-PGS
Language : Italian
Default : No
Forced : No
Original source medium : Blu-ray

Text #21
ID : 37
ID in the original source medium : 4782 (0x12AE)
Format : PGS
Muxing mode : zlib
Codec ID : S_HDMV/PGS
Codec ID/Info : Picture based subtitle format used on BDs/HD-DVDs
Duration : 2 h 3 min
Bit rate : 26.1 kb/s
Count of elements : 2676
Stream size : 23.0 MiB (0%)
Title : Korean-PGS
Language : Korean
Default : No
Forced : No
Original source medium : Blu-ray

Text #22
ID : 38
ID in the original source medium : 4783 (0x12AF)
Format : PGS
Muxing mode : zlib
Codec ID : S_HDMV/PGS
Codec ID/Info : Picture based subtitle format used on BDs/HD-DVDs
Duration : 2 h 9 min
Bit rate : 24.0 kb/s
Count of elements : 1942
Stream size : 22.2 MiB (0%)
Title : Norwegian-PGS
Language : Norwegian
Default : No
Forced : No
Original source medium : Blu-ray

Text #23
ID : 39
ID in the original source medium : 4784 (0x12B0)
Format : PGS
Muxing mode : zlib
Codec ID : S_HDMV/PGS
Codec ID/Info : Picture based subtitle format used on BDs/HD-DVDs
Duration : 2 h 2 min
Bit rate : 22.2 kb/s
Count of elements : 1950
Stream size : 19.5 MiB (0%)
Title : Polish-PGS
Language : Polish
Default : No
Forced : No
Original source medium : Blu-ray

Text #24
ID : 40
ID in the original source medium : 4784 (0x12B0)
Format : PGS
Muxing mode : zlib
Codec ID : S_HDMV/PGS
Codec ID/Info : Picture based subtitle format used on BDs/HD-DVDs
Duration : 9 min 19 s
Bit rate : 805 b/s
Count of elements : 8
Stream size : 55.0 KiB (0%)
Title : Polish-FORCED-PGS
Language : Polish
Default : No
Forced : No
Original source medium : Blu-ray

Text #25
ID : 41
ID in the original source medium : 4785 (0x12B1)
Format : PGS
Muxing mode : zlib
Codec ID : S_HDMV/PGS
Codec ID/Info : Picture based subtitle format used on BDs/HD-DVDs
Duration : 2 h 9 min
Bit rate : 25.5 kb/s
Count of elements : 1986
Stream size : 23.7 MiB (0%)
Title : Spanish-PGS
Language : Spanish
Default : No
Forced : No
Original source medium : Blu-ray

Text #26
ID : 42
ID in the original source medium : 4785 (0x12B1)
Format : PGS
Muxing mode : zlib
Codec ID : S_HDMV/PGS
Codec ID/Info : Picture based subtitle format used on BDs/HD-DVDs
Duration : 26 min 2 s
Bit rate : 529 b/s
Count of elements : 10
Stream size : 101 KiB (0%)
Title : Spanish-FORCED-PGS
Language : Spanish
Default : No
Forced : No
Original source medium : Blu-ray

Text #27
ID : 43
ID in the original source medium : 4786 (0x12B2)
Format : PGS
Muxing mode : zlib
Codec ID : S_HDMV/PGS
Codec ID/Info : Picture based subtitle format used on BDs/HD-DVDs
Duration : 2 h 3 min
Bit rate : 29.0 kb/s
Count of elements : 2820
Stream size : 25.6 MiB (0%)
Title : Spanish-PGS
Language : Spanish
Default : No
Forced : No
Original source medium : Blu-ray

Text #28
ID : 44
ID in the original source medium : 4786 (0x12B2)
Format : PGS
Muxing mode : zlib
Codec ID : S_HDMV/PGS
Codec ID/Info : Picture based subtitle format used on BDs/HD-DVDs
Duration : 1 h 47 min
Bit rate : 309 b/s
Count of elements : 30
Stream size : 243 KiB (0%)
Title : Spanish-FORCED-PGS
Language : Spanish
Default : No
Forced : No
Original source medium : Blu-ray

Text #29
ID : 45
ID in the original source medium : 4787 (0x12B3)
Format : PGS
Muxing mode : zlib
Codec ID : S_HDMV/PGS
Codec ID/Info : Picture based subtitle format used on BDs/HD-DVDs
Duration : 2 h 9 min
Bit rate : 24.4 kb/s
Count of elements : 1942
Stream size : 22.6 MiB (0%)
Title : Swedish-PGS
Language : Swedish
Default : No
Forced : No
Original source medium : Blu-ray

Text #30
ID : 46
ID in the original source medium : 4788 (0x12B4)
Format : PGS
Muxing mode : zlib
Codec ID : S_HDMV/PGS
Codec ID/Info : Picture based subtitle format used on BDs/HD-DVDs
Duration : 2 h 2 min
Bit rate : 32.0 kb/s
Count of elements : 2673
Stream size : 28.0 MiB (0%)
Title : Thai-PGS
Language : Thai
Default : No
Forced : No
Original source medium : Blu-ray

Text #31
ID : 47
ID in the original source medium : 4788 (0x12B4)
Format : PGS
Muxing mode : zlib
Codec ID : S_HDMV/PGS
Codec ID/Info : Picture based subtitle format used on BDs/HD-DVDs
Duration : 1 h 52 min
Bit rate : 406 b/s
Count of elements : 44
Stream size : 335 KiB (0%)
Title : Thai-FORCED-PGS
Language : Thai
Default : No
Forced : No
Original source medium : Blu-ray

Text #32
ID : 48
ID in the original source medium : 4789 (0x12B5)
Format : PGS
Muxing mode : zlib
Codec ID : S_HDMV/PGS
Codec ID/Info : Picture based subtitle format used on BDs/HD-DVDs
Duration : 2 h 9 min
Bit rate : 151 b/s
Count of elements : 20
Stream size : 143 KiB (0%)
Title : French-FORCED-PGS
Language : French
Default : No
Forced : No
Original source medium : Blu-ray

Text #33
ID : 49
ID in the original source medium : 4789 (0x12B5)
Format : PGS
Muxing mode : zlib
Codec ID : S_HDMV/PGS
Codec ID/Info : Picture based subtitle format used on BDs/HD-DVDs
Duration : 2 h 9 min
Bit rate : 151 b/s
Count of elements : 20
Stream size : 143 KiB (0%)
Title : French-FORCED-PGS
Language : French
Default : No
Forced : No
Original source medium : Blu-ray

Text #34
ID : 50
ID in the original source medium : 4790 (0x12B6)
Format : PGS
Muxing mode : zlib
Codec ID : S_HDMV/PGS
Codec ID/Info : Picture based subtitle format used on BDs/HD-DVDs
Duration : 2 h 4 min
Bit rate : 43.8 kb/s
Count of elements : 3445
Stream size : 39.1 MiB (0%)
Title : English-COMMENTARY-PGS
Language : English
Default : No
Forced : No
Original source medium : Blu-ray

Text #35
ID : 51
ID in the original source medium : 4791 (0x12B7)
Format : PGS
Muxing mode : zlib
Codec ID : S_HDMV/PGS
Codec ID/Info : Picture based subtitle format used on BDs/HD-DVDs
Duration : 2 h 3 min
Bit rate : 32.3 kb/s
Count of elements : 3261
Stream size : 28.6 MiB (0%)
Title : Chinese-COMMENTARY-PGS
Language : Chinese
Default : No
Forced : No
Original source medium : Blu-ray

Text #36
ID : 52
ID in the original source medium : 4792 (0x12B8)
Format : PGS
Muxing mode : zlib
Codec ID : S_HDMV/PGS
Codec ID/Info : Picture based subtitle format used on BDs/HD-DVDs
Duration : 2 h 3 min
Bit rate : 35.5 kb/s
Count of elements : 2851
Stream size : 31.4 MiB (0%)
Title : Dutch-COMMENTARY-PGS
Language : Dutch
Default : No
Forced : No
Original source medium : Blu-ray

Text #37
ID : 53
ID in the original source medium : 4793 (0x12B9)
Format : PGS
Muxing mode : zlib
Codec ID : S_HDMV/PGS
Codec ID/Info : Picture based subtitle format used on BDs/HD-DVDs
Duration : 2 h 3 min
Bit rate : 37.5 kb/s
Count of elements : 3145
Stream size : 33.2 MiB (0%)
Title : French-COMMENTARY-PGS
Language : French
Default : No
Forced : No
Original source medium : Blu-ray

Text #38
ID : 54
ID in the original source medium : 4794 (0x12BA)
Format : PGS
Muxing mode : zlib
Codec ID : S_HDMV/PGS
Codec ID/Info : Picture based subtitle format used on BDs/HD-DVDs
Duration : 2 h 3 min
Bit rate : 41.5 kb/s
Count of elements : 3197
Stream size : 36.7 MiB (0%)
Title : German-COMMENTARY-PGS
Language : German
Default : No
Forced : No
Original source medium : Blu-ray

Text #39
ID : 55
ID in the original source medium : 4795 (0x12BB)
Format : PGS
Muxing mode : zlib
Codec ID : S_HDMV/PGS
Codec ID/Info : Picture based subtitle format used on BDs/HD-DVDs
Duration : 2 h 3 min
Bit rate : 37.7 kb/s
Count of elements : 3165
Stream size : 33.4 MiB (0%)
Title : Italian-COMMENTARY-PGS
Language : Italian
Default : No
Forced : No
Original source medium : Blu-ray

Text #40
ID : 56
ID in the original source medium : 4796 (0x12BC)
Format : PGS
Muxing mode : zlib
Codec ID : S_HDMV/PGS
Codec ID/Info : Picture based subtitle format used on BDs/HD-DVDs
Duration : 2 h 3 min
Bit rate : 32.1 kb/s
Count of elements : 3277
Stream size : 28.4 MiB (0%)
Title : Korean-COMMENTARY-PGS
Language : Korean
Default : No
Forced : No
Original source medium : Blu-ray

Text #41
ID : 57
ID in the original source medium : 4797 (0x12BD)
Format : PGS
Muxing mode : zlib
Codec ID : S_HDMV/PGS
Codec ID/Info : Picture based subtitle format used on BDs/HD-DVDs
Duration : 2 h 3 min
Bit rate : 37.6 kb/s
Count of elements : 3259
Stream size : 33.2 MiB (0%)
Title : Spanish-COMMENTARY-PGS
Language : Spanish
Default : No
Forced : No
Original source medium : Blu-ray

Text #42
ID : 58
ID in the original source medium : 4798 (0x12BE)
Format : PGS
Muxing mode : zlib
Codec ID : S_HDMV/PGS
Codec ID/Info : Picture based subtitle format used on BDs/HD-DVDs
Duration : 2 h 3 min
Bit rate : 41.3 kb/s
Count of elements : 3219
Stream size : 36.6 MiB (0%)
Title : Spanish-COMMENTARY-PGS
Language : Spanish
Default : No
Forced : No
Original source medium : Blu-ray

Text #43
ID : 59
ID in the original source medium : 4799 (0x12BF)
Format : PGS
Muxing mode : zlib
Codec ID : S_HDMV/PGS
Codec ID/Info : Picture based subtitle format used on BDs/HD-DVDs
Duration : 2 h 3 min
Bit rate : 41.7 kb/s
Count of elements : 3277
Stream size : 36.9 MiB (0%)
Title : Thai-COMMENTARY-PGS
Language : Thai
Default : No
Forced : No
Original source medium : Blu-ray

Menu
00:00:00.000 : Chapter 01
00:08:32.929 : Chapter 02
00:19:23.662 : Chapter 03
00:30:33.122 : Chapter 04
00:37:01.928 : Chapter 05
00:46:52.518 : Chapter 06
00:51:51.817 : Chapter 07
00:59:47.041 : Chapter 08
01:07:06.022 : Chapter 09
01:18:15.816 : Chapter 10
01:24:15.884 : Chapter 11
01:32:16.155 : Chapter 12
01:45:28.905 : Chapter 13
01:50:05.682 : Chapter 14
01:58:50.623 : Chapter 15
02:02:03.983 : Chapter 16

本帖子中包含更多资源

您需要 登录 才可以下载或查看,没有帐号?立即注册

x
回复

使用道具 举报

0

主题

1225

帖子

5181

积分

论坛元老

Rank: 8Rank: 8

积分
5181
发表于 2021-6-1 20:15:59 | 显示全部楼层
感谢楼主分享高清影片
回复

使用道具 举报

0

主题

753

帖子

3730

积分

论坛元老

Rank: 8Rank: 8

积分
3730
发表于 2021-6-2 10:09:13 | 显示全部楼层
支持一下分享好资源
回复

使用道具 举报

0

主题

835

帖子

3239

积分

论坛元老

Rank: 8Rank: 8

积分
3239
发表于 2021-6-3 10:42:43 | 显示全部楼层
谢谢楼主的分享
回复

使用道具 举报

0

主题

753

帖子

3730

积分

论坛元老

Rank: 8Rank: 8

积分
3730
发表于 2021-6-3 11:07:26 | 显示全部楼层
感谢分享精彩电影。
回复

使用道具 举报

0

主题

316

帖子

1453

积分

金牌会员

Rank: 6Rank: 6

积分
1453
发表于 2021-6-4 15:48:14 | 显示全部楼层
感谢楼主分享
回复

使用道具 举报

0

主题

824

帖子

6852

积分

论坛元老

Rank: 8Rank: 8

积分
6852
发表于 7 天前 | 显示全部楼层
感谢楼主分享
回复

使用道具 举报

您需要登录后才可以回帖 登录 | 立即注册

本版积分规则

QQ|Archiver|手机版|小黑屋|原盘天堂 好多盘 点击这里给我发消息

GMT+8, 2021-6-13 09:54 , Processed in 0.060392 second(s), 24 queries .

Powered by Discuz! X3.4

Copyright © 2001-2020, Tencent Cloud.

快速回复 返回顶部 返回列表