请选择 进入手机版 | 继续访问电脑版
本站Q群713428235【盘盘多】已满,请新会员加原盘天堂新官方QQ群709708625【好多盘】,验证信息填写您在论坛的会员名,不填会员名的无法入群哈,进群后修改您的群名片名字为您在论坛的会员名,请务必修改,否则群成员多了不知道您是哪个会员。

原盘天堂

 找回密码
 立即注册
京东商城当当华为商城名牌时尚折扣网,一个新型的网上购物平台,我们每周为您精选3~4个国际知名品牌,商品折扣低至2折限时限量售卖,商品囊括时装、护肤品、箱包、皮具、配饰、香水等等,琳琅满目。亿格瑞A10硬盘播放器 苏宁易购
查看: 83|回复: 3

4k蓝光原盘bdmv 超级八 英语原版 super.8.2011.2160p.bluray.hevc.truehd.7.1[90.07 GB]

[复制链接]

6023

主题

6690

帖子

133万

积分

管理员

Rank: 18Rank: 18Rank: 18Rank: 18Rank: 18

积分
1332463
发表于 2021-6-1 08:10:17 | 显示全部楼层 |阅读模式








超级八 Super 8 (2011)

◎译  名 超级八/超8/超8外星奇遇/超级8(台)/S8惊世档案(港)
◎片  名 Super 8
◎年  代 2011
◎产  地 美国
◎类  别 科幻/悬疑/惊悚/儿童
◎语  言 英语
◎上映日期 2011-06-10(美国)
◎IMDb链接  https://www.imdb.com/title/tt1650062/
◎豆瓣评分 6.5/10 from 34814 users
◎豆瓣链接 https://douban.com/subject/5503303/
◎片  长 112分钟
◎导  演 J·J·艾布拉姆斯 J.J. Abrams
◎编  剧 J·J·艾布拉姆斯 J.J. Abrams
◎主  演 乔尔·考特尼 Joel Courtney
       艾丽·范宁 Elle Fanning
       凯尔·钱德勒 Kyle Chandler
       朗·埃达德 Ron Eldard
       诺亚·艾默里奇 Noah Emmerich
       Benny Claessens
       博·纳普 Beau Knapp
       格雷戈·格伦伯格 Greg Grunberg
       理查德·琼斯 Richard T. Jones
       安德烈·米勒 Andrew Miller
       雅各布·米勒 Jakob Miller
       瑞恩·李 Ryan Lee
       亚历克斯·内维尔 Alex Nevil
       苏珊妮·拉切塞斯 Suzanne LaChasse
       布雷特·赖斯 Brett Rice
       凯特瑞娜·巴尔夫 Caitriona Balfe
       安德鲁·康斯坦丁尼 Andrew Constantini
       加布里埃尔·巴索 Gabriel Basso
       杰西卡·塔克 Jessica Tuck
       Koen Crucke
       Aza Declercq
       Steve Geerts
       Alice Toen
       凯文·让森斯 Kevin Janssens
       Maaike Cafmeyer
       Wim Helsen
       阿曼达·米夏卡 AJ Michalka
       扎奇·米尔斯 Zach Mills
       Riley Griffiths
       李·瑞恩 Lee Ryan
       宾戈·奥马利 Bingo O'Malley

◎标  签 科幻 | 美国 | 外星人 | 悬疑 | 2011 | 惊悚 | 冒险 | 剧情

◎简  介

  
  时间是1979年,美国俄亥俄州一个平凡小镇。少年乔·兰布(乔尔·科特尼 Joel Courtney 饰)痛失母亲,生死悲痛让他久久地沉默。数月后,他应好朋友查尔斯(雷利·格里芬斯 Riley Griffiths 饰)的邀请,决定约上几个朋友一起用超8摄像机(8 mm)拍摄一部恐怖电影。当然令他下定决心的,是那个令她心仪的美丽女孩爱丽丝(艾丽·范宁 Elle Fanning 饰)也参与其中。在某个夜晚,爱丽丝驾驶父亲的汽车载着伙伴们来到火车站拍戏,谁知却目睹了一场极其惨烈的火车事故。
  
  这起事故还只是一系列不寻常事件的开始,小镇上的人们相继离奇失踪,各种奇怪的事件也接连发生。少年们的摄像机记录关于这一切的秘密……
  

◎获奖情况

  第21届MTV电影奖  (2012)
  MTV电影奖突破表演奖(提名) 艾丽·范宁
  
  第17届美国评论家选择电影奖  (2012)
  最佳青少年演员(提名) 艾丽·范宁
  最佳动作片(提名)
  最佳音效(提名)
  最佳视觉效果(提名)
  
  第11届凤凰城影评人协会奖  (2011)
  最佳原创配乐(提名) 迈克·吉亚奇诺
  最佳剪辑(提名) 玛丽安·布兰登 / 玛丽·乔·马基
  最具突破表演 艾丽·范宁
  最佳青年男演员(提名) 乔尔·考特尼
  最佳青年女演员(提名) 艾丽·范宁
  最佳群像表演
  十佳影片
  
  第13届美国青少年选择奖  (2011)
  最佳科幻/奇幻电影(提名)
  最佳科幻/奇幻电影女演员(提名) 艾丽·范宁
  最抢戏电影男星(提名) RileyGriffiths
  ChoiceMovieBreakout:Male(提名) 乔尔·考特尼
  最佳银幕拍档(提名) 扎奇·米尔斯 / 乔尔·考特尼 / 艾丽·范宁 / 瑞恩·李 / RileyGriffiths / 加布里埃尔·巴索


DISC INFO:

Disc Title:     Super.8.2011.COMPLETE.UHD.BLURAY-MAXAGAZ
Disc Size:      96,716,227,991 bytes
Protection:     AACS2
Extras:         Ultra HD, BD-Java
BDInfo:         0.7.5.9 (compatible layout created by DVDFab 12.0.2.9)

PLAYLIST REPORT:

Name:                   00800.MPLS  
Length:                 1:51:48.702 (h:m:s.ms)
Size:                   76,310,525,952 bytes
Total Bitrate:          91.00 Mbps

(*) Indicates included stream hidden by this playlist.

VIDEO:

Codec                   Bitrate             Description     
-----                   -------             -----------     
MPEG-H HEVC Video       68694 kbps          2160p / 23.976 fps / 16:9 / Main 10 @ Level 5.1 @ High / 4:2:0 / 10 bits / 1000nits / HDR10 / BT.2020
* MPEG-H HEVC Video     7659 kbps (10.03%)  1080p / 23.976 fps / 16:9 / Main 10 @ Level 5.1 @ High / 4:2:0 / 10 bits / 1000nits / Dolby Vision FEL / BT.2020

AUDIO:

Codec                           Language        Bitrate         Description     
-----                           --------        -------         -----------     
Dolby TrueHD Audio              English         4007 kbps       7.1 / 48 kHz / 3367 kbps / 24-bit (AC3 Core: 5.1 / 48 kHz / 640 kbps)
Dolby Digital Audio             English         640 kbps        5.1 / 48 kHz / 640 kbps
Dolby Digital Audio             German          640 kbps        5.1 / 48 kHz / 640 kbps
Dolby Digital Audio             Spanish         640 kbps        5.1 / 48 kHz / 640 kbps
Dolby Digital Audio             French          640 kbps        5.1 / 48 kHz / 640 kbps
Dolby Digital Audio             French          640 kbps        5.1 / 48 kHz / 640 kbps
Dolby Digital Audio             Italian         640 kbps        5.1 / 48 kHz / 640 kbps
Dolby Digital Audio             Japanese        640 kbps        5.1 / 48 kHz / 640 kbps
Dolby Digital Audio             English         224 kbps        2.0 / 48 kHz / 224 kbps

SUBTITLES:

Codec                           Language        Bitrate         Description     
-----                           --------        -------         -----------     
Presentation Graphics           English         39.806 kbps                     
Presentation Graphics           English         44.866 kbps                     
Presentation Graphics           German          40.071 kbps                     
Presentation Graphics           Spanish         34.125 kbps                     
Presentation Graphics           French          28.605 kbps                     
Presentation Graphics           French          35.865 kbps                     
Presentation Graphics           Italian         30.459 kbps                     
Presentation Graphics           Japanese        23.091 kbps                     
Presentation Graphics           Dutch           27.552 kbps                     
Presentation Graphics           English         60.694 kbps                     
Presentation Graphics           German          60.597 kbps                     
Presentation Graphics           Spanish         54.873 kbps                     
Presentation Graphics           French          52.083 kbps                     
Presentation Graphics           Italian         53.014 kbps                     
Presentation Graphics           Japanese        39.121 kbps                     
Presentation Graphics           Japanese        0.185 kbps   

Video
ID : 1
ID in the original source medium : 4113 (0x1011)
Format : HEVC
Format/Info : High Efficiency Video Coding
Format profile : Main [email protected]@High
HDR format : SMPTE ST 2086, HDR10 compatible
Codec ID : V_MPEGH/ISO/HEVC
Duration : 1 h 51 min
Bit rate : 68.7 Mb/s
Width : 3 840 pixels
Height : 2 160 pixels
Display aspect ratio : 16:9
Frame rate mode : Constant
Frame rate : 23.976 (24000/1001) FPS
Color space : YUV
Chroma subsampling : 4:2:0 (Type 2)
Bit depth : 10 bits
Bits/(Pixel*Frame) : 0.345
Stream size : 53.6 GiB (84%)
Language : English
Default : No
Forced : No
Color range : Limited
Color primaries : BT.2020
Transfer characteristics : PQ
Matrix coefficients : BT.2020 non-constant
Mastering display color primaries : Display P3
Mastering display luminance : min: 0.0001 cd/m2, max: 1000 cd/m2
Original source medium : Blu-ray

Audio #1
ID : 2
ID in the original source medium : 4352 (0x1100)
Format : MLP FBA
Format/Info : Meridian Lossless Packing FBA
Commercial name : Dolby TrueHD
Codec ID : A_TRUEHD
Duration : 1 h 51 min
Bit rate mode : Variable
Bit rate : 3 367 kb/s
Maximum bit rate : 6 273 kb/s
Channel(s) : 8 channels
Channel layout : L R C LFE Ls Rs Lb Rb
Sampling rate : 48.0 kHz
Frame rate : 1 200.000 FPS (40 SPF)
Bit depth : 24 bits
Compression mode : Lossless
Stream size : 2.63 GiB (4%)
Title : TrueHD 7.1 Atmos
Language : English
Default : Yes
Forced : No
Original source medium : Blu-ray

Audio #2
ID : 3
Format : DTS XLL
Format/Info : Digital Theater Systems
Commercial name : DTS-HD Master Audio
Codec ID : A_DTS
Duration : 1 h 51 min
Bit rate mode : Variable
Bit rate : 3 902 kb/s
Channel(s) : 8 channels
Channel layout : C L R LFE Lb Rb Lss Rss
Sampling rate : 48.0 kHz
Frame rate : 93.750 FPS (512 SPF)
Bit depth : 24 bits
Compression mode : Lossless
Stream size : 3.05 GiB (5%)
Title : DTS-HD MA 7.1
Language : English
Default : No
Forced : No

Audio #3
ID : 4
ID in the original source medium : 4352 (0x1100)
Format : AC-3
Format/Info : Audio Coding 3
Commercial name : Dolby Digital
Codec ID : A_AC3
Duration : 1 h 51 min
Bit rate mode : Constant
Bit rate : 640 kb/s
Channel(s) : 6 channels
Channel layout : L R C LFE Ls Rs
Sampling rate : 48.0 kHz
Frame rate : 31.250 FPS (1536 SPF)
Compression mode : Lossy
Stream size : 512 MiB (1%)
Title : DD 5.1
Language : English
Service kind : Complete Main
Default : No
Forced : No
Original source medium : Blu-ray

Audio #4
ID : 5
ID in the original source medium : 4353 (0x1101)
Format : AC-3
Format/Info : Audio Coding 3
Commercial name : Dolby Digital
Codec ID : A_AC3
Duration : 1 h 51 min
Bit rate mode : Constant
Bit rate : 640 kb/s
Channel(s) : 6 channels
Channel layout : L R C LFE Ls Rs
Sampling rate : 48.0 kHz
Frame rate : 31.250 FPS (1536 SPF)
Compression mode : Lossy
Stream size : 512 MiB (1%)
Title : DD 5.1
Language : English
Service kind : Complete Main
Default : No
Forced : No
Original source medium : Blu-ray

Audio #5
ID : 6
ID in the original source medium : 4354 (0x1102)
Format : AC-3
Format/Info : Audio Coding 3
Commercial name : Dolby Digital
Codec ID : A_AC3
Duration : 1 h 51 min
Bit rate mode : Constant
Bit rate : 640 kb/s
Channel(s) : 6 channels
Channel layout : L R C LFE Ls Rs
Sampling rate : 48.0 kHz
Frame rate : 31.250 FPS (1536 SPF)
Compression mode : Lossy
Stream size : 512 MiB (1%)
Title : DD 5.1
Language : German
Service kind : Complete Main
Default : No
Forced : No
Original source medium : Blu-ray

Audio #6
ID : 7
ID in the original source medium : 4355 (0x1103)
Format : AC-3
Format/Info : Audio Coding 3
Commercial name : Dolby Digital
Codec ID : A_AC3
Duration : 1 h 51 min
Bit rate mode : Constant
Bit rate : 640 kb/s
Channel(s) : 6 channels
Channel layout : L R C LFE Ls Rs
Sampling rate : 48.0 kHz
Frame rate : 31.250 FPS (1536 SPF)
Compression mode : Lossy
Stream size : 512 MiB (1%)
Title : DD 5.1
Language : Spanish
Service kind : Complete Main
Default : No
Forced : No
Original source medium : Blu-ray

Audio #7
ID : 8
ID in the original source medium : 4356 (0x1104)
Format : AC-3
Format/Info : Audio Coding 3
Commercial name : Dolby Digital
Codec ID : A_AC3
Duration : 1 h 51 min
Bit rate mode : Constant
Bit rate : 640 kb/s
Channel(s) : 6 channels
Channel layout : L R C LFE Ls Rs
Sampling rate : 48.0 kHz
Frame rate : 31.250 FPS (1536 SPF)
Compression mode : Lossy
Stream size : 512 MiB (1%)
Title : DD 5.1
Language : French
Service kind : Complete Main
Default : No
Forced : No
Original source medium : Blu-ray

Audio #8
ID : 9
ID in the original source medium : 4357 (0x1105)
Format : AC-3
Format/Info : Audio Coding 3
Commercial name : Dolby Digital
Codec ID : A_AC3
Duration : 1 h 51 min
Bit rate mode : Constant
Bit rate : 640 kb/s
Channel(s) : 6 channels
Channel layout : L R C LFE Ls Rs
Sampling rate : 48.0 kHz
Frame rate : 31.250 FPS (1536 SPF)
Compression mode : Lossy
Stream size : 512 MiB (1%)
Title : DD 5.1
Language : French
Service kind : Complete Main
Default : No
Forced : No
Original source medium : Blu-ray

Audio #9
ID : 10
ID in the original source medium : 4358 (0x1106)
Format : AC-3
Format/Info : Audio Coding 3
Commercial name : Dolby Digital
Codec ID : A_AC3
Duration : 1 h 51 min
Bit rate mode : Constant
Bit rate : 640 kb/s
Channel(s) : 6 channels
Channel layout : L R C LFE Ls Rs
Sampling rate : 48.0 kHz
Frame rate : 31.250 FPS (1536 SPF)
Compression mode : Lossy
Stream size : 512 MiB (1%)
Title : DD 5.1
Language : Italian
Service kind : Complete Main
Default : No
Forced : No
Original source medium : Blu-ray

Audio #10
ID : 11
ID in the original source medium : 4359 (0x1107)
Format : AC-3
Format/Info : Audio Coding 3
Commercial name : Dolby Digital
Codec ID : A_AC3
Duration : 1 h 51 min
Bit rate mode : Constant
Bit rate : 640 kb/s
Channel(s) : 6 channels
Channel layout : L R C LFE Ls Rs
Sampling rate : 48.0 kHz
Frame rate : 31.250 FPS (1536 SPF)
Compression mode : Lossy
Stream size : 512 MiB (1%)
Title : DD 5.1
Language : Japanese
Service kind : Complete Main
Default : No
Forced : No
Original source medium : Blu-ray

Audio #11
ID : 12
ID in the original source medium : 4360 (0x1108)
Format : AC-3
Format/Info : Audio Coding 3
Commercial name : Dolby Digital
Codec ID : A_AC3
Duration : 1 h 51 min
Bit rate mode : Constant
Bit rate : 224 kb/s
Channel(s) : 2 channels
Channel layout : L R
Sampling rate : 48.0 kHz
Frame rate : 31.250 FPS (1536 SPF)
Compression mode : Lossy
Stream size : 179 MiB (0%)
Title : DD 2.0
Language : English
Service kind : Complete Main
Default : No
Forced : No
Original source medium : Blu-ray

Text #1
ID : 13
Format : UTF-8
Codec ID : S_TEXT/UTF8
Codec ID/Info : UTF-8 Plain Text
Duration : 1 h 48 min
Bit rate : 65 b/s
Count of elements : 1448
Stream size : 51.7 KiB (0%)
Title : English-SRT
Language : English
Default : Yes
Forced : No

Text #2
ID : 14
ID in the original source medium : 4768 (0x12A0)
Format : PGS
Muxing mode : zlib
Codec ID : S_HDMV/PGS
Codec ID/Info : Picture based subtitle format used on BDs/HD-DVDs
Duration : 1 h 48 min
Bit rate : 41.2 kb/s
Count of elements : 2924
Stream size : 31.8 MiB (0%)
Language : English
Default : No
Forced : No
Original source medium : Blu-ray

Text #3
ID : 15
ID in the original source medium : 4769 (0x12A1)
Format : PGS
Muxing mode : zlib
Codec ID : S_HDMV/PGS
Codec ID/Info : Picture based subtitle format used on BDs/HD-DVDs
Duration : 1 h 48 min
Bit rate : 46.3 kb/s
Count of elements : 3428
Stream size : 35.9 MiB (0%)
Language : English
Default : No
Forced : No
Original source medium : Blu-ray

Text #4
ID : 16
ID in the original source medium : 4770 (0x12A2)
Format : PGS
Muxing mode : zlib
Codec ID : S_HDMV/PGS
Codec ID/Info : Picture based subtitle format used on BDs/HD-DVDs
Duration : 1 h 50 min
Bit rate : 40.5 kb/s
Count of elements : 2960
Stream size : 32.0 MiB (0%)
Language : German
Default : No
Forced : No
Original source medium : Blu-ray

Text #5
ID : 17
ID in the original source medium : 4770 (0x12A2)
Format : PGS
Muxing mode : zlib
Codec ID : S_HDMV/PGS
Codec ID/Info : Picture based subtitle format used on BDs/HD-DVDs
Duration : 1 h 43 min
Bit rate : 222 b/s
Count of elements : 14
Stream size : 169 KiB (0%)
Language : German
Default : No
Forced : No
Original source medium : Blu-ray

Text #6
ID : 18
ID in the original source medium : 4771 (0x12A3)
Format : PGS
Muxing mode : zlib
Codec ID : S_HDMV/PGS
Codec ID/Info : Picture based subtitle format used on BDs/HD-DVDs
Duration : 1 h 50 min
Bit rate : 34.5 kb/s
Count of elements : 2666
Stream size : 27.3 MiB (0%)
Language : Spanish
Default : No
Forced : No
Original source medium : Blu-ray

Text #7
ID : 19
ID in the original source medium : 4771 (0x12A3)
Format : PGS
Muxing mode : zlib
Codec ID : S_HDMV/PGS
Codec ID/Info : Picture based subtitle format used on BDs/HD-DVDs
Duration : 1 h 43 min
Bit rate : 235 b/s
Count of elements : 16
Stream size : 179 KiB (0%)
Language : Spanish
Default : No
Forced : No
Original source medium : Blu-ray

Text #8
ID : 20
ID in the original source medium : 4772 (0x12A4)
Format : PGS
Muxing mode : zlib
Codec ID : S_HDMV/PGS
Codec ID/Info : Picture based subtitle format used on BDs/HD-DVDs
Duration : 1 h 50 min
Bit rate : 28.9 kb/s
Count of elements : 2586
Stream size : 22.9 MiB (0%)
Language : French
Default : No
Forced : No
Original source medium : Blu-ray

Text #9
ID : 21
ID in the original source medium : 4772 (0x12A4)
Format : PGS
Muxing mode : zlib
Codec ID : S_HDMV/PGS
Codec ID/Info : Picture based subtitle format used on BDs/HD-DVDs
Duration : 1 h 43 min
Bit rate : 291 b/s
Count of elements : 16
Stream size : 221 KiB (0%)
Language : French
Default : No
Forced : No
Original source medium : Blu-ray

Text #10
ID : 22
ID in the original source medium : 4773 (0x12A5)
Format : PGS
Muxing mode : zlib
Codec ID : S_HDMV/PGS
Codec ID/Info : Picture based subtitle format used on BDs/HD-DVDs
Duration : 1 h 48 min
Bit rate : 36.9 kb/s
Count of elements : 2956
Stream size : 28.7 MiB (0%)
Language : French
Default : No
Forced : No
Original source medium : Blu-ray

Text #11
ID : 23
ID in the original source medium : 4773 (0x12A5)
Format : PGS
Muxing mode : zlib
Codec ID : S_HDMV/PGS
Codec ID/Info : Picture based subtitle format used on BDs/HD-DVDs
Duration : 1 h 48 min
Bit rate : 278 b/s
Count of elements : 22
Stream size : 221 KiB (0%)
Language : French
Default : No
Forced : No
Original source medium : Blu-ray

Text #12
ID : 24
ID in the original source medium : 4774 (0x12A6)
Format : PGS
Muxing mode : zlib
Codec ID : S_HDMV/PGS
Codec ID/Info : Picture based subtitle format used on BDs/HD-DVDs
Duration : 1 h 50 min
Bit rate : 30.8 kb/s
Count of elements : 2552
Stream size : 24.4 MiB (0%)
Language : Italian
Default : No
Forced : No
Original source medium : Blu-ray

Text #13
ID : 25
ID in the original source medium : 4774 (0x12A6)
Format : PGS
Muxing mode : zlib
Codec ID : S_HDMV/PGS
Codec ID/Info : Picture based subtitle format used on BDs/HD-DVDs
Duration : 1 h 48 min
Bit rate : 296 b/s
Count of elements : 22
Stream size : 235 KiB (0%)
Language : Italian
Default : No
Forced : No
Original source medium : Blu-ray

Text #14
ID : 26
ID in the original source medium : 4775 (0x12A7)
Format : PGS
Muxing mode : zlib
Codec ID : S_HDMV/PGS
Codec ID/Info : Picture based subtitle format used on BDs/HD-DVDs
Duration : 1 h 48 min
Bit rate : 23.8 kb/s
Count of elements : 2720
Stream size : 18.5 MiB (0%)
Language : Japanese
Default : No
Forced : No
Original source medium : Blu-ray

Text #15
ID : 27
ID in the original source medium : 4776 (0x12A8)
Format : PGS
Muxing mode : zlib
Codec ID : S_HDMV/PGS
Codec ID/Info : Picture based subtitle format used on BDs/HD-DVDs
Duration : 1 h 50 min
Bit rate : 27.8 kb/s
Count of elements : 2052
Stream size : 22.0 MiB (0%)
Language : Dutch
Default : No
Forced : No
Original source medium : Blu-ray

Text #16
ID : 28
ID in the original source medium : 4777 (0x12A9)
Format : PGS
Muxing mode : zlib
Codec ID : S_HDMV/PGS
Codec ID/Info : Picture based subtitle format used on BDs/HD-DVDs
Duration : 1 h 51 min
Bit rate : 60.8 kb/s
Count of elements : 3646
Stream size : 48.5 MiB (0%)
Language : English
Default : No
Forced : No
Original source medium : Blu-ray

Text #17
ID : 29
ID in the original source medium : 4778 (0x12AA)
Format : PGS
Muxing mode : zlib
Codec ID : S_HDMV/PGS
Codec ID/Info : Picture based subtitle format used on BDs/HD-DVDs
Duration : 1 h 51 min
Bit rate : 60.6 kb/s
Count of elements : 3639
Stream size : 48.5 MiB (0%)
Language : German
Default : No
Forced : No
Original source medium : Blu-ray

Text #18
ID : 30
ID in the original source medium : 4779 (0x12AB)
Format : PGS
Muxing mode : zlib
Codec ID : S_HDMV/PGS
Codec ID/Info : Picture based subtitle format used on BDs/HD-DVDs
Duration : 1 h 51 min
Bit rate : 54.9 kb/s
Count of elements : 3639
Stream size : 43.9 MiB (0%)
Language : Spanish
Default : No
Forced : No
Original source medium : Blu-ray

Text #19
ID : 31
ID in the original source medium : 4780 (0x12AC)
Format : PGS
Muxing mode : zlib
Codec ID : S_HDMV/PGS
Codec ID/Info : Picture based subtitle format used on BDs/HD-DVDs
Duration : 1 h 51 min
Bit rate : 52.1 kb/s
Count of elements : 3641
Stream size : 41.7 MiB (0%)
Language : French
Default : No
Forced : No
Original source medium : Blu-ray

Text #20
ID : 32
ID in the original source medium : 4781 (0x12AD)
Format : PGS
Muxing mode : zlib
Codec ID : S_HDMV/PGS
Codec ID/Info : Picture based subtitle format used on BDs/HD-DVDs
Duration : 1 h 51 min
Bit rate : 53.0 kb/s
Count of elements : 3639
Stream size : 42.4 MiB (0%)
Language : Italian
Default : No
Forced : No
Original source medium : Blu-ray

Text #21
ID : 33
ID in the original source medium : 4782 (0x12AE)
Format : PGS
Muxing mode : zlib
Codec ID : S_HDMV/PGS
Codec ID/Info : Picture based subtitle format used on BDs/HD-DVDs
Duration : 1 h 51 min
Bit rate : 39.1 kb/s
Count of elements : 3181
Stream size : 31.3 MiB (0%)
Language : Japanese
Default : No
Forced : No
Original source medium : Blu-ray

Text #22
ID : 34
ID in the original source medium : 4783 (0x12AF)
Format : PGS
Muxing mode : zlib
Codec ID : S_HDMV/PGS
Codec ID/Info : Picture based subtitle format used on BDs/HD-DVDs
Duration : 1 h 48 min
Bit rate : 190 b/s
Count of elements : 24
Stream size : 152 KiB (0%)
Language : Japanese
Default : No
Forced : No
Original source medium : Blu-ray

Menu
00:00:00.000 : Chapter 01
00:07:01.504 : Chapter 02
00:11:33.275 : Chapter 03
00:19:25.164 : Chapter 04
00:26:43.518 : Chapter 05
00:33:36.514 : Chapter 06
00:40:30.511 : Chapter 07
00:45:42.156 : Chapter 08
00:51:56.822 : Chapter 09
00:56:59.624 : Chapter 10
01:02:24.365 : Chapter 11
01:08:12.505 : Chapter 12
01:13:30.697 : Chapter 13
01:18:33.875 : Chapter 14
01:25:31.334 : Chapter 15
01:30:25.378 : Chapter 16
01:38:20.019 : Chapter 17
01:43:37.836 : Chapter 18

本帖子中包含更多资源

您需要 登录 才可以下载或查看,没有帐号?立即注册

x
回复

使用道具 举报

0

主题

385

帖子

2143

积分

金牌会员

Rank: 6Rank: 6

积分
2143
发表于 2021-6-1 18:30:56 | 显示全部楼层
辛苦了,感谢分享!
回复

使用道具 举报

0

主题

1284

帖子

2171

积分

金牌会员

Rank: 6Rank: 6

积分
2171
发表于 2021-6-1 23:43:07 | 显示全部楼层
感谢楼主分享
回复

使用道具 举报

0

主题

165

帖子

597

积分

高级会员

Rank: 4

积分
597
发表于 2021-6-4 14:28:02 | 显示全部楼层
感谢楼主分享!
回复

使用道具 举报

您需要登录后才可以回帖 登录 | 立即注册

本版积分规则

QQ|Archiver|手机版|小黑屋|原盘天堂 好多盘 点击这里给我发消息

GMT+8, 2021-6-13 11:13 , Processed in 0.057559 second(s), 24 queries .

Powered by Discuz! X3.4

Copyright © 2001-2020, Tencent Cloud.

快速回复 返回顶部 返回列表