请选择 进入手机版 | 继续访问电脑版
本站Q群713428235【盘盘多】已满,请新会员加原盘天堂新官方QQ群709708625【好多盘】,验证信息填写您在论坛的会员名,不填会员名的无法入群哈,进群后修改您的群名片名字为您在论坛的会员名,请务必修改,否则群成员多了不知道您是哪个会员。

原盘天堂

 找回密码
 立即注册
京东商城当当华为商城名牌时尚折扣网,一个新型的网上购物平台,我们每周为您精选3~4个国际知名品牌,商品折扣低至2折限时限量售卖,商品囊括时装、护肤品、箱包、皮具、配饰、香水等等,琳琅满目。亿格瑞A10硬盘播放器 苏宁易购
查看: 354|回复: 13

4k蓝光原盘bdmv 混沌行走 英语原版 chaos.walking.2021.2160p.bluray.hevc.truehd.7.1.atmos[80.88 GB]

[复制链接]

6023

主题

6690

帖子

133万

积分

管理员

Rank: 18Rank: 18Rank: 18Rank: 18Rank: 18

积分
1332455
发表于 2021-5-20 10:26:07 | 显示全部楼层 |阅读模式








混沌行走 Chaos Walking (2021)

◎译  名 混沌行走/读心叛变(港)/混沌漫步/噪反(台)
◎片  名 Chaos Walking
◎年  代 2021
◎产  地 美国/加拿大
◎类  别 动作/科幻/冒险
◎语  言 英语
◎上映日期 2021(中国大陆)/2021-03-05(美国)
◎IMDb链接  https://www.imdb.com/title/tt2076822/
◎豆瓣评分 5.2/10 from 2970 users
◎豆瓣链接 https://douban.com/subject/6874475/
◎片  长 109分钟
◎导  演 道格·里曼 Doug Liman
◎编  剧 帕特里克·内斯 Patrick Ness / 克里斯托弗·D·福特 Christopher D. Ford / 林赛·比尔 Lindsey Beer / 约翰·李·汉考克 John Lee Hancock / 加里·斯皮内利 Gary Spinelli / 安德鲁·戈特利布 Andrew Gottlieb / 大卫·罗森 David Rosen
◎主  演 汤姆·赫兰德 Tom Holland
       黛西·雷德利 Daisy Ridley
       德米安·比齐尔 Demián Bichir
       大卫·奥伊罗 David Oyelowo
       科特·萨特 Kurt Sutter
       辛西娅·艾莉佛 Cynthia Erivo
       贝瑟妮·安妮·林德 Bethany Anne Lind
       麦斯·米科尔森 Mads Mikkelsen
       尼克·乔纳斯 Nick Jonas
       雷·迈克金农 Ray McKinnon
       文森特·莱克莱尔 Vincent Leclerc
       布兰·克洛卡雷尔 Blane Crockarell
       蒂龙·本斯金 Tyrone Benskin
       弗兰克·方丹 Frank Fontaine
       帕特里克·加洛 Patrick Garrow
       玛丽莲·迪恩-罗比齐 Mylène Dinh-Robic
       朱利安·瑞钦斯 Julian Richings
       迈克尔·戴森 Michael Dyson
       马克斯韦尔·麦卡比-洛克斯 Maxwell McCabe-Lokos
       迈克尔·亚穆什 Michael Yarmush
       布莱恩·亚历山大 Brian Alexander
       奥妮克·阿德莉 Olunike Adeliyi
       克劳迪娅·贝索 Claudia Besso
       奥斯卡·贾恩那达 Óscar Jaenada
       塔拉·尼科迪莫 Tara Nicodemo
       哈里森·奥斯特菲尔德 Harrison Osterfield
       兰博基尼 Lamborghini
       维斯顿 Wiston

◎标  签 科幻 | 美国 | 2021 | 冒险 | 小说改编 | 青春 | 反乌托邦 | 剧情

◎简  介

  
  人类在与地球相似的遥远外星建立了新家园,但这个星球上却有一种病毒,男人感染后可以听到其他人和动物的心声,每个男人脑子里的想法都能被他人听到,人与人之间不存在隐私,新星球上的普伦提司镇的男人们就不堪忍受自己的想法被人听见。
  
  托德·赫维特(汤姆·赫兰德 饰)是出生于这座小镇的 男孩,他的认知中小镇没有女人是因为该星球土著居民蓝光兽家园被人类侵犯时故意让人类感染了噪音病毒,他们还杀光了所有女性。托德对此深信不疑,直到他遇到一个女孩。
  
  托德在小镇附近的森林里遇到了一个叫维奥拉(黛西·雷德利 饰)的女孩,她来自遥远的地球,她的飞船因故坠毁在森林里,普伦提司镇的镇长在得知这个消息后立刻展开对他俩的追杀,托德为了保护女孩维奥拉只好一起出逃,开始了一段他意想不到且危机重重的星球冒险。
  
DISC INFO:

Disc Title:     Chaos.Walking.2021.2160p.BluRay.HEVC.TrueHD.7.1.Atmos-CHD
Disc Size:      86,842,921,725 bytes
Protection:     AACS2
Extras:         Ultra HD, BD-Java
BDInfo:         0.7.5.9 (compatible layout created by DVDFab 12.0.2.9)

PLAYLIST REPORT:

Name:                   00523.MPLS  
Length:                 1:48:54.527 (h:m:s.ms)
Size:                   63,274,616,832 bytes
Total Bitrate:          77.46 Mbps

(*) Indicates included stream hidden by this playlist.

VIDEO:

Codec                   Bitrate             Description     
-----                   -------             -----------     
MPEG-H HEVC Video       58884 kbps          2160p / 23.976 fps / 16:9 / Main 10 @ Level 5.1 @ High / 4:2:0 / 10 bits / 1000nits / HDR10 / BT.2020
* MPEG-H HEVC Video     7869 kbps (11.79%)  1080p / 23.976 fps / 16:9 / Main 10 @ Level 5.1 @ High / 4:2:0 / 10 bits / 1000nits / Dolby Vision FEL / BT.2020

AUDIO:

Codec                           Language        Bitrate         Description     
-----                           --------        -------         -----------     
Dolby TrueHD/Atmos Audio        English         5045 kbps       7.1+11 objects / 48 kHz / 4405 kbps / 24-bit (AC3 Core: 5.1-EX / 48 kHz / 640 kbps)
Dolby Digital Audio             English         192 kbps        2.0 / 48 kHz / 192 kbps
Dolby Digital Audio             Spanish         640 kbps        5.1 / 48 kHz / 640 kbps
Dolby Digital Audio             English         192 kbps        2.0 / 48 kHz / 192 kbps

SUBTITLES:

Codec                           Language        Bitrate         Description     
-----                           --------        -------         -----------     
Presentation Graphics           English         37.227 kbps                     
Presentation Graphics           Spanish         30.438 kbps   

Video
ID : 1
ID in the original source medium : 4113 (0x1011)
Format : HEVC
Format/Info : High Efficiency Video Coding
Format profile : Main [email protected]@High
HDR format : SMPTE ST 2086, HDR10 compatible
Codec ID : V_MPEGH/ISO/HEVC
Duration : 1 h 48 min
Bit rate : 58.9 Mb/s
Width : 3 840 pixels
Height : 2 160 pixels
Display aspect ratio : 16:9
Frame rate mode : Constant
Frame rate : 23.976 (24000/1001) FPS
Color space : YUV
Chroma subsampling : 4:2:0 (Type 2)
Bit depth : 10 bits
Bits/(Pixel*Frame) : 0.296
Stream size : 44.8 GiB (85%)
Language : English
Default : No
Forced : No
Color range : Limited
Color primaries : BT.2020
Transfer characteristics : PQ
Matrix coefficients : BT.2020 non-constant
Mastering display color primaries : Display P3
Mastering display luminance : min: 0.0010 cd/m2, max: 1000 cd/m2
Maximum Content Light Level : 1000 cd/m2
Maximum Frame-Average Light Level : 248 cd/m2
Original source medium : Blu-ray

Audio #1
ID : 2
ID in the original source medium : 4352 (0x1100)
Format : MLP FBA 16-ch
Format/Info : Meridian Lossless Packing FBA with 16-channel presentation
Commercial name : Dolby TrueHD with Dolby Atmos
Codec ID : A_TRUEHD
Duration : 1 h 48 min
Bit rate mode : Variable
Bit rate : 4 405 kb/s
Maximum bit rate : 7 932 kb/s
Channel(s) : 8 channels
Channel layout : L R C LFE Ls Rs Lb Rb
Sampling rate : 48.0 kHz
Frame rate : 1 200.000 FPS (40 SPF)
Bit depth : 24 bits
Compression mode : Lossless
Stream size : 3.35 GiB (6%)
Title : TrueHD 7.1 Atmos
Language : English
Default : Yes
Forced : No
Original source medium : Blu-ray
Number of dynamic objects : 11
Bed channel count : 1 channel
Bed channel configuration : LFE

Audio #2
ID : 3
Format : DTS XLL
Format/Info : Digital Theater Systems
Commercial name : DTS-HD Master Audio
Codec ID : A_DTS
Duration : 1 h 48 min
Bit rate mode : Variable
Bit rate : 4 051 kb/s
Channel(s) : 8 channels
Channel layout : C L R LFE Lb Rb Lss Rss
Sampling rate : 48.0 kHz
Frame rate : 93.750 FPS (512 SPF)
Bit depth : 24 bits
Compression mode : Lossless
Stream size : 3.08 GiB (6%)
Title : DTS-HD MA 7.1
Language : English
Default : No
Forced : No

Audio #3
ID : 4
ID in the original source medium : 4352 (0x1100)
Format : AC-3
Format/Info : Audio Coding 3
Commercial name : Dolby Digital
Format settings : Dolby Surround EX
Codec ID : A_AC3
Duration : 1 h 48 min
Bit rate mode : Constant
Bit rate : 640 kb/s
Channel(s) : 6 channels
Channel layout : L R C LFE Ls Rs
Sampling rate : 48.0 kHz
Frame rate : 31.250 FPS (1536 SPF)
Compression mode : Lossy
Stream size : 499 MiB (1%)
Title : DD 5.1
Language : English
Service kind : Complete Main
Default : No
Forced : No
Original source medium : Blu-ray

Audio #4
ID : 5
ID in the original source medium : 4353 (0x1101)
Format : AC-3
Format/Info : Audio Coding 3
Commercial name : Dolby Digital
Codec ID : A_AC3
Duration : 1 h 48 min
Bit rate mode : Constant
Bit rate : 192 kb/s
Channel(s) : 2 channels
Channel layout : L R
Sampling rate : 48.0 kHz
Frame rate : 31.250 FPS (1536 SPF)
Compression mode : Lossy
Stream size : 150 MiB (0%)
Title : DD 2.0
Language : English
Service kind : Complete Main
Default : No
Forced : No
Original source medium : Blu-ray

Audio #5
ID : 6
ID in the original source medium : 4354 (0x1102)
Format : AC-3
Format/Info : Audio Coding 3
Commercial name : Dolby Digital
Codec ID : A_AC3
Duration : 1 h 48 min
Bit rate mode : Constant
Bit rate : 640 kb/s
Channel(s) : 6 channels
Channel layout : L R C LFE Ls Rs
Sampling rate : 48.0 kHz
Frame rate : 31.250 FPS (1536 SPF)
Compression mode : Lossy
Stream size : 499 MiB (1%)
Title : DD 5.1
Language : Spanish
Service kind : Complete Main
Default : No
Forced : No
Original source medium : Blu-ray

Audio #6
ID : 7
ID in the original source medium : 4355 (0x1103)
Format : AC-3
Format/Info : Audio Coding 3
Commercial name : Dolby Digital
Codec ID : A_AC3
Duration : 1 h 48 min
Bit rate mode : Constant
Bit rate : 192 kb/s
Channel(s) : 2 channels
Channel layout : L R
Sampling rate : 48.0 kHz
Frame rate : 31.250 FPS (1536 SPF)
Compression mode : Lossy
Stream size : 150 MiB (0%)
Title : DD 2.0
Language : English
Service kind : Complete Main
Default : No
Forced : No
Original source medium : Blu-ray

Text #1
ID : 8
Format : UTF-8
Codec ID : S_TEXT/UTF8
Codec ID/Info : UTF-8 Plain Text
Duration : 1 h 37 min
Bit rate : 53 b/s
Count of elements : 1453
Stream size : 38.1 KiB (0%)
Title : English-SRT
Language : English
Default : Yes
Forced : No

Text #2
ID : 9
ID in the original source medium : 4768 (0x12A0)
Format : PGS
Muxing mode : zlib
Codec ID : S_HDMV/PGS
Codec ID/Info : Picture based subtitle format used on BDs/HD-DVDs
Duration : 1 h 37 min
Bit rate : 41.6 kb/s
Count of elements : 3436
Stream size : 29.0 MiB (0%)
Title : English-PGS
Language : English
Default : No
Forced : No
Original source medium : Blu-ray

Text #3
ID : 10
ID in the original source medium : 4769 (0x12A1)
Format : PGS
Muxing mode : zlib
Codec ID : S_HDMV/PGS
Codec ID/Info : Picture based subtitle format used on BDs/HD-DVDs
Duration : 1 h 38 min
Bit rate : 33.6 kb/s
Count of elements : 2628
Stream size : 23.7 MiB (0%)
Title : Spanish-PGS
Language : Spanish
Default : No
Forced : No
Original source medium : Blu-ray

Menu
00:00:00.000 : Chapter 01
00:05:16.858 : Chapter 02
00:13:20.299 : Chapter 03
00:20:18.634 : Chapter 04
00:27:39.866 : Chapter 05
00:35:54.110 : Chapter 06
00:39:41.253 : Chapter 07
00:45:45.409 : Chapter 08
00:51:22.204 : Chapter 09
00:56:34.557 : Chapter 10
01:01:40.321 : Chapter 11
01:07:13.446 : Chapter 12
01:15:41.995 : Chapter 13
01:22:30.487 : Chapter 14
01:30:43.938 : Chapter 15
01:36:45.800 : Chapter 16

本帖子中包含更多资源

您需要 登录 才可以下载或查看,没有帐号?立即注册

x
回复

使用道具 举报

0

主题

753

帖子

3730

积分

论坛元老

Rank: 8Rank: 8

积分
3730
发表于 2021-5-20 11:42:19 | 显示全部楼层
多谢楼主分享!
回复

使用道具 举报

0

主题

835

帖子

3239

积分

论坛元老

Rank: 8Rank: 8

积分
3239
发表于 2021-5-20 13:47:46 | 显示全部楼层
谢谢楼主分享
回复

使用道具 举报

0

主题

385

帖子

2143

积分

金牌会员

Rank: 6Rank: 6

积分
2143
发表于 2021-5-20 18:27:22 | 显示全部楼层
非常谢谢分享
回复

使用道具 举报

0

主题

753

帖子

3730

积分

论坛元老

Rank: 8Rank: 8

积分
3730
发表于 2021-5-21 13:11:17 | 显示全部楼层
萬分感謝版主的無私發佈
回复

使用道具 举报

0

主题

1178

帖子

8764

积分

VIP永久

Rank: 12Rank: 12Rank: 12

积分
8764
QQ
发表于 2021-5-22 14:03:06 | 显示全部楼层
感谢楼主分享!!!
回复

使用道具 举报

0

主题

165

帖子

597

积分

高级会员

Rank: 4

积分
597
发表于 2021-5-22 15:18:27 | 显示全部楼层
感谢分享!
回复

使用道具 举报

0

主题

4

帖子

13

积分

新手上路

Rank: 1

积分
13
发表于 2021-5-23 03:26:41 | 显示全部楼层
支持支持再支持
回复

使用道具 举报

0

主题

32

帖子

52

积分

注册会员

Rank: 2

积分
52
发表于 2021-5-23 20:46:57 | 显示全部楼层
谢谢楼主分享
回复

使用道具 举报

0

主题

175

帖子

1245

积分

金牌会员

Rank: 6Rank: 6

积分
1245
发表于 2021-5-26 21:45:51 | 显示全部楼层
多谢楼主分享!
回复

使用道具 举报

您需要登录后才可以回帖 登录 | 立即注册

本版积分规则

QQ|Archiver|手机版|小黑屋|原盘天堂 好多盘 点击这里给我发消息

GMT+8, 2021-6-13 09:50 , Processed in 0.073495 second(s), 26 queries .

Powered by Discuz! X3.4

Copyright © 2001-2020, Tencent Cloud.

快速回复 返回顶部 返回列表