请选择 进入手机版 | 继续访问电脑版
本站Q群713428235【盘盘多】已满,请新会员加原盘天堂新官方QQ群709708625【好多盘】,验证信息填写您在论坛的会员名,不填会员名的无法入群哈,进群后修改您的群名片名字为您在论坛的会员名,请务必修改,否则群成员多了不知道您是哪个会员。

原盘天堂

 找回密码
 立即注册
京东商城当当华为商城名牌时尚折扣网,一个新型的网上购物平台,我们每周为您精选3~4个国际知名品牌,商品折扣低至2折限时限量售卖,商品囊括时装、护肤品、箱包、皮具、配饰、香水等等,琳琅满目。亿格瑞A10硬盘播放器 苏宁易购
查看: 183|回复: 4

2d蓝光原盘bdmv 困在时间里的父亲 英语原版 the.father.2020.1080p.bluray.avc.dts-hd.ma.5.1[27.56 GB]

[复制链接]

6023

主题

6690

帖子

133万

积分

管理员

Rank: 18Rank: 18Rank: 18Rank: 18Rank: 18

积分
1332455
发表于 2021-5-19 21:26:15 | 显示全部楼层 |阅读模式








困在时间里的父亲 The Father (2020)

◎译  名 困在时间里的父亲/爸爸可否不要老(港)/父亲(台)/老父
◎片  名 The Father
◎年  代 2020
◎产  地 英国/法国
◎类  别 剧情
◎语  言 英语
◎上映日期 2020-01-27(圣丹斯电影节)/2021-02-26(美国)/2021-03-26(美国网络)/2021-06-18(中国大陆)
◎IMDb链接  https://www.imdb.com/title/tt10272386/
◎豆瓣评分 8.8/10 from 45628 users
◎豆瓣链接 https://douban.com/subject/33432655/
◎片  长 97分钟
◎导  演 佛罗莱恩·泽勒 Florian Zeller
◎编  剧 克里斯托弗·汉普顿 Christopher Hampton / 佛罗莱恩·泽勒 Florian Zeller
◎主  演 安东尼·霍普金斯 Anthony Hopkins
       奥利维娅·科尔曼 Olivia Colman
       马克·加蒂斯 Mark Gatiss
       奥莉维亚·威廉姆斯 Olivia Williams
       伊莫琴·普茨 Imogen Poots
       卢夫斯·塞维尔 Rufus Sewell
       阿耶莎·达尔克 Ayesha Dharker
       艾薇·维 Evie Wray

◎标  签 安东尼·霍普金斯 | 剧情 | 英国 | 英国电影 | 2020 | 奥利维娅·科尔曼 | 改编 | 马克·加蒂斯

◎简  介

  
  影片以重复加碎片式的感官叙事手法,讲述了年迈且身患疾病的安东尼正在面临一项艰难的人生选择——是搬到养老院还是接受女儿寻找的新护工。在这个过程中,安东尼发现自己仿佛进入了一场奇怪的时空之旅,错乱的记忆和时间线交织出一段段匪夷所思的故事,而一个个陌生又熟悉的人也让他陷入迷茫。
  
  影片根据法国小说家兼剧作家佛罗莱恩·泽勒的舞台剧《父亲》改编。
  

◎获奖情况

  第78届金球奖  (2021)
  电影类最佳剧情片(提名)
  电影类剧情片最佳男主角(提名) 安东尼·霍普金斯
  电影类最佳女配角(提名) 奥利维娅·科尔曼
  电影类最佳编剧(提名) 克里斯托弗·汉普顿 / 佛罗莱恩·泽勒
  
  第74届英国电影学院奖  (2021)
  电影奖最佳影片(提名)
  电影奖最佳英国影片(提名) 佛罗莱恩·泽勒
  电影奖最佳男主角 安东尼·霍普金斯
  电影奖最佳改编剧本
  电影奖最佳剪辑(提名)
  电影奖最佳艺术指导(提名)
  
  第35届西班牙戈雅奖  (2021)
  最佳欧洲电影
  
  第68届圣塞巴斯蒂安国际电影节  (2020)
  观众选择奖 佛罗莱恩·泽勒
  
  第73届美国导演工会奖  (2021)
  最佳新人导演奖(提名) 佛罗莱恩·泽勒
  
  第27届美国演员工会奖  (2021)
  电影奖最佳男主角(提名) 安东尼·霍普金斯
  电影奖最佳女配角(提名) 奥利维娅·科尔曼
  
  第26届美国评论家选择电影奖  (2021)
  最佳男主角(提名) 安东尼·霍普金斯
  最佳女配角(提名) 奥利维娅·科尔曼
  最佳改编剧本(提名) 克里斯托弗·汉普顿 / 佛罗莱恩·泽勒
  最佳剪辑(提名) 欧格斯·兰姆普里诺斯
  
  第23届英国独立电影奖  (2020)
  最佳英国独立电影(提名)
  最佳导演(提名) 佛罗莱恩·泽勒
  最佳编剧 克里斯托弗·汉普顿 / 佛罗莱恩·泽勒
  最佳男主角 安东尼·霍普金斯
  最佳剪辑
  最佳艺术指导(提名)
  
  第25届金卫星奖  (2021)
  电影部门最佳剧情片(提名)
  电影部门最佳导演(提名) 佛罗莱恩·泽勒
  电影部门剧情片最佳男主角(提名) 安东尼·霍普金斯
  电影部门最佳女配角(提名) 奥利维娅·科尔曼
  电影部门最佳改编剧本(提名) 克里斯托弗·汉普顿 / 佛罗莱恩·泽勒
  电影部门最佳剪辑(提名) 欧格斯·兰姆普里诺斯
  
  第41届伦敦影评人协会奖  (2021)
  年度英国/爱尔兰电影(提名)
  年度男主角(提名) 安东尼·霍普金斯
  年度英国/爱尔兰男演员(提名) 安东尼·霍普金斯
  
  第41届波士顿影评人协会奖  (2020)
  最佳男主角 安东尼·霍普金斯
  最佳处女作 佛罗莱恩·泽勒
  
  第46届洛杉矶影评人协会奖  (2020)
  最佳剪辑 欧格斯·兰姆普里诺斯
  
  第33届芝加哥影评人协会奖  (2020)
  最佳男主角(提名) 安东尼·霍普金斯
  最佳改编剧本(提名) 克里斯托弗·汉普顿 / 佛罗莱恩·泽勒
  
  第5届亚特兰大影评人协会奖  (2020)
  十佳影片
  
  第24届美国在线影评人协会奖  (2021)
  最佳男主角(提名) 安东尼·霍普金斯
  最佳女配角(提名) 奥利维娅·科尔曼


DISC INFO:

Disc Title:     The.Father.2020.1080p.BluRay.AVC.DTS-HD.MA.5.1-FGT
Disc Size:      29,587,925,074 bytes
Protection:     AACS
Extras:         BD-Java
BDInfo:         0.7.5.9 (compatible layout created by DVDFab 12.0.2.9)

PLAYLIST REPORT:

Name:                   00001.MPLS  
Length:                 1:36:59.814 (h:m:s.ms)
Size:                   23,760,414,720 bytes
Total Bitrate:          32.66 Mbps

VIDEO:

Codec                   Bitrate             Description     
-----                   -------             -----------     
MPEG-4 AVC Video        27860 kbps          1080p / 23.976 fps / 16:9 / High Profile 4.1

AUDIO:

Codec                           Language        Bitrate         Description     
-----                           --------        -------         -----------     
DTS-HD Master Audio             English         3071 kbps       5.1 / 48 kHz / 3071 kbps / 24-bit (DTS Core: 5.1 / 48 kHz / 1509 kbps / 24-bit)

SUBTITLES:

Codec                           Language        Bitrate         Description     
-----                           --------        -------         -----------     
Presentation Graphics           English         34.739 kbps                     
Presentation Graphics           English         31.32 kbps   


Video
ID : 1
ID in the original source medium : 4113 (0x1011)
Format : AVC
Format/Info : Advanced Video Codec
Format profile : [email protected]
Format settings : CABAC / 2 Ref Frames
Format settings, CABAC : Yes
Format settings, Reference frames : 2 frames
Format settings, GOP : M=1, N=10
Codec ID : V_MPEG4/ISO/AVC
Duration : 1 h 36 min
Bit rate mode : Variable
Bit rate : 27.9 Mb/s
Width : 1 920 pixels
Height : 1 080 pixels
Display aspect ratio : 16:9
Frame rate mode : Constant
Frame rate : 23.976 (24000/1001) FPS
Color space : YUV
Chroma subsampling : 4:2:0
Bit depth : 8 bits
Scan type : Progressive
Bits/(Pixel*Frame) : 0.560
Stream size : 18.9 GiB (90%)
Language : English
Default : No
Forced : No
Original source medium : Blu-ray

Audio
ID : 2
ID in the original source medium : 4352 (0x1100)
Format : DTS XLL
Format/Info : Digital Theater Systems
Commercial name : DTS-HD Master Audio
Codec ID : A_DTS
Duration : 1 h 36 min
Bit rate mode : Variable
Bit rate : 3 071 kb/s
Channel(s) : 6 channels
Channel layout : C L R Ls Rs LFE
Sampling rate : 48.0 kHz
Frame rate : 93.750 FPS (512 SPF)
Bit depth : 24 bits
Compression mode : Lossless
Stream size : 2.08 GiB (10%)
Title : DTS-HD MA 5.1
Language : English
Default : Yes
Forced : No
Original source medium : Blu-ray

Text #1
ID : 3
Format : UTF-8
Codec ID : S_TEXT/UTF8
Codec ID/Info : UTF-8 Plain Text
Duration : 1 h 30 min
Bit rate : 55 b/s
Count of elements : 1266
Stream size : 36.9 KiB (0%)
Title : English-SRT
Language : English
Default : Yes
Forced : No

Text #2
ID : 4
ID in the original source medium : 4608 (0x1200)
Format : PGS
Muxing mode : zlib
Codec ID : S_HDMV/PGS
Codec ID/Info : Picture based subtitle format used on BDs/HD-DVDs
Duration : 1 h 32 min
Bit rate : 36.5 kb/s
Count of elements : 2704
Stream size : 24.1 MiB (0%)
Title : English-PGS
Language : English
Default : No
Forced : No
Original source medium : Blu-ray

Text #3
ID : 5
ID in the original source medium : 4609 (0x1201)
Format : PGS
Muxing mode : zlib
Codec ID : S_HDMV/PGS
Codec ID/Info : Picture based subtitle format used on BDs/HD-DVDs
Duration : 1 h 29 min
Bit rate : 33.9 kb/s
Count of elements : 2458
Stream size : 21.7 MiB (0%)
Title : English-SDH-PGS
Language : English
Default : No
Forced : No
Original source medium : Blu-ray

Menu
00:00:00.000 : Chapter 01
00:06:30.473 : Chapter 02
00:14:07.137 : Chapter 03
00:25:32.280 : Chapter 04
00:35:09.982 : Chapter 05
00:39:52.765 : Chapter 06
00:45:57.546 : Chapter 07
00:50:33.697 : Chapter 08
00:54:12.082 : Chapter 09
00:58:36.888 : Chapter 10
01:02:19.652 : Chapter 11
01:07:21.203 : Chapter 12
01:11:03.884 : Chapter 13
01:13:52.136 : Chapter 14
01:20:54.558 : Chapter 15
01:22:24.022 : Chapter 16

本帖子中包含更多资源

您需要 登录 才可以下载或查看,没有帐号?立即注册

x
回复

使用道具 举报

0

主题

1178

帖子

8764

积分

VIP永久

Rank: 12Rank: 12Rank: 12

积分
8764
QQ
发表于 2021-5-22 14:10:19 | 显示全部楼层
感谢楼主分享!!!
回复

使用道具 举报

0

主题

32

帖子

52

积分

注册会员

Rank: 2

积分
52
发表于 2021-5-24 00:06:10 | 显示全部楼层
谢谢楼主分享
回复

使用道具 举报

0

主题

32

帖子

52

积分

注册会员

Rank: 2

积分
52
发表于 2021-5-24 00:24:08 | 显示全部楼层
感谢楼主分享!!!
回复

使用道具 举报

0

主题

753

帖子

3730

积分

论坛元老

Rank: 8Rank: 8

积分
3730
发表于 2021-5-27 08:58:22 | 显示全部楼层
感恩无私的分享
回复

使用道具 举报

您需要登录后才可以回帖 登录 | 立即注册

本版积分规则

QQ|Archiver|手机版|小黑屋|原盘天堂 好多盘 点击这里给我发消息

GMT+8, 2021-6-13 09:42 , Processed in 0.056571 second(s), 26 queries .

Powered by Discuz! X3.4

Copyright © 2001-2020, Tencent Cloud.

快速回复 返回顶部 返回列表