请选择 进入手机版 | 继续访问电脑版
本站Q群713428235【盘盘多】已满,请新会员加原盘天堂新官方QQ群709708625【好多盘】,验证信息填写您在论坛的会员名,不填会员名的无法入群哈,进群后修改您的群名片名字为您在论坛的会员名,请务必修改,否则群成员多了不知道您是哪个会员。

原盘天堂

 找回密码
 立即注册
京东商城当当华为商城名牌时尚折扣网,一个新型的网上购物平台,我们每周为您精选3~4个国际知名品牌,商品折扣低至2折限时限量售卖,商品囊括时装、护肤品、箱包、皮具、配饰、香水等等,琳琅满目。亿格瑞A10硬盘播放器 苏宁易购
查看: 188|回复: 2

2d蓝光原盘bdmv 米纳里 英语原版 minari.2020.korean.ensubbed.1080p.bluray.avc.dts-hd.ma.5.1[38.64 GB]

[复制链接]

6023

主题

6690

帖子

133万

积分

管理员

Rank: 18Rank: 18Rank: 18Rank: 18Rank: 18

积分
1332463
发表于 2021-5-19 20:52:07 | 显示全部楼层 |阅读模式








米纳里 Minari (2020)

◎译  名 米纳里/梦想之地(台)/农情家园(港)/水芹菜/미나리
◎片  名 Minari
◎年  代 2020
◎产  地 美国
◎类  别 剧情
◎语  言 韩语/英语
◎上映日期 2020-01-26(圣丹斯电影节)/2021-02-12(美国)/2021-02-26(美国网络)
◎IMDb链接  https://www.imdb.com/title/tt10633456/
◎豆瓣评分 7.3/10 from 16119 users
◎豆瓣链接 https://douban.com/subject/34463995/
◎片  长 115分钟
◎导  演 李·以萨克·郑 Lee Isaac Chung
◎编  剧 李·以萨克·郑 Lee Isaac Chung
◎主  演 史蒂文·元 Steven Yeun
       韩艺璃 Ye-ri Han
       达里尔·考克斯 Darryl Cox
       威尔·帕顿 Will Patton
       尹汝贞 Yeo-jeong Yoon
       蒂娜·帕克 Tina Parker
       斯科特·黑兹 Scott Haze
       艾伦·S·金 Alan S. Kim
       Laurie Cummings
       埃里克·斯达克 Eric Starkey
       伊瑟·文 Esther Moon
       诺尔·曹 Noel Cho

◎标  签 移民 | 韩国 | 美国 | 剧情 | 2020 | 种族 | 美国电影 | 圣丹斯电影节

◎简  介

  
  故事发生在20世纪80年代的美国,美籍韩裔男子雅各布(史蒂文·元 Steven Yeun 饰)带着妻子莫妮卡(韩艺璃 饰)和两个孩子大卫(Alan S. Kim 饰)、安妮(Noel Cho 饰)一起从熟悉的西海岸搬到了偏僻而又陌生的阿肯色州。虽然对于丈夫的这一决定,莫妮卡的心中十分的反对,但她拗不过雅各布的坚决和顽固,只得被迫夫唱妇随。
  
  蛮荒之地的生活既不舒适也不有趣,在最初的新鲜感过去之后,大卫和安妮很快就开始怀念起过去的生活了。之后,孩子们的外婆也来到了他们的身边,给这个家庭带来了一丝热闹的气息。雅各布没有发现的是,当他将越来越多的时间和精力投入到开发农场这件事情上时,他和妻子之间的距离就越来越远。
  

◎获奖情况

  第78届金球奖  (2021)
  电影类最佳外语片
  
  第74届英国电影学院奖  (2021)
  电影奖最佳导演(提名) 李·以萨克·郑
  电影奖最佳男配角(提名) 艾伦·S·金
  电影奖最佳女配角 尹汝贞
  电影奖最佳非英语片(提名)
  电影奖最佳原创配乐(提名)
  电影奖最佳选角(提名)
  
  第36届圣丹斯电影节  (2020)
  评审团大奖剧情片 李·以萨克·郑
  观众奖剧情片
  
  第73届美国导演工会奖  (2021)
  最佳电影导演(提名) 李·以萨克·郑
  
  第27届美国演员工会奖  (2021)
  电影奖最佳男主角(提名) 史蒂文·元
  电影奖最佳女配角 尹汝贞
  电影奖最佳群戏(提名)
  
  第32届美国制片人工会奖  (2021)
  最佳电影制片人奖(提名)
  
  第71届美国剪辑工会奖  (2021)
  剧情片最佳剪辑(提名) 哈里·尹
  
  第92届美国国家评论协会奖  (2020)
  最佳女配角 尹汝贞
  最佳原创剧本 李·以萨克·郑
  年度佳片
  
  第26届美国评论家选择电影奖  (2021)
  最佳影片(提名)
  最佳导演(提名) 李·以萨克·郑
  最佳男主角(提名) 史蒂文·元
  最佳女配角(提名) 尹汝贞
  最佳青少年演员 艾伦·S·金
  最佳群戏(提名)
  最佳外语片
  最佳原创剧本(提名) 李·以萨克·郑
  最佳摄影(提名) 拉克兰·米尔恩
  最佳配乐(提名) 埃米尔·莫塞利
  
  第36届美国独立精神奖  (2021)
  最佳影片(提名)
  最佳导演(提名) 李·以萨克·郑
  最佳男主角(提名) 史蒂文·元
  最佳女配角 尹汝贞
  最佳女配角(提名) 韩艺璃
  最佳剧本(提名)
  
  第30届哥谭独立电影奖  (2020)
  最佳女演员(提名) 尹汝贞
  
  第21届美国电影学会奖  (2020)
  年度佳片
  
  第25届金卫星奖  (2021)
  电影部门最佳剧情片(提名)
  电影部门最佳导演(提名) 李·以萨克·郑
  电影部门剧情片最佳男主角(提名) 史蒂文·元
  电影部门最佳女配角(提名) 尹汝贞
  电影部门最佳原创剧本(提名) 李·以萨克·郑
  电影部门最佳原创配乐(提名) 埃米尔·莫塞利
  电影部门最佳剪辑(提名) 哈里·尹
  
  第55届美国国家影评人协会奖  (2021)
  最佳女配角(提名) 尹汝贞
  
  第41届伦敦影评人协会奖  (2021)
  年度电影(提名)
  年度外语片(提名)
  
  第41届波士顿影评人协会奖  (2020)
  最佳女配角 尹汝贞
  最佳音乐 埃米尔·莫塞利
  最佳群像表演(提名)
  
  第46届洛杉矶影评人协会奖  (2020)
  最佳女配角 尹汝贞
  
  第33届芝加哥影评人协会奖  (2020)
  最佳男主角(提名) 史蒂文·元
  最佳女配角(提名) 尹汝贞
  最具突破导演(米洛斯·斯泰利克奖)(提名) 李·以萨克·郑
  
  第5届亚特兰大影评人协会奖  (2020)
  十佳影片
  最佳女配角(提名) 尹汝贞
  
  第24届美国在线影评人协会奖  (2021)
  最佳影片(提名)
  最佳男主角(提名) 史蒂文·元
  最佳女配角(提名) 尹汝贞
  最佳原创剧本(提名) 李·以萨克·郑
  最佳原创配乐(提名) 埃米尔·莫塞利
  最佳非英语片


DISC INFO:

Disc Title:     Minari.2020.KOREAN.ENSUBBED.1080p.BluRay.AVC.DTS-HD.MA.5.1-FGT
Disc Size:      41,484,473,001 bytes
Protection:     AACS
Extras:         BD-Java
BDInfo:         0.7.5.9 (compatible layout created by DVDFab 12.0.2.9)

PLAYLIST REPORT:

Name:                   00664.MPLS  
Length:                 1:55:12.947 (h:m:s.ms)
Size:                   36,151,166,976 bytes
Total Bitrate:          41.84 Mbps

VIDEO:

Codec                   Bitrate             Description     
-----                   -------             -----------     
MPEG-4 AVC Video        36128 kbps          1080p / 23.976 fps / 16:9 / High Profile 4.1

AUDIO:

Codec                           Language        Bitrate         Description     
-----                           --------        -------         -----------     
DTS-HD Master Audio             Korean          3395 kbps       5.1 / 48 kHz / 3395 kbps / 24-bit (DTS Core: 5.1 / 48 kHz / 1509 kbps / 24-bit)
Dolby Digital Audio             English         192 kbps        2.0 / 48 kHz / 192 kbps

SUBTITLES:

Codec                           Language        Bitrate         Description     
-----                           --------        -------         -----------     
Presentation Graphics           English         16.727 kbps                     
Presentation Graphics           Spanish         22.41 kbps

Video
ID : 1
ID in the original source medium : 4113 (0x1011)
Format : AVC
Format/Info : Advanced Video Codec
Format profile : [email protected]
Format settings : CABAC / 4 Ref Frames
Format settings, CABAC : Yes
Format settings, Reference frames : 4 frames
Codec ID : V_MPEG4/ISO/AVC
Duration : 1 h 55 min
Bit rate mode : Variable
Bit rate : 35.5 Mb/s
Maximum bit rate : 37.0 Mb/s
Width : 1 920 pixels
Height : 1 080 pixels
Display aspect ratio : 16:9
Frame rate mode : Constant
Frame rate : 23.976 (24000/1001) FPS
Color space : YUV
Chroma subsampling : 4:2:0
Bit depth : 8 bits
Scan type : Progressive
Bits/(Pixel*Frame) : 0.714
Stream size : 28.6 GiB (91%)
Language : English
Default : No
Forced : No
Original source medium : Blu-ray

Audio #1
ID : 2
ID in the original source medium : 4352 (0x1100)
Format : DTS XLL
Format/Info : Digital Theater Systems
Commercial name : DTS-HD Master Audio
Codec ID : A_DTS
Duration : 1 h 55 min
Bit rate mode : Variable
Bit rate : 3 395 kb/s
Channel(s) : 6 channels
Channel layout : C L R Ls Rs LFE
Sampling rate : 48.0 kHz
Frame rate : 93.750 FPS (512 SPF)
Bit depth : 24 bits
Compression mode : Lossless
Stream size : 2.73 GiB (9%)
Title : DTS-HD MA 5.1
Language : Korean
Default : Yes
Forced : No
Original source medium : Blu-ray

Audio #2
ID : 3
ID in the original source medium : 4353 (0x1101)
Format : AC-3
Format/Info : Audio Coding 3
Commercial name : Dolby Digital
Codec ID : A_AC3
Duration : 1 h 55 min
Bit rate mode : Constant
Bit rate : 192 kb/s
Channel(s) : 2 channels
Channel layout : L R
Sampling rate : 48.0 kHz
Frame rate : 31.250 FPS (1536 SPF)
Compression mode : Lossy
Stream size : 158 MiB (0%)
Title : DD 2.0
Language : English
Service kind : Complete Main
Default : No
Forced : No
Original source medium : Blu-ray

Text #1
ID : 4
Format : UTF-8
Codec ID : S_TEXT/UTF8
Codec ID/Info : UTF-8 Plain Text
Duration : 1 h 51 min
Bit rate : 14 b/s
Count of elements : 512
Stream size : 11.8 KiB (0%)
Title : English-SRT
Language : English
Default : Yes
Forced : No

Text #2
ID : 5
ID in the original source medium : 4608 (0x1200)
Format : PGS
Muxing mode : zlib
Codec ID : S_HDMV/PGS
Codec ID/Info : Picture based subtitle format used on BDs/HD-DVDs
Duration : 1 h 54 min
Bit rate : 16.8 kb/s
Count of elements : 1846
Stream size : 13.8 MiB (0%)
Title : English-PGS
Language : English
Default : No
Forced : No
Original source medium : Blu-ray

Text #3
ID : 6
ID in the original source medium : 4609 (0x1201)
Format : PGS
Muxing mode : zlib
Codec ID : S_HDMV/PGS
Codec ID/Info : Picture based subtitle format used on BDs/HD-DVDs
Duration : 1 h 53 min
Bit rate : 22.7 kb/s
Count of elements : 2370
Stream size : 18.5 MiB (0%)
Title : Spanish-PGS
Language : Spanish
Default : No
Forced : No
Original source medium : Blu-ray

Menu
00:00:00.000 : Chapter 01
00:05:53.770 : Chapter 02
00:13:53.791 : Chapter 03
00:20:37.486 : Chapter 04
00:26:30.964 : Chapter 05
00:31:25.633 : Chapter 06
00:37:57.984 : Chapter 07
00:44:06.977 : Chapter 08
00:50:30.360 : Chapter 09
00:57:55.263 : Chapter 10
01:04:23.776 : Chapter 11
01:11:48.637 : Chapter 12
01:20:51.221 : Chapter 13
01:30:46.899 : Chapter 14
01:42:08.789 : Chapter 15
01:49:08.542 : Chapter 16

本帖子中包含更多资源

您需要 登录 才可以下载或查看,没有帐号?立即注册

x
回复

使用道具 举报

0

主题

60

帖子

562

积分

VIP永久

Rank: 12Rank: 12Rank: 12

积分
562
发表于 2021-5-19 21:16:58 | 显示全部楼层
感谢群主分享!!
回复

使用道具 举报

0

主题

1178

帖子

8764

积分

VIP永久

Rank: 12Rank: 12Rank: 12

积分
8764
QQ
发表于 2021-5-22 14:11:31 | 显示全部楼层
感谢楼主分享!!!
回复

使用道具 举报

您需要登录后才可以回帖 登录 | 立即注册

本版积分规则

QQ|Archiver|手机版|小黑屋|原盘天堂 好多盘 点击这里给我发消息

GMT+8, 2021-6-13 11:20 , Processed in 0.056878 second(s), 26 queries .

Powered by Discuz! X3.4

Copyright © 2001-2020, Tencent Cloud.

快速回复 返回顶部 返回列表