请选择 进入手机版 | 继续访问电脑版
本站Q群713428235【盘盘多】已满,请新会员加原盘天堂新官方QQ群709708625【好多盘】,验证信息填写您在论坛的会员名,不填会员名的无法入群哈,进群后修改您的群名片名字为您在论坛的会员名,请务必修改,否则群成员多了不知道您是哪个会员。

原盘天堂

 找回密码
 立即注册
京东商城当当华为商城名牌时尚折扣网,一个新型的网上购物平台,我们每周为您精选3~4个国际知名品牌,商品折扣低至2折限时限量售卖,商品囊括时装、护肤品、箱包、皮具、配饰、香水等等,琳琅满目。亿格瑞A10硬盘播放器 苏宁易购
查看: 146|回复: 2

2d蓝光原盘bdmv 酒精计划 英语原版 another.round.2020.danish.1080p.bluray.avc.dts-hd.ma.5.1[22.97 GB]

[复制链接]

6023

主题

6690

帖子

133万

积分

管理员

Rank: 18Rank: 18Rank: 18Rank: 18Rank: 18

积分
1332455
发表于 2021-5-19 20:24:56 | 显示全部楼层 |阅读模式








酒精计划 Druk (2020)

◎译  名 酒精计划/另一回合/酩酊烂醉/醉好的时光(台)/醉美的一课(港)/Another Round/Drunk/The Alcohol Project
◎片  名 Druk
◎年  代 2020
◎产  地 丹麦/瑞典/荷兰
◎类  别 剧情/喜剧
◎语  言 丹麦语/瑞典语
◎上映日期 2020-09-12(多伦多电影节)/2020-09-24(丹麦)
◎IMDb链接  https://www.imdb.com/title/tt10288566/
◎豆瓣评分 7.7/10 from 35639 users
◎豆瓣链接 https://douban.com/subject/30323120/
◎片  长 117分钟
◎导  演 托马斯·温特伯格 Thomas Vinterberg
◎编  剧 托马斯·温特伯格 Thomas Vinterberg / 托比亚斯·林道赫姆 Tobias Lindholm
◎主  演 麦斯·米科尔森 Mads Mikkelsen
       托玛斯·博·拉森 Thomas Bo Larsen
       马格努斯·米兰 Magnus Millang
       拉斯·兰特 Lars Ranthe
       玛利亚·邦妮薇 Maria Bonnevie
       海伦娜·赖因科德·纳曼 Helene Reingaard Neumann
       苏西·沃德 Susse Wold
       艾伯特·鲁德贝克·林哈特 Albert Rudbeck Lindhardt
       弗莱德瑞克·温瑟·拉斯穆森 Frederik Winther Rasmussen
       多尔特·回斯特德 Dorte Højsted
       莫滕·桑博 Morten Thunbo
       奥勒·杜邦 Ole Dupont
       比尔·克林顿 Bill Clinton
       列昂尼德·伊里奇·勃列日涅夫 Leonid Brezhnev
       让-克洛德·容克 Jean-Claude Juncker
       安格拉·默克尔 Angela Merkel
       欧尔班·维克托 Viktor Orbán
       尼古拉·萨科齐 Nicolas Sarkozy
       鲍里斯·尼古拉耶维奇·叶利钦 Boris Yeltsin

◎标  签 丹麦 | 麦斯·米科尔森 | 剧情 | 丹麦电影 | 2020 | 托马斯·温特伯格 | 戛纳 | MadsMikkelsen

◎简  介

  
  本片将围绕马丁(米科尔森饰)和他三个朋友展开,这四个高中老师为了摆脱日常的循规蹈矩,开始了一项持续醉酒的实验。虽然计划最初很成功,但最终失败了。
  

◎获奖情况

  第73届戛纳电影节  (2020)
  入选过戛纳导演作品(提名)
  
  第78届金球奖  (2021)
  电影类最佳外语片(提名)
  
  第74届英国电影学院奖  (2021)
  电影奖最佳导演(提名) 托马斯·温特伯格
  电影奖最佳男主角(提名) 麦斯·米科尔森
  电影奖最佳原创剧本(提名)
  电影奖最佳非英语片
  
  第33届欧洲电影奖  (2020)
  最佳影片
  最佳导演 托马斯·温特伯格
  最佳男主角 麦斯·米科尔森
  最佳编剧 托比亚斯·林道赫姆 / 托马斯·温特伯格
  
  第46届法国凯撒电影奖  (2021)
  最佳外语片 托马斯·温特伯格
  
  第68届圣塞巴斯蒂安国际电影节  (2020)
  金贝壳奖(提名) 托马斯·温特伯格
  最佳男演员银贝壳奖 麦斯·米科尔森 / 托玛斯·博·拉森 / 拉斯·兰特 / 马格努斯·米兰
  
  第64届伦敦电影节  (2020)
  最佳影片
  
  第26届美国评论家选择电影奖  (2021)
  最佳外语片(提名)
  
  第25届金卫星奖  (2021)
  电影部门最佳外语片(提名)
  
  第41届伦敦影评人协会奖  (2021)
  年度外语片(提名)
  
  第33届芝加哥影评人协会奖  (2020)
  最佳外语片
  
  第5届亚特兰大影评人协会奖  (2020)
  最佳外语片
  
  第24届美国在线影评人协会奖  (2021)
  最佳非英语片(提名)

DISC INFO:

Disc Title:     Another.Round.2020.DANISH.1080p.BluRay.AVC.DTS-HD.MA.5.1-FGT
Disc Size:      24,659,892,712 bytes
Protection:     AACS
BDInfo:         0.7.5.9 (compatible layout created by DVDFab 12.0.2.9)

PLAYLIST REPORT:

Name:                   00000.MPLS  
Length:                 1:56:34.708 (h:m:s.ms)
Size:                   23,392,066,752 bytes
Total Bitrate:          26.75 Mbps

VIDEO:

Codec                   Bitrate             Description     
-----                   -------             -----------     
MPEG-4 AVC Video        19398 kbps          1080p / 24 fps / 16:9 / High Profile 4.1

AUDIO:

Codec                           Language        Bitrate         Description     
-----                           --------        -------         -----------     
DTS-HD Master Audio             Danish          3469 kbps       5.1 / 48 kHz / 3469 kbps / 24-bit (DTS Core: 5.1 / 48 kHz / 1509 kbps / 24-bit)
LPCM Audio                      Danish          2304 kbps       2.0 / 48 kHz / 2304 kbps / 24-bit

SUBTITLES:

Codec                           Language        Bitrate         Description     
-----                           --------        -------         -----------     
Presentation Graphics           English         49.976 kbps                     
Presentation Graphics           English         63.872 kbps   

Video
ID : 1
ID in the original source medium : 4113 (0x1011)
Format : AVC
Format/Info : Advanced Video Codec
Format profile : [email protected]
Format settings : CABAC / 4 Ref Frames
Format settings, CABAC : Yes
Format settings, Reference frames : 4 frames
Format settings, GOP : M=3, N=12
Codec ID : V_MPEG4/ISO/AVC
Duration : 1 h 56 min
Bit rate mode : Variable
Bit rate : 19.4 Mb/s
Maximum bit rate : 32.7 Mb/s
Width : 1 920 pixels
Height : 1 080 pixels
Display aspect ratio : 16:9
Frame rate mode : Constant
Frame rate : 24.000 FPS
Standard : NTSC
Color space : YUV
Chroma subsampling : 4:2:0
Bit depth : 8 bits
Scan type : Progressive
Bits/(Pixel*Frame) : 0.390
Stream size : 15.8 GiB (77%)
Language : English
Default : No
Forced : No
Color range : Limited
Color primaries : BT.709
Transfer characteristics : BT.709
Matrix coefficients : BT.709
Original source medium : Blu-ray

Audio #1
ID : 2
ID in the original source medium : 4352 (0x1100)
Format : DTS XLL
Format/Info : Digital Theater Systems
Commercial name : DTS-HD Master Audio
Codec ID : A_DTS
Duration : 1 h 56 min
Bit rate mode : Variable
Bit rate : 3 469 kb/s
Channel(s) : 6 channels
Channel layout : C L R Ls Rs LFE
Sampling rate : 48.0 kHz
Frame rate : 93.750 FPS (512 SPF)
Bit depth : 24 bits
Compression mode : Lossless
Stream size : 2.82 GiB (14%)
Title : DTS-HD MA 5.1
Language : Danish
Default : Yes
Forced : No
Original source medium : Blu-ray

Audio #2
ID : 3
ID in the original source medium : 4353 (0x1101)
Format : PCM
Format settings : Little / Signed
Codec ID : A_PCM/INT/LIT
Duration : 1 h 56 min
Bit rate mode : Constant
Bit rate : 2 304 kb/s
Channel(s) : 2 channels
Sampling rate : 48.0 kHz
Frame rate : 30.000 FPS (1600 SPF)
Bit depth : 24 bits
Stream size : 1.88 GiB (9%)
Title : LPCM 2.0
Language : Danish
Default : No
Forced : No
Original source medium : Blu-ray

Text #1
ID : 4
Format : UTF-8
Codec ID : S_TEXT/UTF8
Codec ID/Info : UTF-8 Plain Text
Duration : 1 h 52 min
Bit rate : 44 b/s
Count of elements : 1036
Stream size : 36.6 KiB (0%)
Title : English-SRT
Language : English
Default : Yes
Forced : No

Text #2
ID : 5
ID in the original source medium : 4608 (0x1200)
Format : PGS
Muxing mode : zlib
Codec ID : S_HDMV/PGS
Codec ID/Info : Picture based subtitle format used on BDs/HD-DVDs
Duration : 1 h 52 min
Bit rate : 51.8 kb/s
Count of elements : 2094
Stream size : 41.7 MiB (0%)
Title : English-PGS
Language : English
Default : No
Forced : No
Original source medium : Blu-ray

Text #3
ID : 6
ID in the original source medium : 4609 (0x1201)
Format : PGS
Muxing mode : zlib
Codec ID : S_HDMV/PGS
Codec ID/Info : Picture based subtitle format used on BDs/HD-DVDs
Duration : 1 h 54 min
Bit rate : 64.8 kb/s
Count of elements : 1931
Stream size : 53.3 MiB (0%)
Title : English-SDH-PGS
Language : English
Default : No
Forced : No
Original source medium : Blu-ray

Menu
00:00:00.000 : Chapter 01
00:07:13.833 : Chapter 02
00:12:24.708 : Chapter 03
00:22:44.041 : Chapter 04
00:30:49.458 : Chapter 05
00:38:11.041 : Chapter 06
00:46:36.041 : Chapter 07
00:56:00.083 : Chapter 08
01:03:00.458 : Chapter 09
01:11:37.375 : Chapter 10
01:18:07.625 : Chapter 11
01:23:48.458 : Chapter 12
01:30:04.958 : Chapter 13
01:38:36.708 : Chapter 14
01:45:14.500 : Chapter 15
01:52:46.250 : Chapter 16

本帖子中包含更多资源

您需要 登录 才可以下载或查看,没有帐号?立即注册

x
回复

使用道具 举报

0

主题

1178

帖子

8764

积分

VIP永久

Rank: 12Rank: 12Rank: 12

积分
8764
QQ
发表于 2021-5-22 14:12:39 | 显示全部楼层
感谢楼主分享!!!
回复

使用道具 举报

0

主题

1

帖子

115

积分

VIP月

Rank: 9Rank: 9Rank: 9

积分
115
发表于 2021-5-29 21:03:33 | 显示全部楼层
感谢楼主分享!!!
回复

使用道具 举报

您需要登录后才可以回帖 登录 | 立即注册

本版积分规则

QQ|Archiver|手机版|小黑屋|原盘天堂 好多盘 点击这里给我发消息

GMT+8, 2021-6-13 10:07 , Processed in 0.057524 second(s), 26 queries .

Powered by Discuz! X3.4

Copyright © 2001-2020, Tencent Cloud.

快速回复 返回顶部 返回列表