请选择 进入手机版 | 继续访问电脑版
本站Q群713428235【盘盘多】已满,请新会员加原盘天堂新官方QQ群709708625【好多盘】,验证信息填写您在论坛的会员名,不填会员名的无法入群哈,进群后修改您的群名片名字为您在论坛的会员名,请务必修改,否则群成员多了不知道您是哪个会员。

原盘天堂

 找回密码
 立即注册
京东商城当当华为商城名牌时尚折扣网,一个新型的网上购物平台,我们每周为您精选3~4个国际知名品牌,商品折扣低至2折限时限量售卖,商品囊括时装、护肤品、箱包、皮具、配饰、香水等等,琳琅满目。亿格瑞A10硬盘播放器 苏宁易购
查看: 143|回复: 4

2d蓝光原盘bdmv 你的每一次呼吸 英语原版 every.breath.you.take.2021.1080p.bluray.avc.dts-hd.ma.5.1[22.34 GB]

[复制链接]

6023

主题

6690

帖子

133万

积分

管理员

Rank: 18Rank: 18Rank: 18Rank: 18Rank: 18

积分
1332463
发表于 2021-5-19 10:23:55 | 显示全部楼层 |阅读模式






你的每一次呼吸 Every Breath You Take (2021)

◎译  名 你的每一次呼吸/操控(台)/你独属于我/You Belong to Me
◎片  名 Every Breath You Take
◎年  代 2021
◎产  地 美国
◎类  别 惊悚
◎语  言 英语
◎上映日期 2021-04-02(美国)
◎IMDb链接  https://www.imdb.com/title/tt2231874/
◎豆瓣评分 5.3/10 from 208 users
◎豆瓣链接 https://douban.com/subject/20284811/
◎片  长 105分钟
◎导  演 沃恩·斯坦 Vaughn Stein / 克莉斯汀·杰弗斯 Christine Jeffs
◎主  演 卡西·阿弗莱克 Casey Affleck
       米歇尔·莫纳汉 Michelle Monaghan
       山姆·克拉弗林 Sam Claflin
       维罗尼卡·费瑞尔 Veronica Ferres
       英迪娅·埃斯利 India Eisley
       艾米丽·阿琳·林德 Emily Alyn Lind
       神奈川宏幸 Hiro Kanagawa
       文森特·盖尔 Vincent Gale
       丹尼尔·巴孔 Daniel Bacon
       克里斯·罗根 Chris Logan
       克雷格·哈斯 Craig Haas
       杰夫·桑卡 Jeff Sanca
       扎克·埃夫隆 Zac Efron

◎标  签 美国 | 惊悚 | 2021 | 卡西·阿弗莱克 | 山姆·克拉弗林 | 美国电影 | SamClaflin | CaseyAffleck

◎简  介

  
  卡西·阿弗莱克、山姆·克拉弗林、米歇尔·莫娜汉、维罗尼卡·费瑞尔将主演,克莉斯汀·杰弗斯([阳光清洗])执导的独立惊悚片[你的每一次呼吸](Every Breath You Take,暂译)。影片围绕一个精神科医生(阿弗莱克饰)展开,他的一位女性病人自杀后,其事业彻底陷入危机。当他邀请女病人的哥哥(克拉弗林饰)来到他家时,遇见了他的妻子(莫纳汉饰)和女儿,他的家庭却生活突然破裂了。影片即将于11月温哥华开机。
  
DISC INFO:

Disc Title:     Every.Breath.You.Take.2021.COMPLETE.BLURAY-BDA
Disc Size:      23,982,216,686 bytes
Protection:     AACS
BDInfo:         0.7.5.9 (compatible layout created by DVDFab 12.0.2.9)

PLAYLIST REPORT:

Name:                   00001.MPLS  
Length:                 1:45:47.466 (h:m:s.ms)
Size:                   23,931,303,936 bytes
Total Bitrate:          30.16 Mbps

VIDEO:

Codec                   Bitrate             Description     
-----                   -------             -----------     
MPEG-4 AVC Video        22974 kbps          1080p / 23.976 fps / 16:9 / High Profile 4.1

AUDIO:

Codec                           Language        Bitrate         Description     
-----                           --------        -------         -----------     
DTS-HD Master Audio             English         3384 kbps       5.1 / 48 kHz / 3384 kbps / 24-bit (DTS Core: 5.1 / 48 kHz / 1509 kbps / 24-bit)
DTS-HD Master Audio             English         1993 kbps       2.0 / 48 kHz / 1993 kbps / 24-bit (DTS Core: 2.0 / 48 kHz / 1509 kbps / 24-bit)

SUBTITLES:

Codec                           Language        Bitrate         Description     
-----                           --------        -------         -----------     
Presentation Graphics           English         27.24 kbps  

Video
ID : 1
ID in the original source medium : 4113 (0x1011)
Format : AVC
Format/Info : Advanced Video Codec
Format profile : [email protected]
Format settings : CABAC / 4 Ref Frames
Format settings, CABAC : Yes
Format settings, Reference frames : 4 frames
Codec ID : V_MPEG4/ISO/AVC
Duration : 1 h 45 min
Bit rate mode : Variable
Bit rate : 22.9 Mb/s
Maximum bit rate : 38.0 Mb/s
Width : 1 920 pixels
Height : 1 080 pixels
Display aspect ratio : 16:9
Frame rate mode : Constant
Frame rate : 23.976 (24000/1001) FPS
Color space : YUV
Chroma subsampling : 4:2:0
Bit depth : 8 bits
Scan type : Progressive
Bits/(Pixel*Frame) : 0.460
Stream size : 16.9 GiB (81%)
Language : English
Default : No
Forced : No
Original source medium : Blu-ray

Audio #1
ID : 2
ID in the original source medium : 4352 (0x1100)
Format : DTS XLL
Format/Info : Digital Theater Systems
Commercial name : DTS-HD Master Audio
Codec ID : A_DTS
Duration : 1 h 45 min
Bit rate mode : Variable
Bit rate : 3 384 kb/s
Channel(s) : 6 channels
Channel layout : C L R Ls Rs LFE
Sampling rate : 48.0 kHz
Frame rate : 93.750 FPS (512 SPF)
Bit depth : 24 bits
Compression mode : Lossless
Stream size : 2.50 GiB (12%)
Title : DTS-HD MA 5.1
Language : English
Default : Yes
Forced : No
Original source medium : Blu-ray

Audio #2
ID : 3
ID in the original source medium : 4353 (0x1101)
Format : DTS XLL
Format/Info : Digital Theater Systems
Commercial name : DTS-HD Master Audio
Codec ID : A_DTS
Duration : 1 h 45 min
Bit rate mode : Variable
Bit rate : 1 993 kb/s
Channel(s) : 2 channels
Channel layout : L R
Sampling rate : 48.0 kHz
Frame rate : 93.750 FPS (512 SPF)
Bit depth : 24 bits
Compression mode : Lossless
Stream size : 1.47 GiB (7%)
Title : DTS-HD MA 2.0
Language : English
Default : No
Forced : No
Original source medium : Blu-ray

Text #1
ID : 4
Format : UTF-8
Codec ID : S_TEXT/UTF8
Codec ID/Info : UTF-8 Plain Text
Duration : 1 h 41 min
Bit rate : 46 b/s
Count of elements : 1385
Stream size : 34.8 KiB (0%)
Title : English-SRT
Language : English
Default : Yes
Forced : No

Text #2
ID : 5
ID in the original source medium : 4608 (0x1200)
Format : PGS
Muxing mode : zlib
Codec ID : S_HDMV/PGS
Codec ID/Info : Picture based subtitle format used on BDs/HD-DVDs
Duration : 1 h 45 min
Bit rate : 27.3 kb/s
Count of elements : 3209
Stream size : 20.6 MiB (0%)
Title : English-PGS
Language : English
Default : No
Forced : No
Original source medium : Blu-ray

Menu
00:00:00.000 : Chapter 01
00:08:33.429 : Chapter 02
00:17:08.527 : Chapter 03
00:25:13.178 : Chapter 04
00:33:24.127 : Chapter 05
00:42:13.989 : Chapter 06
00:50:22.269 : Chapter 07
00:59:38.241 : Chapter 08
01:08:12.838 : Chapter 09
01:17:00.824 : Chapter 10
01:25:35.296 : Chapter 11
01:34:30.289 : Chapter 12
01:45:46.173 : Chapter 13

本帖子中包含更多资源

您需要 登录 才可以下载或查看,没有帐号?立即注册

x
回复

使用道具 举报

0

主题

835

帖子

3239

积分

论坛元老

Rank: 8Rank: 8

积分
3239
发表于 2021-5-19 16:57:49 | 显示全部楼层
谢谢楼主的分享
回复

使用道具 举报

0

主题

1178

帖子

8764

积分

VIP永久

Rank: 12Rank: 12Rank: 12

积分
8764
QQ
发表于 2021-5-22 14:15:02 | 显示全部楼层
感谢楼主分享!!!
回复

使用道具 举报

0

主题

32

帖子

52

积分

注册会员

Rank: 2

积分
52
发表于 2021-5-24 00:25:20 | 显示全部楼层
感谢楼主分享!!!
回复

使用道具 举报

0

主题

385

帖子

2143

积分

金牌会员

Rank: 6Rank: 6

积分
2143
发表于 2021-5-27 16:43:43 | 显示全部楼层
感谢楼主分享, 支持一下
回复

使用道具 举报

您需要登录后才可以回帖 登录 | 立即注册

本版积分规则

QQ|Archiver|手机版|小黑屋|原盘天堂 好多盘 点击这里给我发消息

GMT+8, 2021-6-13 11:11 , Processed in 0.057566 second(s), 26 queries .

Powered by Discuz! X3.4

Copyright © 2001-2020, Tencent Cloud.

快速回复 返回顶部 返回列表