请选择 进入手机版 | 继续访问电脑版
本站Q群713428235【盘盘多】已满,请新会员加原盘天堂新官方QQ群709708625【好多盘】,验证信息填写您在论坛的会员名,不填会员名的无法入群哈,进群后修改您的群名片名字为您在论坛的会员名,请务必修改,否则群成员多了不知道您是哪个会员。

原盘天堂

 找回密码
 立即注册
京东商城当当华为商城名牌时尚折扣网,一个新型的网上购物平台,我们每周为您精选3~4个国际知名品牌,商品折扣低至2折限时限量售卖,商品囊括时装、护肤品、箱包、皮具、配饰、香水等等,琳琅满目。亿格瑞A10硬盘播放器 苏宁易购
查看: 798|回复: 11

2d蓝光原盘bdmv 扎克·施奈德版正义联盟 中字 双碟 justice.league.snyders.cut.2021.1080p.bluray.avc.truehd.atmos.7.1[66.14 GB]

[复制链接]

6023

主题

6690

帖子

133万

积分

管理员

Rank: 18Rank: 18Rank: 18Rank: 18Rank: 18

积分
1332455
发表于 2021-5-19 09:57:12 | 显示全部楼层 |阅读模式






扎克·施奈德版正义联盟 Zack Snyder's Justice League (2021)

◎译  名 扎克·施奈德版正义联盟/查克·史奈德之正义联盟(台)/正义联盟 扎克·施奈德导演剪辑版/正义联盟:扎克·施耐德版/正义联盟导演剪辑版/Justice League Snyder Cut
◎片  名 Zack Snyder's Justice League
◎年  代 2021
◎产  地 美国
◎类  别 动作/科幻/奇幻/冒险
◎语  言 英语
◎上映日期 2021-03-18(美国)/2021-05-03(中国大陆网络)
◎IMDb链接  https://www.imdb.com/title/tt12361974/
◎豆瓣评分 8.3/10 from 187935 users
◎豆瓣链接 https://douban.com/subject/35076714/
◎片  长 242分钟
◎导  演 扎克·施奈德 Zack Snyder
◎编  剧 扎克·施奈德 Zack Snyder / 克里斯·特里奥 Chris Terrio / 威尔·比尔 Will Beall / 杰里·西格尔 Jerry Siegel / 乔·舒斯特 Joe Shuster
◎主  演 本·阿弗莱克 Ben Affleck
       亨利·卡维尔 Henry Cavill
       盖尔·加朵 Gal Gadot
       杰森·莫玛 Jason Momoa
       埃兹拉·米勒 Ezra Miller
       雷·费舍尔 Ray Fisher
       艾米·亚当斯 Amy Adams
       威廉·达福 Willem Dafoe
       杰西·艾森伯格 Jesse Eisenberg
       杰瑞米·艾恩斯 Jeremy Irons
       戴安·琳恩 Diane Lane
       康妮·尼尔森 Connie Nielsen
       J·K·西蒙斯 J.K. Simmons
       塞伦·希德 Ciarán Hinds
       郑恺 Kai Zheng
       艾梅柏·希尔德 Amber Heard
       乔·莫顿 Joe Morton
       丽莎·洛文·孔斯利 Lisa Loven Kongsli
       大卫·休里斯 David Thewlis
       安·奥戈博莫 Ann Ogbomo
       奥古斯塔·艾娃·艾伦德斯杜提尔 Ágústa Eva Erlendsdóttir
       克里斯特比约格·凯尔德 Kristbjörg Kjeld
       英格瓦·埃盖特·西古德松 Ingvar Eggert Sigurðsson
       马克·麦克卢尔 Marc McClure
       迈克尔·麦克埃尔哈顿 Michael McElhatton
       约翰·达格尔什 John Dagleish
       拉腊·德坎罗 Lara Decaro
       罗比·基 Robbie Gee
       吉姆·斯图格恩 Jim Sturgeon
       杜晨·科洛斯 Doutzen Kroes
       埃莉诺·松浦 Eleanor Matsuura
       萨曼塔·若 Samantha Jo
       布鲁克恩斯 Brooke Ence
       杰罗姆·普拉顿 Jérôme Pradon
       理查德·克里弗特 Richard Clifford
       文森特·里奥特 Vincent Riotta
       马克·阿诺德 Mark Arnold
       彼得·吉尼斯 Peter Guinness
       赛吉·康斯坦斯 Sergi Constance
       奥萝尔·劳泽瑞尔 Aurore Lauzeral
       朱利安·刘易斯·琼斯 Julian Lewis Jones
       雷·波特 Ray Porter
       弗朗西斯·麦基 Francis Magee
       科雷西·克莱门斯 Kiersey Clemons
       露西·布莱尔斯 Lucy Briers
       威尔·柯班 Wil Coban
       凯伦·布莱森 Karen Bryson
       克里斯蒂·梅尔 Christy Meyer
       吉安皮罗·科格诺利 Gianpiero Cognoli
       寇布勒·霍尔德布鲁克-史密斯 Kobna Holdbrook-Smith
       凯文·马图林 Kevin Mathurin
       泰勒·詹姆斯 Taylor James
       布鲁斯·钟 Bruce Chong
       奥赖恩·李 Orion Lee
       奥利弗·加茨 Oliver Gatz
       凯莉·波尔克 Kelly Burke
       奥利弗·鲍威尔 Oliver Powell
       哈里·伦尼克斯 Harry Lennix
       欧米·罗斯 Omri Rose
       萨姆·本杰明 Sam Benjamin
       卡拉·古奇诺 Carla Gugino
       罗素·克劳 Russell Crowe
       扎克·施奈德 Zack Snyder
       杰瑞德·莱托 Jared Leto
       罗宾·怀特 Robin Wright
       比利·克鲁德普 Billy Crudup
       乔·曼根尼罗 Joe Manganiello
       斯沃里·拉格纳内 Swaylee Loughnane
       安德鲁·G·奥格尔比 Andrew G. Ogleby
       山姆·威克斯 Sam Weeks
       Salóme Gunnarsdóttir

◎标  签 DC | 正义联盟 | 扎克施奈德 | 导演剪辑版 | 科幻 | 2021 | 漫画改编 | 美国

◎简  介

  
  布鲁斯·韦恩(本·阿弗莱克饰)为了确保不让超人(亨利·卡维尔饰)白白牺牲,他决定与戴安娜·普林斯(盖尔·加朵饰)联手并计划招募一支超能力者团队来保护世界免遭即将到来的灾难性威胁。但这项任务比布鲁斯想象中要困难,因为每位成员都必须面对并跨越自己过去的心魔,团结起来,最终形成一个前所未有的英雄联盟。 蝙蝠侠、神奇女侠、海王(杰森·莫玛饰)、钢骨(雷·费舍饰)、闪电侠(埃兹拉·米勒饰)现在必须联合起来,否则就无法阻止荒原狼(塞伦·希德饰)、狄萨德(彼得·吉尼斯饰)以及达克赛德(雷·波特饰)毁灭地球的可怕计划。
  
DISC1:
DISC INFO:

Disc Title:     DISC1
Disc Size:      42,294,796,382 bytes
Protection:     AACS
Extras:         BD-Java
BDInfo:         0.7.5.9 (compatible layout created by DVDFab 12.0.2.9)

PLAYLIST REPORT:

Name:                   00800.MPLS  
Length:                 2:21:58.510 (h:m:s.ms)
Size:                   36,505,282,560 bytes
Total Bitrate:          34.28 Mbps

VIDEO:

Codec                   Bitrate             Description     
-----                   -------             -----------     
MPEG-4 AVC Video        22392 kbps          1080p / 23.976 fps / 16:9 / High Profile 4.1

AUDIO:

Codec                           Language        Bitrate         Description     
-----                           --------        -------         -----------     
Dolby TrueHD/Atmos Audio        English         3605 kbps       7.1+11 objects / 48 kHz / 3157 kbps / 16-bit (AC3 Core: 5.1-EX / 48 kHz / 448 kbps)
Dolby Digital Audio             English         448 kbps        5.1 / 48 kHz / 448 kbps
Dolby Digital Audio             English         448 kbps        5.1 / 48 kHz / 448 kbps
Dolby Digital Audio             French          448 kbps        5.1 / 48 kHz / 448 kbps
Dolby Digital Audio             Italian         448 kbps        5.1 / 48 kHz / 448 kbps
Dolby Digital Audio             Spanish         448 kbps        5.1 / 48 kHz / 448 kbps
Dolby Digital Audio             Spanish         448 kbps        5.1 / 48 kHz / 448 kbps
Dolby Digital Audio             Portuguese      448 kbps        5.1 / 48 kHz / 448 kbps
Dolby Digital Audio             Czech           448 kbps        5.1 / 48 kHz / 448 kbps
Dolby Digital Audio             Polish          448 kbps        5.1 / 48 kHz / 448 kbps
Dolby Digital Audio             Polish          448 kbps        5.1 / 48 kHz / 448 kbps
Dolby Digital Audio             Slovak          448 kbps        5.1 / 48 kHz / 448 kbps
Dolby Digital Audio             Japanese        448 kbps        5.1 / 48 kHz / 448 kbps

SUBTITLES:

Codec                           Language        Bitrate         Description     
-----                           --------        -------         -----------     
Presentation Graphics           English         26.945 kbps                     
Presentation Graphics           French          17.456 kbps                     
Presentation Graphics           Italian         25.717 kbps                     
Presentation Graphics           Spanish         20.219 kbps                     
Presentation Graphics           Chinese         19.754 kbps                     
Presentation Graphics           Chinese         21.304 kbps                     
Presentation Graphics           Korean          13.248 kbps                     
Presentation Graphics           Spanish         19.188 kbps                     
Presentation Graphics           Portuguese      21.025 kbps                     
Presentation Graphics           Czech           18.819 kbps                     
Presentation Graphics           Danish          17.958 kbps                     
Presentation Graphics           Finnish         19.08 kbps                     
Presentation Graphics           Norwegian       19.182 kbps                     
Presentation Graphics           Polish          20.076 kbps                     
Presentation Graphics           Swedish         17.49 kbps                     
Presentation Graphics           Japanese        13.573 kbps                     
Presentation Graphics           Japanese        0.283 kbps                     
Presentation Graphics           French          0.273 kbps                     
Presentation Graphics           Italian         0.467 kbps                     
Presentation Graphics           Spanish         0.358 kbps                     
Presentation Graphics           Spanish         0.086 kbps                     
Presentation Graphics           Czech           0.407 kbps                     
Presentation Graphics           Polish          0.466 kbps                     
Presentation Graphics           Slovak          0.268 kbps                     
Presentation Graphics           Portuguese      0.147 kbps                    

DISC2:
DISC INFO:

Disc Title:     DISC2
Disc Size:      28,720,639,504 bytes
Protection:     AACS
Extras:         BD-Java
BDInfo:         0.7.5.9 (compatible layout created by DVDFab 12.0.2.9)

PLAYLIST REPORT:

Name:                   00800.MPLS  
Length:                 1:40:17.011 (h:m:s.ms)
Size:                   26,228,588,544 bytes
Total Bitrate:          34.87 Mbps

VIDEO:

Codec                   Bitrate             Description     
-----                   -------             -----------     
MPEG-4 AVC Video        22949 kbps          1080p / 23.976 fps / 16:9 / High Profile 4.1

AUDIO:

Codec                           Language        Bitrate         Description     
-----                           --------        -------         -----------     
Dolby TrueHD/Atmos Audio        English         3606 kbps       7.1+11 objects / 48 kHz / 3158 kbps / 16-bit (AC3 Core: 5.1-EX / 48 kHz / 448 kbps)
Dolby Digital Audio             English         448 kbps        5.1 / 48 kHz / 448 kbps
Dolby Digital Audio             English         448 kbps        5.1 / 48 kHz / 448 kbps
Dolby Digital Audio             French          448 kbps        5.1 / 48 kHz / 448 kbps
Dolby Digital Audio             Italian         448 kbps        5.1 / 48 kHz / 448 kbps
Dolby Digital Audio             Spanish         448 kbps        5.1 / 48 kHz / 448 kbps
Dolby Digital Audio             Spanish         448 kbps        5.1 / 48 kHz / 448 kbps
Dolby Digital Audio             Portuguese      448 kbps        5.1 / 48 kHz / 448 kbps
Dolby Digital Audio             Czech           448 kbps        5.1 / 48 kHz / 448 kbps
Dolby Digital Audio             Polish          448 kbps        5.1 / 48 kHz / 448 kbps
Dolby Digital Audio             Polish          448 kbps        5.1 / 48 kHz / 448 kbps
Dolby Digital Audio             Slovak          448 kbps        5.1 / 48 kHz / 448 kbps
Dolby Digital Audio             Japanese        448 kbps        5.1 / 48 kHz / 448 kbps

SUBTITLES:

Codec                           Language        Bitrate         Description     
-----                           --------        -------         -----------     
Presentation Graphics           English         23.676 kbps                     
Presentation Graphics           French          13.633 kbps                     
Presentation Graphics           Italian         21.421 kbps                     
Presentation Graphics           Spanish         16.304 kbps                     
Presentation Graphics           Chinese         16.236 kbps                     
Presentation Graphics           Chinese         17.776 kbps                     
Presentation Graphics           Korean          10.865 kbps                     
Presentation Graphics           Spanish         15.276 kbps                     
Presentation Graphics           Portuguese      16.924 kbps                     
Presentation Graphics           Czech           15.576 kbps                     
Presentation Graphics           Danish          13.97 kbps                     
Presentation Graphics           Finnish         15.879 kbps                     
Presentation Graphics           Norwegian       15.288 kbps                     
Presentation Graphics           Polish          16.443 kbps                     
Presentation Graphics           Swedish         13.937 kbps                     
Presentation Graphics           Japanese        10.648 kbps                     
Presentation Graphics           Japanese        0.221 kbps                     
Presentation Graphics           French          0.199 kbps                     
Presentation Graphics           Italian         0.411 kbps                     
Presentation Graphics           Spanish         0.264 kbps                     
Presentation Graphics           Spanish         0 kbps                          
Presentation Graphics           Czech           0.345 kbps                     
Presentation Graphics           Polish          0.454 kbps                     
Presentation Graphics           Slovak          0.209 kbps                     
Presentation Graphics           Portuguese      0.205 kbps  

Video
ID : 1
Format : AVC
Format/Info : Advanced Video Codec
Format profile : [email protected]
Format settings : CABAC / 2 Ref Frames
Format settings, CABAC : Yes
Format settings, Reference frames : 2 frames
Codec ID : V_MPEG4/ISO/AVC
Duration : 4 h 2 min
Bit rate mode : Variable
Bit rate : 22.6 Mb/s
Width : 1 920 pixels
Height : 1 080 pixels
Display aspect ratio : 16:9
Frame rate mode : Constant
Frame rate : 23.976 (24000/1001) FPS
Color space : YUV
Chroma subsampling : 4:2:0
Bit depth : 8 bits
Scan type : Progressive
Bits/(Pixel*Frame) : 0.455
Stream size : 38.3 GiB (63%)
Language : English
Default : No
Forced : No

Audio #1
ID : 2
Format : MLP FBA 16-ch
Format/Info : Meridian Lossless Packing FBA with 16-channel presentation
Commercial name : Dolby TrueHD with Dolby Atmos
Codec ID : A_TRUEHD
Duration : 4 h 2 min
Bit rate mode : Variable
Bit rate : 3 157 kb/s
Maximum bit rate : 4 773 kb/s
Channel(s) : 8 channels
Channel layout : L R C LFE Ls Rs Lb Rb
Sampling rate : 48.0 kHz
Frame rate : 1 200.000 FPS (40 SPF)
Bit depth : 24 bits
Compression mode : Lossless
Stream size : 5.34 GiB (9%)
Title : TrueHD 7.1 Atmos
Language : English
Default : Yes
Forced : No
Number of dynamic objects : 11
Bed channel count : 1 channel
Bed channel configuration : LFE

Audio #2
ID : 3
Format : DTS XLL
Format/Info : Digital Theater Systems
Commercial name : DTS-HD Master Audio
Codec ID : A_DTS
Duration : 4 h 2 min
Bit rate mode : Variable
Bit rate : 3 887 kb/s
Channel(s) : 8 channels
Channel layout : C L R LFE Lb Rb Lss Rss
Sampling rate : 48.0 kHz
Frame rate : 93.750 FPS (512 SPF)
Bit depth : 24 bits
Compression mode : Lossless
Stream size : 6.58 GiB (11%)
Title : DTS-HD MA 7.1
Language : English
Default : No
Forced : No

Audio #3
ID : 4
Format : AC-3
Format/Info : Audio Coding 3
Commercial name : Dolby Digital
Format settings : Dolby Surround EX
Codec ID : A_AC3
Duration : 4 h 2 min
Bit rate mode : Constant
Bit rate : 448 kb/s
Channel(s) : 6 channels
Channel layout : L R C LFE Ls Rs
Sampling rate : 48.0 kHz
Frame rate : 31.250 FPS (1536 SPF)
Compression mode : Lossy
Stream size : 776 MiB (1%)
Title : DD 5.1
Language : English
Service kind : Complete Main
Default : No
Forced : No

Audio #4
ID : 5
Format : AC-3
Format/Info : Audio Coding 3
Commercial name : Dolby Digital
Codec ID : A_AC3
Duration : 4 h 2 min
Bit rate mode : Constant
Bit rate : 448 kb/s
Channel(s) : 6 channels
Channel layout : L R C LFE Ls Rs
Sampling rate : 48.0 kHz
Frame rate : 31.250 FPS (1536 SPF)
Compression mode : Lossy
Stream size : 776 MiB (1%)
Title : DD 5.1
Language : English
Service kind : Complete Main
Default : No
Forced : No

Audio #5
ID : 6
Format : AC-3
Format/Info : Audio Coding 3
Commercial name : Dolby Digital
Codec ID : A_AC3
Duration : 4 h 2 min
Bit rate mode : Constant
Bit rate : 448 kb/s
Channel(s) : 6 channels
Channel layout : L R C LFE Ls Rs
Sampling rate : 48.0 kHz
Frame rate : 31.250 FPS (1536 SPF)
Compression mode : Lossy
Stream size : 776 MiB (1%)
Title : DD 5.1
Language : English
Service kind : Complete Main
Default : No
Forced : No

Audio #6
ID : 7
Format : AC-3
Format/Info : Audio Coding 3
Commercial name : Dolby Digital
Codec ID : A_AC3
Duration : 4 h 2 min
Bit rate mode : Constant
Bit rate : 448 kb/s
Channel(s) : 6 channels
Channel layout : L R C LFE Ls Rs
Sampling rate : 48.0 kHz
Frame rate : 31.250 FPS (1536 SPF)
Compression mode : Lossy
Stream size : 776 MiB (1%)
Title : DD 5.1
Language : French
Service kind : Complete Main
Default : No
Forced : No

Audio #7
ID : 8
Format : AC-3
Format/Info : Audio Coding 3
Commercial name : Dolby Digital
Codec ID : A_AC3
Duration : 4 h 2 min
Bit rate mode : Constant
Bit rate : 448 kb/s
Channel(s) : 6 channels
Channel layout : L R C LFE Ls Rs
Sampling rate : 48.0 kHz
Frame rate : 31.250 FPS (1536 SPF)
Compression mode : Lossy
Stream size : 776 MiB (1%)
Title : DD 5.1
Language : Italian
Service kind : Complete Main
Default : No
Forced : No

Audio #8
ID : 9
Format : AC-3
Format/Info : Audio Coding 3
Commercial name : Dolby Digital
Codec ID : A_AC3
Duration : 4 h 2 min
Bit rate mode : Constant
Bit rate : 448 kb/s
Channel(s) : 6 channels
Channel layout : L R C LFE Ls Rs
Sampling rate : 48.0 kHz
Frame rate : 31.250 FPS (1536 SPF)
Compression mode : Lossy
Stream size : 776 MiB (1%)
Title : DD 5.1
Language : Spanish
Service kind : Complete Main
Default : No
Forced : No

Audio #9
ID : 10
Format : AC-3
Format/Info : Audio Coding 3
Commercial name : Dolby Digital
Codec ID : A_AC3
Duration : 4 h 2 min
Bit rate mode : Constant
Bit rate : 448 kb/s
Channel(s) : 6 channels
Channel layout : L R C LFE Ls Rs
Sampling rate : 48.0 kHz
Frame rate : 31.250 FPS (1536 SPF)
Compression mode : Lossy
Stream size : 776 MiB (1%)
Title : DD 5.1
Language : Spanish
Service kind : Complete Main
Default : No
Forced : No

Audio #10
ID : 11
Format : AC-3
Format/Info : Audio Coding 3
Commercial name : Dolby Digital
Codec ID : A_AC3
Duration : 4 h 2 min
Bit rate mode : Constant
Bit rate : 448 kb/s
Channel(s) : 6 channels
Channel layout : L R C LFE Ls Rs
Sampling rate : 48.0 kHz
Frame rate : 31.250 FPS (1536 SPF)
Compression mode : Lossy
Stream size : 776 MiB (1%)
Title : DD 5.1
Language : Portuguese
Service kind : Complete Main
Default : No
Forced : No

Audio #11
ID : 12
Format : AC-3
Format/Info : Audio Coding 3
Commercial name : Dolby Digital
Codec ID : A_AC3
Duration : 4 h 2 min
Bit rate mode : Constant
Bit rate : 448 kb/s
Channel(s) : 6 channels
Channel layout : L R C LFE Ls Rs
Sampling rate : 48.0 kHz
Frame rate : 31.250 FPS (1536 SPF)
Compression mode : Lossy
Stream size : 776 MiB (1%)
Title : DD 5.1
Language : Czech
Service kind : Complete Main
Default : No
Forced : No

Audio #12
ID : 13
Format : AC-3
Format/Info : Audio Coding 3
Commercial name : Dolby Digital
Codec ID : A_AC3
Duration : 4 h 2 min
Bit rate mode : Constant
Bit rate : 448 kb/s
Channel(s) : 6 channels
Channel layout : L R C LFE Ls Rs
Sampling rate : 48.0 kHz
Frame rate : 31.250 FPS (1536 SPF)
Compression mode : Lossy
Stream size : 776 MiB (1%)
Title : DD 5.1
Language : Polish
Service kind : Complete Main
Default : No
Forced : No

Audio #13
ID : 14
Format : AC-3
Format/Info : Audio Coding 3
Commercial name : Dolby Digital
Codec ID : A_AC3
Duration : 4 h 2 min
Bit rate mode : Constant
Bit rate : 448 kb/s
Channel(s) : 6 channels
Channel layout : L R C LFE Ls Rs
Sampling rate : 48.0 kHz
Frame rate : 31.250 FPS (1536 SPF)
Compression mode : Lossy
Stream size : 776 MiB (1%)
Title : DD 5.1
Language : Polish
Service kind : Complete Main
Default : No
Forced : No

Audio #14
ID : 15
Format : AC-3
Format/Info : Audio Coding 3
Commercial name : Dolby Digital
Codec ID : A_AC3
Duration : 4 h 2 min
Bit rate mode : Constant
Bit rate : 448 kb/s
Channel(s) : 6 channels
Channel layout : L R C LFE Ls Rs
Sampling rate : 48.0 kHz
Frame rate : 31.250 FPS (1536 SPF)
Compression mode : Lossy
Stream size : 776 MiB (1%)
Title : DD 5.1
Language : Slovak
Service kind : Complete Main
Default : No
Forced : No

Audio #15
ID : 16
Format : AC-3
Format/Info : Audio Coding 3
Commercial name : Dolby Digital
Codec ID : A_AC3
Duration : 4 h 2 min
Bit rate mode : Constant
Bit rate : 448 kb/s
Channel(s) : 6 channels
Channel layout : L R C LFE Ls Rs
Sampling rate : 48.0 kHz
Frame rate : 31.250 FPS (1536 SPF)
Compression mode : Lossy
Stream size : 776 MiB (1%)
Title : DD 5.1
Language : Japanese
Service kind : Complete Main
Default : No
Forced : No

Text #1
ID : 17
Format : UTF-8
Codec ID : S_TEXT/UTF8
Codec ID/Info : UTF-8 Plain Text
Duration : 3 h 55 min
Bit rate : 31 b/s
Count of elements : 2047
Stream size : 54.3 KiB (0%)
Title : English-SRT
Language : English
Default : Yes
Forced : No

Text #2
ID : 18
Format : PGS
Muxing mode : zlib
Codec ID : S_HDMV/PGS
Codec ID/Info : Picture based subtitle format used on BDs/HD-DVDs
Duration : 4 h 0 min
Bit rate : 25.8 kb/s
Count of elements : 5558
Stream size : 44.3 MiB (0%)
Language : English
Default : No
Forced : No

Text #3
ID : 19
Format : PGS
Muxing mode : zlib
Codec ID : S_HDMV/PGS
Codec ID/Info : Picture based subtitle format used on BDs/HD-DVDs
Duration : 3 h 55 min
Bit rate : 16.3 kb/s
Count of elements : 3540
Stream size : 27.5 MiB (0%)
Language : French
Default : No
Forced : No

Text #4
ID : 20
Format : PGS
Muxing mode : zlib
Codec ID : S_HDMV/PGS
Codec ID/Info : Picture based subtitle format used on BDs/HD-DVDs
Duration : 3 h 52 min
Bit rate : 24.9 kb/s
Count of elements : 5282
Stream size : 41.5 MiB (0%)
Language : Italian
Default : No
Forced : No

Text #5
ID : 21
Format : PGS
Muxing mode : zlib
Codec ID : S_HDMV/PGS
Codec ID/Info : Picture based subtitle format used on BDs/HD-DVDs
Duration : 3 h 59 min
Bit rate : 18.8 kb/s
Count of elements : 3784
Stream size : 32.2 MiB (0%)
Language : Spanish
Default : No
Forced : No

Text #6
ID : 22
Format : PGS
Muxing mode : zlib
Codec ID : S_HDMV/PGS
Codec ID/Info : Picture based subtitle format used on BDs/HD-DVDs
Duration : 3 h 51 min
Bit rate : 19.2 kb/s
Count of elements : 3804
Stream size : 31.7 MiB (0%)
Language : Chinese
Default : No
Forced : No

Text #7
ID : 23
Format : PGS
Muxing mode : zlib
Codec ID : S_HDMV/PGS
Codec ID/Info : Picture based subtitle format used on BDs/HD-DVDs
Duration : 3 h 59 min
Bit rate : 20.1 kb/s
Count of elements : 3822
Stream size : 34.4 MiB (0%)
Language : Chinese
Default : No
Forced : No

Text #8
ID : 24
Format : PGS
Muxing mode : zlib
Codec ID : S_HDMV/PGS
Codec ID/Info : Picture based subtitle format used on BDs/HD-DVDs
Duration : 3 h 51 min
Bit rate : 12.9 kb/s
Count of elements : 3790
Stream size : 21.2 MiB (0%)
Language : Korean
Default : No
Forced : No

Text #9
ID : 25
Format : PGS
Muxing mode : zlib
Codec ID : S_HDMV/PGS
Codec ID/Info : Picture based subtitle format used on BDs/HD-DVDs
Duration : 3 h 59 min
Bit rate : 17.8 kb/s
Count of elements : 2980
Stream size : 30.4 MiB (0%)
Language : Spanish
Default : No
Forced : No

Text #10
ID : 26
Format : PGS
Muxing mode : zlib
Codec ID : S_HDMV/PGS
Codec ID/Info : Picture based subtitle format used on BDs/HD-DVDs
Duration : 3 h 59 min
Bit rate : 19.6 kb/s
Count of elements : 3784
Stream size : 33.5 MiB (0%)
Language : Portuguese
Default : No
Forced : No

Text #11
ID : 27
Format : PGS
Muxing mode : zlib
Codec ID : S_HDMV/PGS
Codec ID/Info : Picture based subtitle format used on BDs/HD-DVDs
Duration : 3 h 59 min
Bit rate : 17.7 kb/s
Count of elements : 3762
Stream size : 30.3 MiB (0%)
Language : Czech
Default : No
Forced : No

Text #12
ID : 28
Format : PGS
Muxing mode : zlib
Codec ID : S_HDMV/PGS
Codec ID/Info : Picture based subtitle format used on BDs/HD-DVDs
Duration : 3 h 55 min
Bit rate : 16.8 kb/s
Count of elements : 2552
Stream size : 28.3 MiB (0%)
Language : Danish
Default : No
Forced : No

Text #13
ID : 29
Format : PGS
Muxing mode : zlib
Codec ID : S_HDMV/PGS
Codec ID/Info : Picture based subtitle format used on BDs/HD-DVDs
Duration : 3 h 55 min
Bit rate : 18.3 kb/s
Count of elements : 3760
Stream size : 30.8 MiB (0%)
Language : Finnish
Default : No
Forced : No

Text #14
ID : 30
Format : PGS
Muxing mode : zlib
Codec ID : S_HDMV/PGS
Codec ID/Info : Picture based subtitle format used on BDs/HD-DVDs
Duration : 3 h 55 min
Bit rate : 18.1 kb/s
Count of elements : 3044
Stream size : 30.4 MiB (0%)
Language : Norwegian
Default : No
Forced : No

Text #15
ID : 31
Format : PGS
Muxing mode : zlib
Codec ID : S_HDMV/PGS
Codec ID/Info : Picture based subtitle format used on BDs/HD-DVDs
Duration : 3 h 59 min
Bit rate : 18.8 kb/s
Count of elements : 3744
Stream size : 32.2 MiB (0%)
Language : Polish
Default : No
Forced : No

Text #16
ID : 32
Format : PGS
Muxing mode : zlib
Codec ID : S_HDMV/PGS
Codec ID/Info : Picture based subtitle format used on BDs/HD-DVDs
Duration : 3 h 55 min
Bit rate : 16.5 kb/s
Count of elements : 3622
Stream size : 27.8 MiB (0%)
Language : Swedish
Default : No
Forced : No

Text #17
ID : 33
Format : PGS
Muxing mode : zlib
Codec ID : S_HDMV/PGS
Codec ID/Info : Picture based subtitle format used on BDs/HD-DVDs
Duration : 3 h 47 min
Bit rate : 13.2 kb/s
Count of elements : 3433
Stream size : 21.4 MiB (0%)
Language : Japanese
Default : No
Forced : No

Text #18
ID : 34
Format : PGS
Muxing mode : zlib
Codec ID : S_HDMV/PGS
Codec ID/Info : Picture based subtitle format used on BDs/HD-DVDs
Duration : 3 h 44 min
Bit rate : 277 b/s
Count of elements : 75
Stream size : 456 KiB (0%)
Title : FORCED
Language : Japanese
Default : No
Forced : No

Text #19
ID : 35
Format : PGS
Muxing mode : zlib
Codec ID : S_HDMV/PGS
Codec ID/Info : Picture based subtitle format used on BDs/HD-DVDs
Duration : 3 h 44 min
Bit rate : 261 b/s
Count of elements : 40
Stream size : 430 KiB (0%)
Title : FORCED
Language : French
Default : No
Forced : No

Text #20
ID : 36
Format : PGS
Muxing mode : zlib
Codec ID : S_HDMV/PGS
Codec ID/Info : Picture based subtitle format used on BDs/HD-DVDs
Duration : 3 h 44 min
Bit rate : 478 b/s
Count of elements : 70
Stream size : 788 KiB (0%)
Title : FORCED
Language : Italian
Default : No
Forced : No

Text #21
ID : 37
Format : PGS
Muxing mode : zlib
Codec ID : S_HDMV/PGS
Codec ID/Info : Picture based subtitle format used on BDs/HD-DVDs
Duration : 3 h 44 min
Bit rate : 344 b/s
Count of elements : 54
Stream size : 566 KiB (0%)
Title : FORCED
Language : Spanish
Default : No
Forced : No

Text #22
ID : 38
Format : PGS
Muxing mode : zlib
Codec ID : S_HDMV/PGS
Codec ID/Info : Picture based subtitle format used on BDs/HD-DVDs
Duration : 2 h 12 min
Bit rate : 92 b/s
Count of elements : 12
Stream size : 89.9 KiB (0%)
Title : FORCED
Language : Spanish
Default : No
Forced : No

Text #23
ID : 39
Format : PGS
Muxing mode : zlib
Codec ID : S_HDMV/PGS
Codec ID/Info : Picture based subtitle format used on BDs/HD-DVDs
Duration : 3 h 44 min
Bit rate : 411 b/s
Count of elements : 64
Stream size : 676 KiB (0%)
Title : FORCED
Language : Czech
Default : No
Forced : No

Text #24
ID : 40
Format : PGS
Muxing mode : zlib
Codec ID : S_HDMV/PGS
Codec ID/Info : Picture based subtitle format used on BDs/HD-DVDs
Duration : 3 h 44 min
Bit rate : 496 b/s
Count of elements : 78
Stream size : 817 KiB (0%)
Title : FORCED
Language : Polish
Default : No
Forced : No

Text #25
ID : 41
Format : PGS
Muxing mode : zlib
Codec ID : S_HDMV/PGS
Codec ID/Info : Picture based subtitle format used on BDs/HD-DVDs
Duration : 3 h 44 min
Bit rate : 262 b/s
Count of elements : 46
Stream size : 432 KiB (0%)
Title : FORCED
Language : Slovak
Default : No
Forced : No

Text #26
ID : 42
Format : PGS
Muxing mode : zlib
Codec ID : S_HDMV/PGS
Codec ID/Info : Picture based subtitle format used on BDs/HD-DVDs
Duration : 3 h 32 min
Bit rate : 194 b/s
Count of elements : 34
Stream size : 303 KiB (0%)
Title : FORCED
Language : Portuguese
Default : No
Forced : No

Menu
00:00:00.000 : Chapter 01
00:08:54.909 : Chapter 02
00:19:56.737 : Chapter 03
00:36:54.503 : Chapter 04
00:41:32.031 : Chapter 05
00:50:18.640 : Chapter 06
00:58:42.435 : Chapter 07
01:08:35.569 : Chapter 08
01:20:27.823 : Chapter 09
01:30:05.024 : Chapter 10
01:40:28.313 : Chapter 11
01:51:24.010 : Chapter 12
01:59:06.931 : Chapter 13
02:07:56.293 : Chapter 14
02:21:58.528 : Chapter 01
02:29:49.915 : Chapter 02
02:37:27.289 : Chapter 03
02:48:36.374 : Chapter 04
02:53:19.532 : Chapter 05
03:09:54.109 : Chapter 06
03:21:28.844 : Chapter 07
03:34:12.858 : Chapter 08
03:40:10.048 : Chapter 09
03:50:47.476 : Chapter 10

本帖子中包含更多资源

您需要 登录 才可以下载或查看,没有帐号?立即注册

x
回复

使用道具 举报

0

主题

753

帖子

3730

积分

论坛元老

Rank: 8Rank: 8

积分
3730
发表于 2021-5-19 10:54:51 | 显示全部楼层

谢楼主分享
回复

使用道具 举报

0

主题

2

帖子

14

积分

新手上路

Rank: 1

积分
14
发表于 2021-5-19 11:24:14 | 显示全部楼层
谢谢楼主分享!
回复

使用道具 举报

0

主题

33

帖子

53

积分

注册会员

Rank: 2

积分
53
发表于 2021-5-19 11:28:41 | 显示全部楼层
感谢分享
回复

使用道具 举报

0

主题

62

帖子

385

积分

VIP月

Rank: 9Rank: 9Rank: 9

积分
385
发表于 2021-5-19 15:23:18 | 显示全部楼层


谢楼主分享
回复

使用道具 举报

0

主题

835

帖子

3239

积分

论坛元老

Rank: 8Rank: 8

积分
3239
发表于 2021-5-19 16:59:23 | 显示全部楼层
谢谢楼主的分享
回复

使用道具 举报

0

主题

175

帖子

1245

积分

金牌会员

Rank: 6Rank: 6

积分
1245
发表于 2021-5-19 22:09:41 | 显示全部楼层
谢谢楼主的分享
回复

使用道具 举报

0

主题

438

帖子

3442

积分

论坛元老

Rank: 8Rank: 8

积分
3442
发表于 2021-5-20 14:31:04 | 显示全部楼层
楼主太给力了,果断下载欣赏
回复

使用道具 举报

0

主题

1178

帖子

8764

积分

VIP永久

Rank: 12Rank: 12Rank: 12

积分
8764
QQ
发表于 2021-5-22 14:16:34 | 显示全部楼层
感谢楼主分享!!!
回复

使用道具 举报

0

主题

62

帖子

385

积分

VIP月

Rank: 9Rank: 9Rank: 9

积分
385
发表于 2021-5-25 06:55:37 | 显示全部楼层

感谢楼主分享!!!
回复

使用道具 举报

您需要登录后才可以回帖 登录 | 立即注册

本版积分规则

QQ|Archiver|手机版|小黑屋|原盘天堂 好多盘 点击这里给我发消息

GMT+8, 2021-6-13 09:58 , Processed in 0.063143 second(s), 26 queries .

Powered by Discuz! X3.4

Copyright © 2001-2020, Tencent Cloud.

快速回复 返回顶部 返回列表