请选择 进入手机版 | 继续访问电脑版
本站Q群713428235【盘盘多】已满,请新会员加原盘天堂新官方QQ群709708625【好多盘】,验证信息填写您在论坛的会员名,不填会员名的无法入群哈,进群后修改您的群名片名字为您在论坛的会员名,请务必修改,否则群成员多了不知道您是哪个会员。

原盘天堂

 找回密码
 立即注册
京东商城当当华为商城名牌时尚折扣网,一个新型的网上购物平台,我们每周为您精选3~4个国际知名品牌,商品折扣低至2折限时限量售卖,商品囊括时装、护肤品、箱包、皮具、配饰、香水等等,琳琅满目。亿格瑞A10硬盘播放器 苏宁易购
查看: 165|回复: 10

4k蓝光原盘bdmv 动物屋 中字 animal.house.1978.2160p.bluray.hevc.dts-x.7.1[90.85 GB]

[复制链接]

6023

主题

6690

帖子

133万

积分

管理员

Rank: 18Rank: 18Rank: 18Rank: 18Rank: 18

积分
1332455
发表于 2021-5-17 23:25:29 | 显示全部楼层 |阅读模式








动物屋 Animal House (1978)

◎译  名 动物屋/National Lampoon's Animal House
◎片  名 Animal House
◎年  代 1978
◎产  地 美国
◎类  别 喜剧/爱情
◎语  言 英语/意大利语
◎上映日期 1978-07-28
◎IMDb链接  https://www.imdb.com/title/tt0077975/
◎豆瓣评分 6.7/10 from 615 users
◎豆瓣链接 https://douban.com/subject/1296269/
◎片  长 109 分钟
◎导  演 约翰·兰迪斯 John Landis
◎编  剧 哈罗德·雷米斯 Harold Ramis / 道格拉斯·肯尼 Douglas Kenney / Chris Miller
◎主  演 汤姆·休斯克 Tom Hulce
       斯蒂芬·福斯特 Stephen Furst
       马克·梅特卡夫 Mark Metcalf
       玛丽·路易丝·韦勒 Mary Louise Weller
       玛莎·史密斯 Martha Smith
       詹姆斯·多顿 James Daughton
       Robert Elliott
       Otis Day
       朱迪丝·贝鲁西-皮萨诺 Judith Belushi-Pisano
       唐纳德·萨瑟兰 Donald Sutherland
       约翰·兰迪斯 John Landis
       桑妮·约翰逊 Sunny Johnson
       凯文·贝肯 Kevin Bacon
       Chris Miller
       约翰·贝鲁西 John Belushi
       Robert Cray
       史蒂芬·比肖普 Stephen Bishop
       弗娜·布鲁姆 Verna Bloom
       凯伦·阿兰 Karen Allen
       约翰·沃侬 John Vernon
       西萨尔·达诺瓦 Cesare Danova
       道格拉斯·肯尼 Douglas Kenney
       提姆·麦锡森 Tim Matheson
       詹姆斯·维度斯 James Widdoes
       布鲁斯·麦克吉尔 Bruce McGill
       彼得·里格特 Peter Riegert

◎标  签 喜剧 | 美国 | 校园 | 美国电影 | 1978 | 青春 | 1970s | CULT

◎简  介

  
  菲博学园中有一个学生组织,参与的全是白种英语系的有钱人,很少人能忍受他们,只有汀沃摩能和伪善的他们相处,沃摩用什么使他们信服?
  
  作为一部很成功的喜剧,影片的可贵之处在于在疯狂与真实之间把握平衡,不让笑料过度而又使情节有所启迪。
  
DISC INFO:

Disc Title:     Animal.House.1978.2160p.BluRay.HEVC.DTS-X.7.1-EATDIK
Disc Size:      97,276,006,700 bytes
Protection:     AACS2
Extras:         Ultra HD, BD-Java
BDInfo:         0.7.5.9 (compatible layout created by DVDFab 12.0.2.9)

PLAYLIST REPORT:

Name:                   00800.MPLS  
Length:                 1:48:40.347 (h:m:s.ms)
Size:                   79,772,977,152 bytes
Total Bitrate:          97.88 Mbps

VIDEO:

Codec                   Bitrate             Description     
-----                   -------             -----------     
MPEG-H HEVC Video       85183 kbps          2160p / 23.976 fps / 16:9 / Main 10 @ Level 5.1 @ High / 4:2:0 / 10 bits / 1000nits / HDR10 / BT.2020

AUDIO:

Codec                           Language        Bitrate         Description     
-----                           --------        -------         -----------     
DTS:X Master Audio              English         5531 kbps       7.1-X / 48 kHz / 5531 kbps / 24-bit (DTS Core: 5.1 / 48 kHz / 1509 kbps / 24-bit)
DTS Audio                       French          448 kbps        2.0 / 48 kHz / 448 kbps / 24-bit
DTS Audio                       Spanish         448 kbps        2.0 / 48 kHz / 448 kbps / 24-bit
DTS Audio                       Japanese        768 kbps        5.1 / 48 kHz / 768 kbps / 24-bit
DTS Audio                       Italian         448 kbps        2.0 / 48 kHz / 448 kbps / 24-bit

SUBTITLES:

Codec                           Language        Bitrate         Description     
-----                           --------        -------         -----------     
Presentation Graphics           English         31.543 kbps                     
Presentation Graphics           French          25.12 kbps                     
Presentation Graphics           French          26.745 kbps                     
Presentation Graphics           Spanish         29.4 kbps                       
Presentation Graphics           Japanese        16.806 kbps                     
Presentation Graphics           Italian         26.19 kbps                     
Presentation Graphics           Danish          25.038 kbps                     
Presentation Graphics           Finnish         24.557 kbps                     
Presentation Graphics           Norwegian       26.065 kbps                     
Presentation Graphics           Swedish         22.456 kbps                     
Presentation Graphics           Chinese         23.157 kbps                     
Presentation Graphics           French          0.963 kbps                     
Presentation Graphics           Spanish         1.003 kbps                     
Presentation Graphics           Japanese        1.047 kbps                     
Presentation Graphics           Italian         0.924 kbps

Video
ID : 1
ID in the original source medium : 4113 (0x1011)
Format : HEVC
Format/Info : High Efficiency Video Coding
Format profile : Main [email protected]@High
HDR format : SMPTE ST 2086, HDR10 compatible
Codec ID : V_MPEGH/ISO/HEVC
Duration : 1 h 48 min
Bit rate : 85.2 Mb/s
Width : 3 840 pixels
Height : 2 160 pixels
Display aspect ratio : 16:9
Frame rate mode : Constant
Frame rate : 23.976 (24000/1001) FPS
Color space : YUV
Chroma subsampling : 4:2:0 (Type 2)
Bit depth : 10 bits
Bits/(Pixel*Frame) : 0.428
Stream size : 64.7 GiB (91%)
Writing library : ATEME Titan File 3.9.6 (4.9.6.2)
Language : English
Default : No
Forced : No
Color range : Limited
Color primaries : BT.2020
Transfer characteristics : PQ
Matrix coefficients : BT.2020 non-constant
Mastering display color primaries : Display P3
Mastering display luminance : min: 0.0050 cd/m2, max: 1000 cd/m2
Maximum Content Light Level : 962 cd/m2
Maximum Frame-Average Light Level : 81 cd/m2
Original source medium : Blu-ray

Audio #1
ID : 2
ID in the original source medium : 4352 (0x1100)
Format : DTS XLL X
Format/Info : Digital Theater Systems
Commercial name : DTS-HD Master Audio
Codec ID : A_DTS
Duration : 1 h 48 min
Bit rate mode : Variable
Bit rate : 5 531 kb/s
Channel(s) : 8 channels
Channel(s)_Original : Object Based
ChannelLayout_Original : Object Based
Sampling rate : 48.0 kHz
Frame rate : 93.750 FPS (512 SPF)
Bit depth : 24 bits
Stream size : 4.20 GiB (6%)
Title : DTS-X 7.1
Language : English
Default : Yes
Forced : No
Original source medium : Blu-ray

Audio #2
ID : 3
Format : AC-3
Format/Info : Audio Coding 3
Commercial name : Dolby Digital
Codec ID : A_AC3
Duration : 1 h 48 min
Bit rate mode : Constant
Bit rate : 640 kb/s
Channel(s) : 6 channels
Channel layout : L R C LFE Ls Rs
Sampling rate : 48.0 kHz
Frame rate : 31.250 FPS (1536 SPF)
Compression mode : Lossy
Stream size : 497 MiB (1%)
Title : DD 5.1
Language : English
Service kind : Complete Main
Default : No
Forced : No

Audio #3
ID : 4
ID in the original source medium : 4353 (0x1101)
Format : DTS
Format/Info : Digital Theater Systems
Codec ID : A_DTS
Duration : 1 h 48 min
Bit rate mode : Constant
Bit rate : 447 kb/s
Channel(s) : 2 channels
Channel layout : L R
Sampling rate : 48.0 kHz
Frame rate : 93.750 FPS (512 SPF)
Bit depth : 24 bits
Compression mode : Lossy
Stream size : 347 MiB (0%)
Title : DTS 2.0
Language : French
Default : No
Forced : No
Original source medium : Blu-ray

Audio #4
ID : 5
ID in the original source medium : 4354 (0x1102)
Format : DTS
Format/Info : Digital Theater Systems
Codec ID : A_DTS
Duration : 1 h 48 min
Bit rate mode : Constant
Bit rate : 447 kb/s
Channel(s) : 2 channels
Channel layout : L R
Sampling rate : 48.0 kHz
Frame rate : 93.750 FPS (512 SPF)
Bit depth : 24 bits
Compression mode : Lossy
Stream size : 347 MiB (0%)
Title : DTS 2.0
Language : Spanish
Default : No
Forced : No
Original source medium : Blu-ray

Audio #5
ID : 6
ID in the original source medium : 4355 (0x1103)
Format : DTS
Format/Info : Digital Theater Systems
Codec ID : A_DTS
Duration : 1 h 48 min
Bit rate mode : Constant
Bit rate : 768 kb/s
Channel(s) : 6 channels
Channel layout : C L R Ls Rs LFE
Sampling rate : 48.0 kHz
Frame rate : 93.750 FPS (512 SPF)
Bit depth : 24 bits
Compression mode : Lossy
Stream size : 597 MiB (1%)
Title : DTS 5.1
Language : Japanese
Default : No
Forced : No
Original source medium : Blu-ray

Audio #6
ID : 7
ID in the original source medium : 4356 (0x1104)
Format : DTS
Format/Info : Digital Theater Systems
Codec ID : A_DTS
Duration : 1 h 48 min
Bit rate mode : Constant
Bit rate : 447 kb/s
Channel(s) : 2 channels
Channel layout : L R
Sampling rate : 48.0 kHz
Frame rate : 93.750 FPS (512 SPF)
Bit depth : 24 bits
Compression mode : Lossy
Stream size : 347 MiB (0%)
Title : DTS 2.0
Language : Italian
Default : No
Forced : No
Original source medium : Blu-ray

Text #1
ID : 8
Format : UTF-8
Codec ID : S_TEXT/UTF8
Codec ID/Info : UTF-8 Plain Text
Duration : 1 h 41 min
Bit rate : 47 b/s
Count of elements : 1078
Stream size : 35.6 KiB (0%)
Title : English-SRT
Language : English
Default : Yes
Forced : No

Text #2
ID : 9
ID in the original source medium : 4768 (0x12A0)
Format : PGS
Muxing mode : zlib
Codec ID : S_HDMV/PGS
Codec ID/Info : Picture based subtitle format used on BDs/HD-DVDs
Duration : 1 h 43 min
Bit rate : 33.2 kb/s
Count of elements : 2386
Stream size : 24.5 MiB (0%)
Title : English-PGS
Language : English
Default : No
Forced : No
Original source medium : Blu-ray

Text #3
ID : 10
ID in the original source medium : 4769 (0x12A1)
Format : PGS
Muxing mode : zlib
Codec ID : S_HDMV/PGS
Codec ID/Info : Picture based subtitle format used on BDs/HD-DVDs
Duration : 1 h 48 min
Bit rate : 25.2 kb/s
Count of elements : 2042
Stream size : 19.5 MiB (0%)
Title : French-PGS
Language : French
Default : No
Forced : No
Original source medium : Blu-ray

Text #4
ID : 11
ID in the original source medium : 4770 (0x12A2)
Format : PGS
Muxing mode : zlib
Codec ID : S_HDMV/PGS
Codec ID/Info : Picture based subtitle format used on BDs/HD-DVDs
Duration : 1 h 46 min
Bit rate : 27.2 kb/s
Count of elements : 2038
Stream size : 20.8 MiB (0%)
Title : French-PGS
Language : French
Default : No
Forced : No
Original source medium : Blu-ray

Text #5
ID : 12
ID in the original source medium : 4771 (0x12A3)
Format : PGS
Muxing mode : zlib
Codec ID : S_HDMV/PGS
Codec ID/Info : Picture based subtitle format used on BDs/HD-DVDs
Duration : 1 h 48 min
Bit rate : 29.5 kb/s
Count of elements : 2042
Stream size : 22.9 MiB (0%)
Title : Spanish-PGS
Language : Spanish
Default : No
Forced : No
Original source medium : Blu-ray

Text #6
ID : 13
ID in the original source medium : 4772 (0x12A4)
Format : PGS
Muxing mode : zlib
Codec ID : S_HDMV/PGS
Codec ID/Info : Picture based subtitle format used on BDs/HD-DVDs
Duration : 1 h 48 min
Bit rate : 16.9 kb/s
Count of elements : 1804
Stream size : 13.1 MiB (0%)
Title : Japanese-PGS
Language : Japanese
Default : No
Forced : No
Original source medium : Blu-ray

Text #7
ID : 14
ID in the original source medium : 4773 (0x12A5)
Format : PGS
Muxing mode : zlib
Codec ID : S_HDMV/PGS
Codec ID/Info : Picture based subtitle format used on BDs/HD-DVDs
Duration : 1 h 46 min
Bit rate : 26.7 kb/s
Count of elements : 2048
Stream size : 20.4 MiB (0%)
Title : Italian-PGS
Language : Italian
Default : No
Forced : No
Original source medium : Blu-ray

Text #8
ID : 15
ID in the original source medium : 4774 (0x12A6)
Format : PGS
Muxing mode : zlib
Codec ID : S_HDMV/PGS
Codec ID/Info : Picture based subtitle format used on BDs/HD-DVDs
Duration : 1 h 48 min
Bit rate : 25.1 kb/s
Count of elements : 2038
Stream size : 19.5 MiB (0%)
Title : Danish-PGS
Language : Danish
Default : No
Forced : No
Original source medium : Blu-ray

Text #9
ID : 16
ID in the original source medium : 4775 (0x12A7)
Format : PGS
Muxing mode : zlib
Codec ID : S_HDMV/PGS
Codec ID/Info : Picture based subtitle format used on BDs/HD-DVDs
Duration : 1 h 46 min
Bit rate : 25.0 kb/s
Count of elements : 1968
Stream size : 19.1 MiB (0%)
Title : Finnish-PGS
Language : Finnish
Default : No
Forced : No
Original source medium : Blu-ray

Text #10
ID : 17
ID in the original source medium : 4776 (0x12A8)
Format : PGS
Muxing mode : zlib
Codec ID : S_HDMV/PGS
Codec ID/Info : Picture based subtitle format used on BDs/HD-DVDs
Duration : 1 h 46 min
Bit rate : 26.5 kb/s
Count of elements : 2036
Stream size : 20.3 MiB (0%)
Title : Norwegian-PGS
Language : Norwegian
Default : No
Forced : No
Original source medium : Blu-ray

Text #11
ID : 18
ID in the original source medium : 4777 (0x12A9)
Format : PGS
Muxing mode : zlib
Codec ID : S_HDMV/PGS
Codec ID/Info : Picture based subtitle format used on BDs/HD-DVDs
Duration : 1 h 46 min
Bit rate : 22.9 kb/s
Count of elements : 2038
Stream size : 17.5 MiB (0%)
Title : Swedish-PGS
Language : Swedish
Default : No
Forced : No
Original source medium : Blu-ray

Text #12
ID : 19
ID in the original source medium : 4778 (0x12AA)
Format : PGS
Muxing mode : zlib
Codec ID : S_HDMV/PGS
Codec ID/Info : Picture based subtitle format used on BDs/HD-DVDs
Duration : 1 h 48 min
Bit rate : 23.2 kb/s
Count of elements : 2214
Stream size : 18.0 MiB (0%)
Title : Chinese-PGS
Language : Chinese
Default : No
Forced : No
Original source medium : Blu-ray

Text #13
ID : 20
ID in the original source medium : 4779 (0x12AB)
Format : PGS
Muxing mode : zlib
Codec ID : S_HDMV/PGS
Codec ID/Info : Picture based subtitle format used on BDs/HD-DVDs
Duration : 1 h 48 min
Bit rate : 966 b/s
Count of elements : 52
Stream size : 766 KiB (0%)
Title : French-FORCED-PGS
Language : French
Default : No
Forced : No
Original source medium : Blu-ray

Text #14
ID : 21
ID in the original source medium : 4780 (0x12AC)
Format : PGS
Muxing mode : zlib
Codec ID : S_HDMV/PGS
Codec ID/Info : Picture based subtitle format used on BDs/HD-DVDs
Duration : 1 h 48 min
Bit rate : 1 005 b/s
Count of elements : 54
Stream size : 798 KiB (0%)
Title : Spanish-FORCED-PGS
Language : Spanish
Default : No
Forced : No
Original source medium : Blu-ray

Text #15
ID : 22
ID in the original source medium : 4781 (0x12AD)
Format : PGS
Muxing mode : zlib
Codec ID : S_HDMV/PGS
Codec ID/Info : Picture based subtitle format used on BDs/HD-DVDs
Duration : 1 h 48 min
Bit rate : 1 050 b/s
Count of elements : 78
Stream size : 834 KiB (0%)
Title : Japanese-FORCED-PGS
Language : Japanese
Default : No
Forced : No
Original source medium : Blu-ray

Text #16
ID : 23
ID in the original source medium : 4782 (0x12AE)
Format : PGS
Muxing mode : zlib
Codec ID : S_HDMV/PGS
Codec ID/Info : Picture based subtitle format used on BDs/HD-DVDs
Duration : 1 h 46 min
Bit rate : 940 b/s
Count of elements : 54
Stream size : 735 KiB (0%)
Title : Italian-FORCED-PGS
Language : Italian
Default : No
Forced : No
Original source medium : Blu-ray

Menu
00:00:00.000 : Chapter 01
00:02:35.905 : Chapter 02
00:05:15.648 : Chapter 03
00:11:50.418 : Chapter 04
00:13:38.442 : Chapter 05
00:17:18.912 : Chapter 06
00:19:16.864 : Chapter 07
00:22:22.132 : Chapter 08
00:25:55.762 : Chapter 09
00:28:05.183 : Chapter 10
00:30:52.016 : Chapter 11
00:31:53.786 : Chapter 12
00:34:42.246 : Chapter 13
00:37:11.687 : Chapter 14
00:40:07.780 : Chapter 15
00:43:43.203 : Chapter 16
00:48:26.528 : Chapter 17
00:51:05.520 : Chapter 18
00:54:31.810 : Chapter 19
00:57:34.742 : Chapter 20
01:00:04.058 : Chapter 21
01:06:09.882 : Chapter 22
01:07:51.484 : Chapter 23
01:09:01.303 : Chapter 24
01:12:07.906 : Chapter 25
01:18:15.816 : Chapter 26
01:19:37.355 : Chapter 27
01:21:46.526 : Chapter 28
01:26:38.234 : Chapter 29
01:29:11.512 : Chapter 30
01:32:38.761 : Chapter 31
01:36:03.257 : Chapter 32
01:39:36.637 : Chapter 33
01:41:21.742 : Chapter 34
01:45:23.358 : Chapter 35
01:48:22.954 : Chapter 36

本帖子中包含更多资源

您需要 登录 才可以下载或查看,没有帐号?立即注册

x
回复

使用道具 举报

0

主题

753

帖子

3730

积分

论坛元老

Rank: 8Rank: 8

积分
3730
发表于 2021-5-18 09:33:16 | 显示全部楼层
谢楼主分享
回复

使用道具 举报

0

主题

835

帖子

3239

积分

论坛元老

Rank: 8Rank: 8

积分
3239
发表于 2021-5-18 13:56:59 | 显示全部楼层
感谢楼主分享
回复

使用道具 举报

0

主题

33

帖子

53

积分

注册会员

Rank: 2

积分
53
发表于 2021-5-19 11:27:40 | 显示全部楼层
感谢分享
回复

使用道具 举报

0

主题

32

帖子

52

积分

注册会员

Rank: 2

积分
52
发表于 2021-5-24 00:32:45 | 显示全部楼层
感谢楼主分享!!!
回复

使用道具 举报

0

主题

753

帖子

3730

积分

论坛元老

Rank: 8Rank: 8

积分
3730
发表于 2021-5-26 09:59:16 | 显示全部楼层
感谢楼主分享.
回复

使用道具 举报

0

主题

165

帖子

597

积分

高级会员

Rank: 4

积分
597
发表于 2021-5-27 09:06:17 | 显示全部楼层
感谢楼主分享
回复

使用道具 举报

0

主题

753

帖子

3730

积分

论坛元老

Rank: 8Rank: 8

积分
3730
发表于 2021-5-31 09:34:19 | 显示全部楼层
感谢楼主分享影片
回复

使用道具 举报

0

主题

7

帖子

63

积分

注册会员

Rank: 2

积分
63
发表于 2021-5-31 15:48:04 | 显示全部楼层
谢谢分享!
回复

使用道具 举报

0

主题

1284

帖子

2171

积分

金牌会员

Rank: 6Rank: 6

积分
2171
发表于 2021-6-1 23:48:03 | 显示全部楼层
感谢楼主分享
回复

使用道具 举报

您需要登录后才可以回帖 登录 | 立即注册

本版积分规则

QQ|Archiver|手机版|小黑屋|原盘天堂 好多盘 点击这里给我发消息

GMT+8, 2021-6-13 10:54 , Processed in 0.059899 second(s), 24 queries .

Powered by Discuz! X3.4

Copyright © 2001-2020, Tencent Cloud.

快速回复 返回顶部 返回列表