请选择 进入手机版 | 继续访问电脑版
本站Q群713428235【盘盘多】已满,请新会员加原盘天堂新官方QQ群709708625【好多盘】,验证信息填写您在论坛的会员名,不填会员名的无法入群哈,进群后修改您的群名片名字为您在论坛的会员名,请务必修改,否则群成员多了不知道您是哪个会员。

原盘天堂

 找回密码
 立即注册
京东商城当当华为商城名牌时尚折扣网,一个新型的网上购物平台,我们每周为您精选3~4个国际知名品牌,商品折扣低至2折限时限量售卖,商品囊括时装、护肤品、箱包、皮具、配饰、香水等等,琳琅满目。亿格瑞A10硬盘播放器 苏宁易购
查看: 191|回复: 6

2d蓝光原盘bdmv 矩阵故障 英语原版 a.glitch.in.the.matrix.2021.1080p.bluray.avc.dts-hd.ma.5.1[33.05 GB]

[复制链接]

6023

主题

6690

帖子

133万

积分

管理员

Rank: 18Rank: 18Rank: 18Rank: 18Rank: 18

积分
1332455
发表于 2021-5-14 11:28:44 | 显示全部楼层 |阅读模式






矩阵故障 A Glitch in the Matrix (2021)

◎译  名 矩阵故障
◎片  名 A Glitch in the Matrix
◎年  代 2021
◎产  地 美国
◎类  别 纪录片
◎语  言 英语
◎上映日期 2021-01-30(圣丹斯电影节)/2021-02-05(美国)
◎IMDb链接  https://www.imdb.com/title/tt9847360/
◎豆瓣评分 /10 from 0 users
◎豆瓣链接 https://douban.com/subject/35032329/
◎片  长 108分钟
◎导  演 罗德尼·阿谢尔 Rodney Ascher

◎标  签 纪录片 | 科幻 | 哲学 | 2021 | 美国 | 圣丹斯 | 电影 | 时空

◎简  介

  
  Documentary filmmaker Rodney Ascher tackles this question "are we living in a simulation?" with testimony, philosophical evidence and scientific explanation in his for the answer.

DISC INFO:

Disc Title:     A.Glitch.in.the.Matrix.2021.1080p.BluRay.AVC.DTS-HD.MA.5.1-FGT
Disc Size:      35,482,119,866 bytes
Protection:     AACS
BDInfo:         0.7.5.9 (compatible layout created by DVDFab 12.0.2.6)

PLAYLIST REPORT:

Name:                   00000.MPLS  
Length:                 1:48:35.634 (h:m:s.ms)
Size:                   32,590,614,528 bytes
Total Bitrate:          40.02 Mbps

VIDEO:

Codec                   Bitrate             Description     
-----                   -------             -----------     
MPEG-4 AVC Video        31997 kbps          1080p / 23.976 fps / 16:9 / High Profile 4.1

AUDIO:

Codec                           Language        Bitrate         Description     
-----                           --------        -------         -----------     
DTS-HD Master Audio             English         3635 kbps       5.1 / 48 kHz / 3635 kbps / 24-bit (DTS Core: 5.1 / 48 kHz / 1509 kbps / 24-bit)
LPCM Audio                      English         2304 kbps       2.0 / 48 kHz / 2304 kbps / 24-bit

SUBTITLES:

Codec                           Language        Bitrate         Description     
-----                           --------        -------         -----------     
Presentation Graphics           English         58.886 kbps
  
Video
ID : 1
ID in the original source medium : 4113 (0x1011)
Format : AVC
Format/Info : Advanced Video Codec
Format profile : [email protected]
Format settings : CABAC / 4 Ref Frames
Format settings, CABAC : Yes
Format settings, Reference frames : 4 frames
Format settings, GOP : M=3, N=24
Codec ID : V_MPEG4/ISO/AVC
Duration : 1 h 48 min
Bit rate mode : Constant
Bit rate : 29.2 Mb/s
Nominal bit rate : 32.0 Mb/s
Width : 1 920 pixels
Height : 1 080 pixels
Display aspect ratio : 16:9
Frame rate mode : Constant
Frame rate : 23.976 (24000/1001) FPS
Standard : NTSC
Color space : YUV
Chroma subsampling : 4:2:0
Bit depth : 8 bits
Scan type : Progressive
Bits/(Pixel*Frame) : 0.587
Stream size : 22.1 GiB (83%)
Language : English
Default : No
Forced : No
Color range : Limited
Color primaries : BT.709
Transfer characteristics : BT.709
Matrix coefficients : BT.709
Original source medium : Blu-ray

Audio #1
ID : 2
ID in the original source medium : 4352 (0x1100)
Format : DTS XLL
Format/Info : Digital Theater Systems
Commercial name : DTS-HD Master Audio
Codec ID : A_DTS
Duration : 1 h 48 min
Bit rate mode : Variable
Bit rate : 3 636 kb/s
Channel(s) : 6 channels
Channel layout : C L R Ls Rs LFE
Sampling rate : 48.0 kHz
Frame rate : 93.750 FPS (512 SPF)
Bit depth : 24 bits
Compression mode : Lossless
Stream size : 2.76 GiB (10%)
Title : DTS-HD MA 5.1
Language : English
Default : Yes
Forced : No
Original source medium : Blu-ray

Audio #2
ID : 3
ID in the original source medium : 4353 (0x1101)
Format : PCM
Format settings : Little / Signed
Codec ID : A_PCM/INT/LIT
Duration : 1 h 48 min
Bit rate mode : Constant
Bit rate : 2 304 kb/s
Channel(s) : 2 channels
Sampling rate : 48.0 kHz
Frame rate : 30.000 FPS (1600 SPF)
Bit depth : 24 bits
Stream size : 1.75 GiB (7%)
Title : LPCm 2.0
Language : English
Default : No
Forced : No
Original source medium : Blu-ray

Text #1
ID : 4
Format : UTF-8
Codec ID : S_TEXT/UTF8
Codec ID/Info : UTF-8 Plain Text
Duration : 1 h 44 min
Bit rate : 99 b/s
Count of elements : 2005
Stream size : 76.2 KiB (0%)
Title : English-SRT
Language : English
Default : Yes
Forced : No

Text #2
ID : 5
ID in the original source medium : 4608 (0x1200)
Format : PGS
Muxing mode : zlib
Codec ID : S_HDMV/PGS
Codec ID/Info : Picture based subtitle format used on BDs/HD-DVDs
Duration : 1 h 44 min
Bit rate : 61.3 kb/s
Count of elements : 4090
Stream size : 45.7 MiB (0%)
Title : English-PGS
Language : English
Default : No
Forced : No
Original source medium : Blu-ray

Menu
00:00:00.000 : Chapter 01
00:05:12.562 : Chapter 02
00:18:07.711 : Chapter 03
00:30:27.033 : Chapter 04
00:41:14.054 : Chapter 05
00:51:22.954 : Chapter 06
01:00:00.513 : Chapter 07
01:08:53.087 : Chapter 08
01:17:25.932 : Chapter 09
01:26:04.409 : Chapter 10
01:33:12.295 : Chapter 11
01:44:42.734 : Chapter 12

本帖子中包含更多资源

您需要 登录 才可以下载或查看,没有帐号?立即注册

x
回复

使用道具 举报

0

主题

53

帖子

204

积分

中级会员

Rank: 3Rank: 3

积分
204
发表于 2021-5-15 22:42:18 | 显示全部楼层
谢谢楼主分享
回复

使用道具 举报

0

主题

33

帖子

53

积分

注册会员

Rank: 2

积分
53
发表于 2021-5-17 18:56:43 | 显示全部楼层
感谢分享
回复

使用道具 举报

0

主题

753

帖子

3730

积分

论坛元老

Rank: 8Rank: 8

积分
3730
发表于 2021-5-18 09:36:43 | 显示全部楼层
谢楼主分享
回复

使用道具 举报

0

主题

33

帖子

53

积分

注册会员

Rank: 2

积分
53
发表于 2021-5-19 14:34:32 | 显示全部楼层
谢谢分享
回复

使用道具 举报

0

主题

753

帖子

3730

积分

论坛元老

Rank: 8Rank: 8

积分
3730
发表于 2021-5-26 10:01:56 | 显示全部楼层
感谢楼主分享.
回复

使用道具 举报

0

主题

1284

帖子

2171

积分

金牌会员

Rank: 6Rank: 6

积分
2171
发表于 2021-5-31 22:08:22 | 显示全部楼层
谢谢楼主分享!
回复

使用道具 举报

您需要登录后才可以回帖 登录 | 立即注册

本版积分规则

QQ|Archiver|手机版|小黑屋|原盘天堂 好多盘 点击这里给我发消息

GMT+8, 2021-6-13 10:08 , Processed in 0.060891 second(s), 25 queries .

Powered by Discuz! X3.4

Copyright © 2001-2020, Tencent Cloud.

快速回复 返回顶部 返回列表