请选择 进入手机版 | 继续访问电脑版
本站Q群713428235【盘盘多】已满,请新会员加原盘天堂新官方QQ群709708625【好多盘】,验证信息填写您在论坛的会员名,不填会员名的无法入群哈,进群后修改您的群名片名字为您在论坛的会员名,请务必修改,否则群成员多了不知道您是哪个会员。

原盘天堂

 找回密码
 立即注册
京东商城当当华为商城名牌时尚折扣网,一个新型的网上购物平台,我们每周为您精选3~4个国际知名品牌,商品折扣低至2折限时限量售卖,商品囊括时装、护肤品、箱包、皮具、配饰、香水等等,琳琅满目。亿格瑞A10硬盘播放器 苏宁易购
查看: 181|回复: 4

4k蓝光原盘bdmv 外星罪孽 英语原版 cosmic.sin.2021.2160p.bluray.hevc.dts-hd.ma.5.1[59.12 GB]

[复制链接]

6023

主题

6690

帖子

133万

积分

管理员

Rank: 18Rank: 18Rank: 18Rank: 18Rank: 18

积分
1332463
发表于 2021-5-14 09:25:44 | 显示全部楼层 |阅读模式








外星罪孽 Cosmic Sin (2021)

◎译  名 外星罪孽/宇宙罪孽/终极异噬界(台)
◎片  名 Cosmic Sin
◎年  代 2021
◎产  地 美国
◎类  别 动作/科幻/冒险
◎语  言 英语
◎上映日期 2021-03-01(英国网络)/2021-03-12(美国网络)
◎IMDb链接  https://www.imdb.com/title/tt11762434/
◎豆瓣评分 3.2/10 from 659 users
◎豆瓣链接 https://douban.com/subject/34967032/
◎片  长 88分钟
◎导  演 爱德华·德雷克 Edward Drake
◎编  剧 爱德华·德雷克 Edward Drake / 科里·拉奇 Corey Large
◎主  演 弗兰克·格里罗 Frank Grillo
       布鲁斯·威利斯 Bruce Willis
       布兰登·托马斯·李 Brandon Thomas Lee
       科里·拉奇 Corey Large
       C.J. Perry
       佩瑞·里维斯 Perrey Reeves
       洛奇林·莫罗 Lochlyn Munro
       科斯塔斯·曼迪勒 Costas Mandylor
       艾娃·德·多米尼奇 Eva De Dominici
       阿黛莱德·凯恩 Adelaide Kane
       特雷弗·格雷茨基 Trevor Gretzky
       约翰尼·梅辛纳 Johnny Messner
       卢克·威尔逊 Luke Wilson

◎标  签 科幻 | 布鲁斯·威利斯 | 2021 | 美国 | 动作 | 美国电影 | 冒险 | 电影

◎简  介

  
  布鲁斯·威利斯将主演科幻题材影片[外星罪孽](Cosmic Sin,暂译)。科里·拉奇、Edward Drake联合执导并共同操刀剧本。该片讲述具有感染并控制人类能力的外星物种入侵地球,一群战士与科学家必须挺身而出,为了人类而战斗。
  
DISC INFO:

Disc Title:     Cosmic.Sin.2021.COMPLETE.UHD.BLURAY.iNTERNAL-SharpHD
Disc Size:      63,481,173,033 bytes
Protection:     AACS2
Extras:         Ultra HD
BDInfo:         0.7.5.9 (compatible layout created by DVDFab 12.0.2.6)

PLAYLIST REPORT:

Name:                   00007.MPLS  
Length:                 1:28:13.288 (h:m:s.ms)
Size:                   62,300,694,528 bytes
Total Bitrate:          94.16 Mbps

VIDEO:

Codec                   Bitrate             Description     
-----                   -------             -----------     
MPEG-H HEVC Video       84542 kbps          2160p / 23.976 fps / 16:9 / Main 10 @ Level 5.1 @ High / 4:2:0 / 10 bits / 1000nits / HDR10+ v1 Profile B / BT.2020

AUDIO:

Codec                           Language        Bitrate         Description     
-----                           --------        -------         -----------     
DTS-HD Master Audio             German          2543 kbps       5.1 / 48 kHz / 2543 kbps / 24-bit (DTS Core: 5.1 / 48 kHz / 1509 kbps / 24-bit)
DTS-HD Master Audio             English         2599 kbps       5.1 / 48 kHz / 2599 kbps / 24-bit (DTS Core: 5.1 / 48 kHz / 1509 kbps / 24-bit)

SUBTITLES:

Codec                           Language        Bitrate         Description     
-----                           --------        -------         -----------     
Presentation Graphics           German          0.929 kbps                     
Presentation Graphics           German          25.456 kbps  

Video
ID : 1
ID in the original source medium : 4113 (0x1011)
Format : HEVC
Format/Info : High Efficiency Video Coding
Format profile : Main [email protected]@High
HDR format : SMPTE ST 2094 App 4, Version 1, HDR10+ Profile B compatible
Codec ID : V_MPEGH/ISO/HEVC
Duration : 1 h 28 min
Bit rate : 84.5 Mb/s
Width : 3 840 pixels
Height : 2 160 pixels
Display aspect ratio : 16:9
Frame rate mode : Constant
Frame rate : 23.976 (24000/1001) FPS
Color space : YUV
Chroma subsampling : 4:2:0 (Type 2)
Bit depth : 10 bits
Bits/(Pixel*Frame) : 0.425
Stream size : 52.1 GiB (94%)
Language : English
Default : No
Forced : No
Color range : Limited
Color primaries : BT.2020
Transfer characteristics : PQ
Matrix coefficients : BT.2020 non-constant
Mastering display color primaries : Display P3
Mastering display luminance : min: 0.0001 cd/m2, max: 1000 cd/m2
Maximum Content Light Level : 4319 cd/m2
Maximum Frame-Average Light Level : 432 cd/m2
Original source medium : Blu-ray

Audio #1
ID : 2
ID in the original source medium : 4353 (0x1101)
Format : DTS XLL
Format/Info : Digital Theater Systems
Commercial name : DTS-HD Master Audio
Codec ID : A_DTS
Duration : 1 h 28 min
Bit rate mode : Variable
Bit rate : 2 599 kb/s
Channel(s) : 6 channels
Channel layout : C L R Ls Rs LFE
Sampling rate : 48.0 kHz
Frame rate : 93.750 FPS (512 SPF)
Bit depth : 24 bits
Compression mode : Lossless
Stream size : 1.60 GiB (3%)
Title : DTS-HD MA 5.1
Language : English
Default : Yes
Forced : No
Original source medium : Blu-ray

Audio #2
ID : 3
Format : AC-3
Format/Info : Audio Coding 3
Commercial name : Dolby Digital
Codec ID : A_AC3
Duration : 1 h 28 min
Bit rate mode : Constant
Bit rate : 640 kb/s
Channel(s) : 6 channels
Channel layout : L R C LFE Ls Rs
Sampling rate : 48.0 kHz
Frame rate : 31.250 FPS (1536 SPF)
Compression mode : Lossy
Stream size : 404 MiB (1%)
Title : DD 5.1
Language : English
Service kind : Complete Main
Default : No
Forced : No

Audio #3
ID : 4
ID in the original source medium : 4352 (0x1100)
Format : DTS XLL
Format/Info : Digital Theater Systems
Commercial name : DTS-HD Master Audio
Codec ID : A_DTS
Duration : 1 h 28 min
Bit rate mode : Variable
Bit rate : 2 543 kb/s
Channel(s) : 6 channels
Channel layout : C L R Ls Rs LFE
Sampling rate : 48.0 kHz
Frame rate : 93.750 FPS (512 SPF)
Bit depth : 24 bits
Compression mode : Lossless
Stream size : 1.57 GiB (3%)
Title : DTS-HD MA 5.1
Language : German
Default : No
Forced : No
Original source medium : Blu-ray

Text #1
ID : 5
Format : UTF-8
Codec ID : S_TEXT/UTF8
Codec ID/Info : UTF-8 Plain Text
Duration : 1 h 22 min
Bit rate : 44 b/s
Count of elements : 961
Stream size : 27.0 KiB (0%)
Title : English-SRT
Language : English
Default : Yes
Forced : No

Text #2
ID : 6
ID in the original source medium : 4768 (0x12A0)
Format : PGS
Muxing mode : zlib
Codec ID : S_HDMV/PGS
Codec ID/Info : Picture based subtitle format used on BDs/HD-DVDs
Duration : 1 h 23 min
Bit rate : 984 b/s
Count of elements : 48
Stream size : 600 KiB (0%)
Title : German-PGS
Language : German
Default : No
Forced : No
Original source medium : Blu-ray

Text #3
ID : 7
ID in the original source medium : 4769 (0x12A1)
Format : PGS
Muxing mode : zlib
Codec ID : S_HDMV/PGS
Codec ID/Info : Picture based subtitle format used on BDs/HD-DVDs
Duration : 1 h 24 min
Bit rate : 26.6 kb/s
Count of elements : 1418
Stream size : 16.1 MiB (0%)
Title : German-FORCEDPGS
Language : German
Default : No
Forced : No
Original source medium : Blu-ray

Menu
00:00:00.000 : Chapter 01
00:07:28.573 : Chapter 02
00:14:01.841 : Chapter 03
00:19:38.135 : Chapter 04
00:29:02.907 : Chapter 05
00:35:38.553 : Chapter 06
00:41:59.892 : Chapter 07
00:50:04.876 : Chapter 08
00:57:09.634 : Chapter 09
01:04:17.311 : Chapter 10
01:09:38.424 : Chapter 11
01:16:40.137 : Chapter 12
01:25:28.957 : Chapter 13

本帖子中包含更多资源

您需要 登录 才可以下载或查看,没有帐号?立即注册

x
回复

使用道具 举报

0

主题

753

帖子

3730

积分

论坛元老

Rank: 8Rank: 8

积分
3730
发表于 2021-5-14 10:32:19 | 显示全部楼层
谢楼主发帖
回复

使用道具 举报

0

主题

3

帖子

10

积分

新手上路

Rank: 1

积分
10
发表于 2021-5-14 15:23:21 | 显示全部楼层
公关费户籍
回复

使用道具 举报

0

主题

3

帖子

21

积分

新手上路

Rank: 1

积分
21
发表于 2021-5-18 10:43:50 | 显示全部楼层
谢谢楼主分享
回复

使用道具 举报

0

主题

438

帖子

3442

积分

论坛元老

Rank: 8Rank: 8

积分
3442
发表于 2021-5-24 16:06:19 | 显示全部楼层
好高兴,终于找到这个资源了!
回复

使用道具 举报

您需要登录后才可以回帖 登录 | 立即注册

本版积分规则

QQ|Archiver|手机版|小黑屋|原盘天堂 好多盘 点击这里给我发消息

GMT+8, 2021-6-13 11:12 , Processed in 0.064452 second(s), 25 queries .

Powered by Discuz! X3.4

Copyright © 2001-2020, Tencent Cloud.

快速回复 返回顶部 返回列表