请选择 进入手机版 | 继续访问电脑版
本站Q群713428235【盘盘多】已满,请新会员加原盘天堂新官方QQ群709708625【好多盘】,验证信息填写您在论坛的会员名,不填会员名的无法入群哈,进群后修改您的群名片名字为您在论坛的会员名,请务必修改,否则群成员多了不知道您是哪个会员。

原盘天堂

 找回密码
 立即注册
京东商城当当华为商城名牌时尚折扣网,一个新型的网上购物平台,我们每周为您精选3~4个国际知名品牌,商品折扣低至2折限时限量售卖,商品囊括时装、护肤品、箱包、皮具、配饰、香水等等,琳琅满目。亿格瑞A10硬盘播放器 苏宁易购
查看: 85|回复: 8

4k蓝光原盘盘bdmv 辣身舞 英语原版 dirty.dancing.1987.2160p.bluray.hevc.truehd.7.1.atmos[75.72 GB]

[复制链接]

5958

主题

6605

帖子

132万

积分

管理员

Rank: 18Rank: 18Rank: 18Rank: 18Rank: 18

积分
1329755
发表于 2021-5-3 11:40:52 | 显示全部楼层 |阅读模式








辣身舞 Dirty Dancing (1987)

◎译  名 辣身舞/热舞/热舞十七/脏舞
◎片  名 Dirty Dancing
◎年  代 1987
◎产  地 美国
◎类  别 剧情/爱情
◎语  言 英语
◎上映日期 1987-08-21
◎IMDb链接  https://www.imdb.com/title/tt0092890/
◎豆瓣评分 7.8/10 from 6225 users
◎豆瓣链接 https://douban.com/subject/1293293/
◎片  长 USA: 100 分钟
◎导  演 埃米利·阿朵里诺 Emile Ardolino
◎编  剧 埃莉诺·伯格斯坦 Eleanor Bergstein
◎主  演 詹妮弗·格雷 Jennifer Grey
       帕特里克·斯威兹 Patrick Swayze
       辛西娅·罗德斯 Cynthia Rhodes
       杰里·奥尔巴赫 Jerry Orbach
       杰克韦斯顿 Jack Weston
       凯利·毕晓普 Kelly Bishop
       Dorian Sanchez

◎标  签 美国 | 爱情 | 舞蹈 | 歌舞 | 美国电影 | 1987 | 辣身舞 | 电影

◎简  介

  
  弗朗西丝(詹妮弗•格雷 饰)与家人到了凯勒曼山区度假。17岁的弗朗西丝对男孩子、舞蹈和家庭游戏都不感兴趣。
  
  一次偶然,她来到了一家旅馆,里面的男男女女非常缠绵地在一起跳舞。弗朗西丝马上觉得这样的舞蹈不堪入目。舞蹈教练约翰尼(帕特里克•斯威兹 饰)来到了她跟前,他为弗朗西丝解开顾虑,并教她舞蹈的基本步。学习过程中,弗朗西丝也发现自己爱上了约翰尼。因为害怕被解雇,约翰尼不敢与弗朗西丝发展下去。
  
  这时约翰尼的舞伴怀上了大学生罗比的孩子,弗朗西丝让自己的医生父亲帮忙检查,但弗朗西丝的父亲误以为孩子是约翰尼的,继而阻止女儿与约翰尼交往,他们俩只好暗中见面。因为被诬陷,约翰尼失业了。
  

◎获奖情况

  第60届奥斯卡金像奖  (1988)
  最佳原创歌曲 弗兰克·普雷威特 / 约翰·德尼古拉 / 唐纳德·马尔科威茨

DISC INFO:

Disc Title:     Dirty.Dancing.1987.2160p.BluRay.HEVC.TrueHD.7.1.Atmos-TASTED
Disc Size:      81,305,552,071 bytes
Protection:     AACS2
Extras:         Ultra HD, BD-Java
BDInfo:         0.7.5.9 (compatible layout created by DVDFab 12.0.2.6)

PLAYLIST REPORT:

Name:                   00706.MPLS  
Length:                 1:40:23.350 (h:m:s.ms)
Size:                   73,184,151,552 bytes
Total Bitrate:          97.20 Mbps

(*) Indicates included stream hidden by this playlist.

VIDEO:

Codec                   Bitrate             Description     
-----                   -------             -----------     
MPEG-H HEVC Video       74500 kbps          2160p / 23.976 fps / 16:9 / Main 10 @ Level 5.1 @ High / 4:2:0 / 10 bits / 1000nits / HDR10 / BT.2020
* MPEG-H HEVC Video     7540 kbps (9.19%)   1080p / 23.976 fps / 16:9 / Main 10 @ Level 5.1 @ High / 4:2:0 / 10 bits / 1000nits / Dolby Vision FEL / BT.2020

AUDIO:

Codec                           Language        Bitrate         Description     
-----                           --------        -------         -----------     
Dolby TrueHD/Atmos Audio        English         4782 kbps       7.1+15 objects / 48 kHz / 4142 kbps / 24-bit (AC3 Core: 5.1-EX / 48 kHz / 640 kbps)
DTS-HD Master Audio             English         4047 kbps       5.1 / 48 kHz / 4047 kbps / 24-bit
Dolby Digital Audio             English         224 kbps        2.0 / 48 kHz / 224 kbps / Dolby Surround
Dolby Digital Audio             English         224 kbps        2.0 / 48 kHz / 224 kbps / Dolby Surround
Dolby Digital Audio             English         224 kbps        2.0 / 48 kHz / 224 kbps / Dolby Surround

SUBTITLES:

Codec                           Language        Bitrate         Description     
-----                           --------        -------         -----------     
Presentation Graphics           English         26.858 kbps                     
Presentation Graphics           English         34.536 kbps                     
Presentation Graphics           Spanish         25.502 kbps

Video
ID : 1
ID in the original source medium : 4113 (0x1011)
Format : HEVC
Format/Info : High Efficiency Video Coding
Format profile : Main [email protected]@High
HDR format : SMPTE ST 2086, HDR10 compatible
Codec ID : V_MPEGH/ISO/HEVC
Duration : 1 h 40 min
Bit rate : 74.5 Mb/s
Width : 3 840 pixels
Height : 2 160 pixels
Display aspect ratio : 16:9
Frame rate mode : Constant
Frame rate : 23.976 (24000/1001) FPS
Color space : YUV
Chroma subsampling : 4:2:0 (Type 2)
Bit depth : 10 bits
Bits/(Pixel*Frame) : 0.375
Stream size : 52.2 GiB (88%)
Language : English
Default : No
Forced : No
Color range : Limited
Color primaries : BT.2020
Transfer characteristics : PQ
Matrix coefficients : BT.2020 non-constant
Mastering display color primaries : Display P3
Mastering display luminance : min: 0.0010 cd/m2, max: 1000 cd/m2
Maximum Content Light Level : 657 cd/m2
Maximum Frame-Average Light Level : 127 cd/m2
Original source medium : Blu-ray

Audio #1
ID : 2
ID in the original source medium : 4352 (0x1100)
Format : MLP FBA 16-ch
Format/Info : Meridian Lossless Packing FBA with 16-channel presentation
Commercial name : Dolby TrueHD with Dolby Atmos
Codec ID : A_TRUEHD
Duration : 1 h 40 min
Bit rate mode : Variable
Bit rate : 4 142 kb/s
Maximum bit rate : 5 895 kb/s
Channel(s) : 8 channels
Channel layout : L R C LFE Ls Rs Lb Rb
Sampling rate : 48.0 kHz
Frame rate : 1 200.000 FPS (40 SPF)
Bit depth : 24 bits
Compression mode : Lossless
Stream size : 2.90 GiB (5%)
Title : TrueHD 7.1 Atmos
Language : English
Default : Yes
Forced : No
Original source medium : Blu-ray
Number of dynamic objects : 15
Bed channel count : 1 channel
Bed channel configuration : LFE

Audio #2
ID : 3
Format : DTS XLL
Format/Info : Digital Theater Systems
Commercial name : DTS-HD Master Audio
Codec ID : A_DTS
Duration : 1 h 40 min
Bit rate mode : Variable
Bit rate : 4 263 kb/s
Channel(s) : 8 channels
Channel layout : C L R LFE Lb Rb Lss Rss
Sampling rate : 48.0 kHz
Frame rate : 93.750 FPS (512 SPF)
Bit depth : 24 bits
Compression mode : Lossless
Stream size : 2.99 GiB (5%)
Title : DTS-HD MA 7.1
Language : English
Default : No
Forced : No

Audio #3
ID : 4
ID in the original source medium : 4352 (0x1100)
Format : AC-3
Format/Info : Audio Coding 3
Commercial name : Dolby Digital
Format settings : Dolby Surround EX
Codec ID : A_AC3
Duration : 1 h 40 min
Bit rate mode : Constant
Bit rate : 640 kb/s
Channel(s) : 6 channels
Channel layout : L R C LFE Ls Rs
Sampling rate : 48.0 kHz
Frame rate : 31.250 FPS (1536 SPF)
Compression mode : Lossy
Stream size : 460 MiB (1%)
Title : DD 5.1
Language : English
Service kind : Complete Main
Default : No
Forced : No
Original source medium : Blu-ray

Audio #4
ID : 5
ID in the original source medium : 4354 (0x1102)
Format : AC-3
Format/Info : Audio Coding 3
Commercial name : Dolby Digital
Format settings : Dolby Surround
Codec ID : A_AC3
Duration : 1 h 40 min
Bit rate mode : Constant
Bit rate : 224 kb/s
Channel(s) : 2 channels
Channel layout : L R
Sampling rate : 48.0 kHz
Frame rate : 31.250 FPS (1536 SPF)
Compression mode : Lossy
Stream size : 161 MiB (0%)
Title : DD 2.0
Language : English
Service kind : Complete Main
Default : No
Forced : No
Original source medium : Blu-ray

Audio #5
ID : 6
ID in the original source medium : 4355 (0x1103)
Format : AC-3
Format/Info : Audio Coding 3
Commercial name : Dolby Digital
Format settings : Dolby Surround
Codec ID : A_AC3
Duration : 1 h 40 min
Bit rate mode : Constant
Bit rate : 224 kb/s
Channel(s) : 2 channels
Channel layout : L R
Sampling rate : 48.0 kHz
Frame rate : 31.250 FPS (1536 SPF)
Compression mode : Lossy
Stream size : 161 MiB (0%)
Title : DD 2.0
Language : English
Service kind : Complete Main
Default : No
Forced : No
Original source medium : Blu-ray

Audio #6
ID : 7
ID in the original source medium : 4356 (0x1104)
Format : AC-3
Format/Info : Audio Coding 3
Commercial name : Dolby Digital
Format settings : Dolby Surround
Codec ID : A_AC3
Duration : 1 h 40 min
Bit rate mode : Constant
Bit rate : 224 kb/s
Channel(s) : 2 channels
Channel layout : L R
Sampling rate : 48.0 kHz
Frame rate : 31.250 FPS (1536 SPF)
Compression mode : Lossy
Stream size : 161 MiB (0%)
Title : DD 2.0
Language : English
Service kind : Complete Main
Default : No
Forced : No
Original source medium : Blu-ray

Text #1
ID : 8
Format : UTF-8
Codec ID : S_TEXT/UTF8
Codec ID/Info : UTF-8 Plain Text
Duration : 1 h 37 min
Bit rate : 44 b/s
Count of elements : 895
Stream size : 31.9 KiB (0%)
Title : English-SRT
Language : English
Default : Yes
Forced : No

Text #2
ID : 9
ID in the original source medium : 4768 (0x12A0)
Format : PGS
Muxing mode : zlib
Codec ID : S_HDMV/PGS
Codec ID/Info : Picture based subtitle format used on BDs/HD-DVDs
Duration : 1 h 37 min
Bit rate : 27.7 kb/s
Count of elements : 1796
Stream size : 19.3 MiB (0%)
Title : English-PGS
Language : English
Default : No
Forced : No
Original source medium : Blu-ray

Text #3
ID : 10
ID in the original source medium : 4769 (0x12A1)
Format : PGS
Muxing mode : zlib
Codec ID : S_HDMV/PGS
Codec ID/Info : Picture based subtitle format used on BDs/HD-DVDs
Duration : 1 h 39 min
Bit rate : 35.0 kb/s
Count of elements : 2464
Stream size : 24.8 MiB (0%)
Title : English-SDH-PGS
Language : English
Default : No
Forced : No
Original source medium : Blu-ray

Text #4
ID : 11
ID in the original source medium : 4770 (0x12A2)
Format : PGS
Muxing mode : zlib
Codec ID : S_HDMV/PGS
Codec ID/Info : Picture based subtitle format used on BDs/HD-DVDs
Duration : 1 h 39 min
Bit rate : 25.8 kb/s
Count of elements : 1762
Stream size : 18.3 MiB (0%)
Title : Spanish-PGS
Language : Spanish
Default : No
Forced : No
Original source medium : Blu-ray

Menu
00:00:00.000 : Chapter 01
00:04:35.525 : Chapter 02
00:13:21.133 : Chapter 03
00:20:49.248 : Chapter 04
00:25:11.927 : Chapter 05
00:33:26.170 : Chapter 06
00:40:07.571 : Chapter 07
00:46:38.337 : Chapter 08
00:50:32.654 : Chapter 09
00:59:14.259 : Chapter 10
01:05:44.190 : Chapter 11
01:11:07.054 : Chapter 12
01:15:11.840 : Chapter 13
01:20:54.307 : Chapter 14
01:25:44.764 : Chapter 15
01:28:45.695 : Chapter 16

本帖子中包含更多资源

您需要 登录 才可以下载或查看,没有帐号?立即注册

x
回复

使用道具 举报

0

主题

37

帖子

53

积分

注册会员

Rank: 2

积分
53
发表于 2021-5-3 14:54:11 | 显示全部楼层
great classic movie!
回复

使用道具 举报

0

主题

1216

帖子

5137

积分

论坛元老

Rank: 8Rank: 8

积分
5137
发表于 2021-5-3 19:44:53 | 显示全部楼层
感谢楼主分享高清影片
回复

使用道具 举报

0

主题

203

帖子

1292

积分

金牌会员

Rank: 6Rank: 6

积分
1292
发表于 7 天前 | 显示全部楼层
感谢楼主
回复

使用道具 举报

0

主题

307

帖子

1436

积分

金牌会员

Rank: 6Rank: 6

积分
1436
发表于 7 天前 | 显示全部楼层
感谢楼主
回复

使用道具 举报

0

主题

5

帖子

19

积分

新手上路

Rank: 1

积分
19
发表于 6 天前 | 显示全部楼层
果真是熱辣辣的片名
回复

使用道具 举报

0

主题

130

帖子

1580

积分

金牌会员

Rank: 6Rank: 6

积分
1580
发表于 6 天前 | 显示全部楼层
感谢楼主分享
回复

使用道具 举报

0

主题

136

帖子

285

积分

中级会员

Rank: 3Rank: 3

积分
285
发表于 5 天前 | 显示全部楼层
感谢楼主分享!支持
回复

使用道具 举报

0

主题

21

帖子

231

积分

VIP月

Rank: 9Rank: 9Rank: 9

积分
231
发表于 3 天前 | 显示全部楼层
thanks ! let me see !
回复

使用道具 举报

您需要登录后才可以回帖 登录 | 立即注册

本版积分规则

QQ|Archiver|手机版|小黑屋|原盘天堂 好多盘 点击这里给我发消息

GMT+8, 2021-5-11 14:24 , Processed in 0.062406 second(s), 24 queries .

Powered by Discuz! X3.4

Copyright © 2001-2020, Tencent Cloud.

快速回复 返回顶部 返回列表