请选择 进入手机版 | 继续访问电脑版
本站Q群713428235【盘盘多】已满,请新会员加原盘天堂新官方QQ群709708625【好多盘】,验证信息填写您在论坛的会员名,不填会员名的无法入群哈,进群后修改您的群名片名字为您在论坛的会员名,请务必修改,否则群成员多了不知道您是哪个会员。

原盘天堂

 找回密码
 立即注册
京东商城当当华为商城名牌时尚折扣网,一个新型的网上购物平台,我们每周为您精选3~4个国际知名品牌,商品折扣低至2折限时限量售卖,商品囊括时装、护肤品、箱包、皮具、配饰、香水等等,琳琅满目。亿格瑞A10硬盘播放器 苏宁易购
查看: 77|回复: 4

4k蓝光原盘bdmv 大鱼 中字 big.fish.2003.2160p.bluray.hevc.truehd.7.1.atmos[79.16 GB]

[复制链接]

5958

主题

6605

帖子

132万

积分

管理员

Rank: 18Rank: 18Rank: 18Rank: 18Rank: 18

积分
1329765
发表于 2021-5-2 10:34:29 | 显示全部楼层 |阅读模式






大鱼 Big Fish (2003)

◎译  名 大鱼/大鱼老爸/大鱼奇缘(港)/大智若鱼(台)
◎片  名 Big Fish
◎年  代 2003
◎产  地 美国
◎类  别 剧情/家庭/奇幻/冒险
◎语  言 英语/法语/俄语/粤语/汉语普通话
◎上映日期 2003-12-04(纽约首映)/2004-01-09(美国)
◎IMDb链接  https://www.imdb.com/title/tt0319061/
◎豆瓣评分 8.8/10 from 470156 users
◎豆瓣链接 https://douban.com/subject/1291545/
◎片  长 125 分钟
◎导  演 蒂姆·波顿 Tim Burton
◎编  剧 约翰·奥古斯特 John August
◎主  演 伊万·麦克格雷格 Ewan McGregor
       阿尔伯特·芬尼 Albert Finney
       比利·克鲁德普 Billy Crudup
       杰西卡·兰格 Jessica Lange
       海伦娜·伯翰·卡特 Helena Bonham Carter
       艾莉森·洛曼 Alison Lohman
       罗伯特·吉尔劳姆 Robert Guillaume
       玛丽昂·歌迪亚 Marion Cotillard
       马修·麦克格罗里 Matthew McGrory
       大卫·丹曼 David Denman
       米西·派勒 Missi Pyle
       卢顿·万恩怀特三世 Loudon Wainwright III
       艾达·泰 Ada Tai
       艾伦妮·泰 Arlene Tai
       史蒂夫·布西密 Steve Buscemi
       丹尼·德维托 Danny DeVito
       迪普·罗伊 Deep Roy
       海利·安妮·内尔森 Hailey Anne Nelson
       麦莉·赛勒斯 Miley Cyrus
       拉塞尔·霍奇金森 Russell Hodgkinson
       崔沃·加格农 Trevor Gagnon
       R.基斯·哈里斯 R. Keith Harris
       扎克·哈内尔 Zach Hanner
       加里·牛顿 Gary Newton

◎标  签 亲情 | 奇幻 | 美国 | TimBurton | 童话 | 魔幻 | 剧情 | 温情

◎简  介

  
  爱德华(伊万·麦克格雷格 Ewan McGregor 饰)生性热爱自由,成年之后,他选择离开家乡,踏上了环游世界的旅程。一路上,爱德华遇见了各种各样稀奇古怪的角色,经历了无数精彩绝伦的的冒险,而他日后最大的兴趣,就是向他人喋喋不休的重复讲述他的这一段奇幻旅程。
  
  威尔(比利·克鲁德普 Billy Crudup 饰)是爱德华的儿子,他并不相信父亲所讲述的那些光怪陆离的故事,甚至对此感到无比厌烦。婚后,他同父亲中断了联系,一晃眼就是数年过去。当再次得到爱德华的消息之时,威尔才知道父亲即将不久于人世,他决定去见爱德华最后一面。然而,这一次,威尔终于发现了隐藏在这些故事背后的奥秘和真相。
  

◎获奖情况

  第76届奥斯卡金像奖  (2004)
  最佳原创配乐(提名) 丹尼·艾夫曼
  
  第61届金球奖  (2004)
  电影类最佳音乐/喜剧片(提名)
  电影类最佳男配角(提名) 阿尔伯特·芬尼
  电影类最佳原创配乐(提名) 丹尼·艾夫曼
  电影类最佳原创歌曲(提名) 艾迪·韦德
  
  第57届英国电影学院奖  (2004)
  电影奖最佳影片(提名) 理查德·D·扎努克 / 丹·金克斯 / 布鲁斯·科恩
  电影奖最佳导演(提名) 蒂姆·波顿
  电影奖最佳男配角(提名) 阿尔伯特·芬尼
  电影奖最佳改编剧本(提名) 约翰·奥古斯特
  电影奖最佳化妆/发型(提名) 琼·安·布兰克 / 保罗·勒布朗
  电影奖最佳艺术指导(提名) 丹尼斯·加斯纳
  电影奖最佳特殊视觉效果(提名) 塞斯·毛里 / 林赛·麦克戈温 / 派迪·伊森 / 凯文·斯科特·麦克

DISC INFO:

Disc Title:     Big.Fish.2003.COMPLETE.UHD.BLURAY-MAXAGAZ
Disc Size:      84,982,070,919 bytes
Protection:     AACS2
Extras:         Ultra HD, BD-Java
BDInfo:         0.7.5.9 (compatible layout created by DVDFab 12.0.2.6)

PLAYLIST REPORT:

Name:                   00001.MPLS  
Length:                 2:05:10.502 (h:m:s.ms)
Size:                   84,734,386,176 bytes
Total Bitrate:          90.26 Mbps

VIDEO:

Codec                   Bitrate             Description     
-----                   -------             -----------     
MPEG-H HEVC Video       63792 kbps          2160p / 23.976 fps / 16:9 / Main 10 @ Level 5.1 @ High / 4:2:0 / 10 bits / 4000nits / HDR10 / BT.2020

AUDIO:

Codec                           Language        Bitrate         Description     
-----                           --------        -------         -----------     
Dolby TrueHD/Atmos Audio        English         4586 kbps       7.1+11 objects / 48 kHz / 3946 kbps / 24-bit (AC3 Core: 5.1 / 48 kHz / 640 kbps)
DTS-HD Master Audio             English         2187 kbps       5.1 / 48 kHz / 2187 kbps / 16-bit (DTS Core: 5.1 / 48 kHz / 1509 kbps / 16-bit)
Dolby Digital Audio             Czech           640 kbps        5.1 / 48 kHz / 640 kbps
DTS-HD Master Audio             French          2181 kbps       5.1 / 48 kHz / 2181 kbps / 16-bit (DTS Core: 5.1 / 48 kHz / 1509 kbps / 16-bit)
DTS-HD Master Audio             German          2184 kbps       5.1 / 48 kHz / 2184 kbps / 16-bit (DTS Core: 5.1 / 48 kHz / 1509 kbps / 16-bit)
Dolby Digital Audio             Hungarian       640 kbps        5.1 / 48 kHz / 640 kbps
Dolby Digital Audio             Italian         640 kbps        5.1 / 48 kHz / 640 kbps
DTS-HD Master Audio             Japanese        2189 kbps       5.1 / 48 kHz / 2189 kbps / 16-bit (DTS Core: 5.1 / 48 kHz / 1509 kbps / 16-bit)
Dolby Digital Audio             Korean          192 kbps        2.0 / 48 kHz / 192 kbps / Dolby Surround
Dolby Digital Audio             Polish          640 kbps        5.1 / 48 kHz / 640 kbps
Dolby Digital Audio             Russian         640 kbps        5.1 / 48 kHz / 640 kbps
DTS-HD Master Audio             Spanish         2176 kbps       5.1 / 48 kHz / 2176 kbps / 16-bit (DTS Core: 5.1 / 48 kHz / 1509 kbps / 16-bit)
Dolby Digital Audio             Spanish         640 kbps        5.1 / 48 kHz / 640 kbps
Dolby Digital Audio             Thai            640 kbps        5.1 / 48 kHz / 640 kbps

SUBTITLES:

Codec                           Language        Bitrate         Description     
-----                           --------        -------         -----------     
Presentation Graphics           English         32.675 kbps                     
Presentation Graphics           English         27.553 kbps                     
Presentation Graphics           English         32.682 kbps                     
Presentation Graphics           English         27.555 kbps                     
Presentation Graphics           Arabic          13.377 kbps                     
Presentation Graphics           Chinese         22.889 kbps                     
Presentation Graphics           Chinese         22.53 kbps                     
Presentation Graphics           Czech           23.28 kbps                     
Presentation Graphics           Danish          25.867 kbps                     
Presentation Graphics           Dutch           23.96 kbps                     
Presentation Graphics           Finnish         23.472 kbps                     
Presentation Graphics           French          24.22 kbps                     
Presentation Graphics           German          27.371 kbps                     
Presentation Graphics           Greek           27.511 kbps                     
Presentation Graphics           Hungarian       24.428 kbps                     
Presentation Graphics           Italian         30.063 kbps                     
Presentation Graphics           Japanese        24.365 kbps                     
Presentation Graphics           Korean          17.802 kbps                     
Presentation Graphics           Norwegian       23.909 kbps                     
Presentation Graphics           Polish          24.809 kbps                     
Presentation Graphics           Portuguese      27.938 kbps                     
Presentation Graphics           Romanian        24.44 kbps                     
Presentation Graphics           Russian         25.891 kbps                     
Presentation Graphics           Slovenian       22.48 kbps                     
Presentation Graphics           Spanish         25.309 kbps                     
Presentation Graphics           Spanish         26.895 kbps                     
Presentation Graphics           Swedish         23.411 kbps                     
Presentation Graphics           Thai            23.108 kbps                     
Presentation Graphics           Turkish         24.866 kbps                     
Presentation Graphics           Japanese        1.661 kbps

Video
ID : 1
ID in the original source medium : 4113 (0x1011)
Format : HEVC
Format/Info : High Efficiency Video Coding
Format profile : Main [email protected]@High
HDR format : SMPTE ST 2086, HDR10 compatible
Codec ID : V_MPEGH/ISO/HEVC
Duration : 2 h 5 min
Bit rate : 63.8 Mb/s
Width : 3 840 pixels
Height : 2 160 pixels
Display aspect ratio : 16:9
Frame rate mode : Constant
Frame rate : 23.976 (24000/1001) FPS
Color space : YUV
Chroma subsampling : 4:2:0 (Type 2)
Bit depth : 10 bits
Bits/(Pixel*Frame) : 0.321
Stream size : 55.8 GiB (74%)
Language : English
Default : No
Forced : No
Color range : Limited
Color primaries : BT.2020
Transfer characteristics : PQ
Matrix coefficients : BT.2020 non-constant
Mastering display color primaries : Display P3
Mastering display luminance : min: 0.0050 cd/m2, max: 4000 cd/m2
Maximum Content Light Level : 3301 cd/m2
Maximum Frame-Average Light Level : 349 cd/m2
Original source medium : Blu-ray

Audio #1
ID : 2
ID in the original source medium : 4352 (0x1100)
Format : MLP FBA 16-ch
Format/Info : Meridian Lossless Packing FBA with 16-channel presentation
Commercial name : Dolby TrueHD with Dolby Atmos
Codec ID : A_TRUEHD
Duration : 2 h 5 min
Bit rate mode : Variable
Bit rate : 3 946 kb/s
Maximum bit rate : 7 374 kb/s
Channel(s) : 8 channels
Channel layout : L R C LFE Ls Rs Lb Rb
Sampling rate : 48.0 kHz
Frame rate : 1 200.000 FPS (40 SPF)
Bit depth : 24 bits
Compression mode : Lossless
Stream size : 3.45 GiB (5%)
Title : TrueHD 7.1 Atmos
Language : English
Default : Yes
Forced : No
Original source medium : Blu-ray
Number of dynamic objects : 11
Bed channel count : 1 channel
Bed channel configuration : LFE

Audio #2
ID : 3
Format : DTS XLL
Format/Info : Digital Theater Systems
Commercial name : DTS-HD Master Audio
Codec ID : A_DTS
Duration : 2 h 5 min
Bit rate mode : Variable
Bit rate : 3 954 kb/s
Channel(s) : 8 channels
Channel layout : C L R LFE Lb Rb Lss Rss
Sampling rate : 48.0 kHz
Frame rate : 93.750 FPS (512 SPF)
Bit depth : 24 bits
Compression mode : Lossless
Stream size : 3.46 GiB (5%)
Title : DTS-HD MA 7.1
Language : English
Default : No
Forced : No

Audio #3
ID : 4
ID in the original source medium : 4352 (0x1100)
Format : AC-3
Format/Info : Audio Coding 3
Commercial name : Dolby Digital
Codec ID : A_AC3
Duration : 2 h 5 min
Bit rate mode : Constant
Bit rate : 640 kb/s
Channel(s) : 6 channels
Channel layout : L R C LFE Ls Rs
Sampling rate : 48.0 kHz
Frame rate : 31.250 FPS (1536 SPF)
Compression mode : Lossy
Stream size : 573 MiB (1%)
Title : DD 5.1
Language : English
Service kind : Complete Main
Default : No
Forced : No
Original source medium : Blu-ray

Audio #4
ID : 5
ID in the original source medium : 4354 (0x1102)
Format : AC-3
Format/Info : Audio Coding 3
Commercial name : Dolby Digital
Codec ID : A_AC3
Duration : 2 h 5 min
Bit rate mode : Constant
Bit rate : 640 kb/s
Channel(s) : 6 channels
Channel layout : L R C LFE Ls Rs
Sampling rate : 48.0 kHz
Frame rate : 31.250 FPS (1536 SPF)
Compression mode : Lossy
Stream size : 573 MiB (1%)
Title : DD 5.1
Language : Czech
Service kind : Complete Main
Default : No
Forced : No
Original source medium : Blu-ray

Audio #5
ID : 6
ID in the original source medium : 4355 (0x1103)
Format : DTS XLL
Format/Info : Digital Theater Systems
Commercial name : DTS-HD Master Audio
Codec ID : A_DTS
Duration : 2 h 5 min
Bit rate mode : Variable
Bit rate : 2 181 kb/s
Channel(s) : 6 channels
Channel layout : C L R Ls Rs LFE
Sampling rate : 48.0 kHz
Frame rate : 93.750 FPS (512 SPF)
Bit depth : 16 bits
Compression mode : Lossless
Stream size : 1.91 GiB (3%)
Title : DTS-HD MA 5.1
Language : French
Default : No
Forced : No
Original source medium : Blu-ray

Audio #6
ID : 7
ID in the original source medium : 4356 (0x1104)
Format : DTS XLL
Format/Info : Digital Theater Systems
Commercial name : DTS-HD Master Audio
Codec ID : A_DTS
Duration : 2 h 5 min
Bit rate mode : Variable
Bit rate : 2 184 kb/s
Channel(s) : 6 channels
Channel layout : C L R Ls Rs LFE
Sampling rate : 48.0 kHz
Frame rate : 93.750 FPS (512 SPF)
Bit depth : 16 bits
Compression mode : Lossless
Stream size : 1.91 GiB (3%)
Title : DTS-HD MA 5.1
Language : German
Default : No
Forced : No
Original source medium : Blu-ray

Audio #7
ID : 8
ID in the original source medium : 4357 (0x1105)
Format : AC-3
Format/Info : Audio Coding 3
Commercial name : Dolby Digital
Codec ID : A_AC3
Duration : 2 h 5 min
Bit rate mode : Constant
Bit rate : 640 kb/s
Channel(s) : 6 channels
Channel layout : L R C LFE Ls Rs
Sampling rate : 48.0 kHz
Frame rate : 31.250 FPS (1536 SPF)
Compression mode : Lossy
Stream size : 573 MiB (1%)
Title : DD 5.1
Language : Hungarian
Service kind : Complete Main
Default : No
Forced : No
Original source medium : Blu-ray

Audio #8
ID : 9
ID in the original source medium : 4358 (0x1106)
Format : AC-3
Format/Info : Audio Coding 3
Commercial name : Dolby Digital
Codec ID : A_AC3
Duration : 2 h 5 min
Bit rate mode : Constant
Bit rate : 640 kb/s
Channel(s) : 6 channels
Channel layout : L R C LFE Ls Rs
Sampling rate : 48.0 kHz
Frame rate : 31.250 FPS (1536 SPF)
Compression mode : Lossy
Stream size : 573 MiB (1%)
Title : DD 5.1
Language : Italian
Service kind : Complete Main
Default : No
Forced : No
Original source medium : Blu-ray

Audio #9
ID : 10
ID in the original source medium : 4359 (0x1107)
Format : DTS XLL
Format/Info : Digital Theater Systems
Commercial name : DTS-HD Master Audio
Codec ID : A_DTS
Duration : 2 h 5 min
Bit rate mode : Variable
Bit rate : 2 189 kb/s
Channel(s) : 6 channels
Channel layout : C L R Ls Rs LFE
Sampling rate : 48.0 kHz
Frame rate : 93.750 FPS (512 SPF)
Bit depth : 16 bits
Compression mode : Lossless
Stream size : 1.91 GiB (3%)
Title : DTS-HD MA 5.1
Language : Japanese
Default : No
Forced : No
Original source medium : Blu-ray

Audio #10
ID : 11
ID in the original source medium : 4360 (0x1108)
Format : AC-3
Format/Info : Audio Coding 3
Commercial name : Dolby Digital
Format settings : Dolby Surround
Codec ID : A_AC3
Duration : 2 h 5 min
Bit rate mode : Constant
Bit rate : 192 kb/s
Channel(s) : 2 channels
Channel layout : L R
Sampling rate : 48.0 kHz
Frame rate : 31.250 FPS (1536 SPF)
Compression mode : Lossy
Stream size : 172 MiB (0%)
Title : DD 2.0
Language : Korean
Service kind : Complete Main
Default : No
Forced : No
Original source medium : Blu-ray

Audio #11
ID : 12
ID in the original source medium : 4361 (0x1109)
Format : AC-3
Format/Info : Audio Coding 3
Commercial name : Dolby Digital
Codec ID : A_AC3
Duration : 2 h 5 min
Bit rate mode : Constant
Bit rate : 640 kb/s
Channel(s) : 6 channels
Channel layout : L R C LFE Ls Rs
Sampling rate : 48.0 kHz
Frame rate : 31.250 FPS (1536 SPF)
Compression mode : Lossy
Stream size : 573 MiB (1%)
Title : DD 5.1
Language : Polish
Service kind : Complete Main
Default : No
Forced : No
Original source medium : Blu-ray

Audio #12
ID : 13
ID in the original source medium : 4362 (0x110A)
Format : AC-3
Format/Info : Audio Coding 3
Commercial name : Dolby Digital
Codec ID : A_AC3
Duration : 2 h 5 min
Bit rate mode : Constant
Bit rate : 640 kb/s
Channel(s) : 6 channels
Channel layout : L R C LFE Ls Rs
Sampling rate : 48.0 kHz
Frame rate : 31.250 FPS (1536 SPF)
Compression mode : Lossy
Stream size : 573 MiB (1%)
Title : DD 5.1
Language : Russian
Service kind : Complete Main
Default : No
Forced : No
Original source medium : Blu-ray

Audio #13
ID : 14
ID in the original source medium : 4363 (0x110B)
Format : DTS XLL
Format/Info : Digital Theater Systems
Commercial name : DTS-HD Master Audio
Codec ID : A_DTS
Duration : 2 h 5 min
Bit rate mode : Variable
Bit rate : 2 176 kb/s
Channel(s) : 6 channels
Channel layout : C L R Ls Rs LFE
Sampling rate : 48.0 kHz
Frame rate : 93.750 FPS (512 SPF)
Bit depth : 16 bits
Compression mode : Lossless
Stream size : 1.90 GiB (3%)
Title : DTS-HD MA 5.1
Language : Spanish
Default : No
Forced : No
Original source medium : Blu-ray

Audio #14
ID : 15
ID in the original source medium : 4364 (0x110C)
Format : AC-3
Format/Info : Audio Coding 3
Commercial name : Dolby Digital
Codec ID : A_AC3
Duration : 2 h 5 min
Bit rate mode : Constant
Bit rate : 640 kb/s
Channel(s) : 6 channels
Channel layout : L R C LFE Ls Rs
Sampling rate : 48.0 kHz
Frame rate : 31.250 FPS (1536 SPF)
Compression mode : Lossy
Stream size : 573 MiB (1%)
Title : DD 5.1
Language : Spanish
Service kind : Complete Main
Default : No
Forced : No
Original source medium : Blu-ray

Audio #15
ID : 16
ID in the original source medium : 4365 (0x110D)
Format : AC-3
Format/Info : Audio Coding 3
Commercial name : Dolby Digital
Codec ID : A_AC3
Duration : 2 h 5 min
Bit rate mode : Constant
Bit rate : 640 kb/s
Channel(s) : 6 channels
Channel layout : L R C LFE Ls Rs
Sampling rate : 48.0 kHz
Frame rate : 31.250 FPS (1536 SPF)
Compression mode : Lossy
Stream size : 573 MiB (1%)
Title : DD 5.1
Language : Thai
Service kind : Complete Main
Default : No
Forced : No
Original source medium : Blu-ray

Text #1
ID : 17
Format : UTF-8
Codec ID : S_TEXT/UTF8
Codec ID/Info : UTF-8 Plain Text
Duration : 1 h 59 min
Bit rate : 49 b/s
Count of elements : 1125
Stream size : 43.2 KiB (0%)
Title : English-SRT
Language : English
Default : Yes
Forced : No

Text #2
ID : 18
ID in the original source medium : 4768 (0x12A0)
Format : PGS
Muxing mode : zlib
Codec ID : S_HDMV/PGS
Codec ID/Info : Picture based subtitle format used on BDs/HD-DVDs
Duration : 2 h 3 min
Bit rate : 33.0 kb/s
Count of elements : 2945
Stream size : 29.3 MiB (0%)
Title : SDH
Language : English
Default : No
Forced : No
Original source medium : Blu-ray

Text #3
ID : 19
ID in the original source medium : 4769 (0x12A1)
Format : PGS
Muxing mode : zlib
Codec ID : S_HDMV/PGS
Codec ID/Info : Picture based subtitle format used on BDs/HD-DVDs
Duration : 1 h 59 min
Bit rate : 28.9 kb/s
Count of elements : 2258
Stream size : 24.7 MiB (0%)
Language : English
Default : No
Forced : No
Original source medium : Blu-ray

Text #4
ID : 20
ID in the original source medium : 4770 (0x12A2)
Format : PGS
Muxing mode : zlib
Codec ID : S_HDMV/PGS
Codec ID/Info : Picture based subtitle format used on BDs/HD-DVDs
Duration : 2 h 3 min
Bit rate : 33.0 kb/s
Count of elements : 2945
Stream size : 29.3 MiB (0%)
Title : SDH
Language : English
Default : No
Forced : No
Original source medium : Blu-ray

Text #5
ID : 21
ID in the original source medium : 4771 (0x12A3)
Format : PGS
Muxing mode : zlib
Codec ID : S_HDMV/PGS
Codec ID/Info : Picture based subtitle format used on BDs/HD-DVDs
Duration : 1 h 59 min
Bit rate : 28.9 kb/s
Count of elements : 2256
Stream size : 24.7 MiB (0%)
Language : English
Default : No
Forced : No
Original source medium : Blu-ray

Text #6
ID : 22
ID in the original source medium : 4772 (0x12A4)
Format : PGS
Muxing mode : zlib
Codec ID : S_HDMV/PGS
Codec ID/Info : Picture based subtitle format used on BDs/HD-DVDs
Duration : 1 h 59 min
Bit rate : 14.1 kb/s
Count of elements : 2328
Stream size : 12.0 MiB (0%)
Language : Arabic
Default : No
Forced : No
Original source medium : Blu-ray

Text #7
ID : 23
ID in the original source medium : 4773 (0x12A5)
Format : PGS
Muxing mode : zlib
Codec ID : S_HDMV/PGS
Codec ID/Info : Picture based subtitle format used on BDs/HD-DVDs
Duration : 2 h 4 min
Bit rate : 23.1 kb/s
Count of elements : 2331
Stream size : 20.5 MiB (0%)
Language : Chinese
Default : No
Forced : No
Original source medium : Blu-ray

Text #8
ID : 24
ID in the original source medium : 4774 (0x12A6)
Format : PGS
Muxing mode : zlib
Codec ID : S_HDMV/PGS
Codec ID/Info : Picture based subtitle format used on BDs/HD-DVDs
Duration : 1 h 59 min
Bit rate : 23.7 kb/s
Count of elements : 2328
Stream size : 20.2 MiB (0%)
Language : Chinese
Default : No
Forced : No
Original source medium : Blu-ray

Text #9
ID : 25
ID in the original source medium : 4775 (0x12A7)
Format : PGS
Muxing mode : zlib
Codec ID : S_HDMV/PGS
Codec ID/Info : Picture based subtitle format used on BDs/HD-DVDs
Duration : 2 h 4 min
Bit rate : 23.5 kb/s
Count of elements : 2282
Stream size : 20.8 MiB (0%)
Language : Czech
Default : No
Forced : No
Original source medium : Blu-ray

Text #10
ID : 26
ID in the original source medium : 4775 (0x12A7)
Format : PGS
Muxing mode : zlib
Codec ID : S_HDMV/PGS
Codec ID/Info : Picture based subtitle format used on BDs/HD-DVDs
Duration : 1 h 44 min
Bit rate : 564 b/s
Count of elements : 58
Stream size : 431 KiB (0%)
Language : Czech
Default : No
Forced : No
Original source medium : Blu-ray

Text #11
ID : 27
ID in the original source medium : 4776 (0x12A8)
Format : PGS
Muxing mode : zlib
Codec ID : S_HDMV/PGS
Codec ID/Info : Picture based subtitle format used on BDs/HD-DVDs
Duration : 2 h 4 min
Bit rate : 26.1 kb/s
Count of elements : 2288
Stream size : 23.2 MiB (0%)
Language : Danish
Default : No
Forced : No
Original source medium : Blu-ray

Text #12
ID : 28
ID in the original source medium : 4777 (0x12A9)
Format : PGS
Muxing mode : zlib
Codec ID : S_HDMV/PGS
Codec ID/Info : Picture based subtitle format used on BDs/HD-DVDs
Duration : 1 h 59 min
Bit rate : 25.2 kb/s
Count of elements : 1838
Stream size : 21.5 MiB (0%)
Language : Dutch
Default : No
Forced : No
Original source medium : Blu-ray

Text #13
ID : 29
ID in the original source medium : 4778 (0x12AA)
Format : PGS
Muxing mode : zlib
Codec ID : S_HDMV/PGS
Codec ID/Info : Picture based subtitle format used on BDs/HD-DVDs
Duration : 1 h 59 min
Bit rate : 24.7 kb/s
Count of elements : 2096
Stream size : 21.0 MiB (0%)
Language : Finnish
Default : No
Forced : No
Original source medium : Blu-ray

Text #14
ID : 30
ID in the original source medium : 4779 (0x12AB)
Format : PGS
Muxing mode : zlib
Codec ID : S_HDMV/PGS
Codec ID/Info : Picture based subtitle format used on BDs/HD-DVDs
Duration : 2 h 4 min
Bit rate : 24.4 kb/s
Count of elements : 2308
Stream size : 21.7 MiB (0%)
Language : French
Default : No
Forced : No
Original source medium : Blu-ray

Text #15
ID : 31
ID in the original source medium : 4779 (0x12AB)
Format : PGS
Muxing mode : zlib
Codec ID : S_HDMV/PGS
Codec ID/Info : Picture based subtitle format used on BDs/HD-DVDs
Duration : 1 h 35 min
Bit rate : 370 b/s
Count of elements : 34
Stream size : 259 KiB (0%)
Language : French
Default : No
Forced : No
Original source medium : Blu-ray

Text #16
ID : 32
ID in the original source medium : 4780 (0x12AC)
Format : PGS
Muxing mode : zlib
Codec ID : S_HDMV/PGS
Codec ID/Info : Picture based subtitle format used on BDs/HD-DVDs
Duration : 1 h 59 min
Bit rate : 28.8 kb/s
Count of elements : 2324
Stream size : 24.5 MiB (0%)
Language : German
Default : No
Forced : No
Original source medium : Blu-ray

Text #17
ID : 33
ID in the original source medium : 4780 (0x12AC)
Format : PGS
Muxing mode : zlib
Codec ID : S_HDMV/PGS
Codec ID/Info : Picture based subtitle format used on BDs/HD-DVDs
Duration : 43 min 56 s
Bit rate : 869 b/s
Count of elements : 34
Stream size : 280 KiB (0%)
Language : German
Default : No
Forced : No
Original source medium : Blu-ray

Text #18
ID : 34
ID in the original source medium : 4781 (0x12AD)
Format : PGS
Muxing mode : zlib
Codec ID : S_HDMV/PGS
Codec ID/Info : Picture based subtitle format used on BDs/HD-DVDs
Duration : 1 h 59 min
Bit rate : 28.8 kb/s
Count of elements : 2290
Stream size : 24.6 MiB (0%)
Language : Greek
Default : No
Forced : No
Original source medium : Blu-ray

Text #19
ID : 35
ID in the original source medium : 4782 (0x12AE)
Format : PGS
Muxing mode : zlib
Codec ID : S_HDMV/PGS
Codec ID/Info : Picture based subtitle format used on BDs/HD-DVDs
Duration : 2 h 4 min
Bit rate : 24.6 kb/s
Count of elements : 2296
Stream size : 21.9 MiB (0%)
Language : Hungarian
Default : No
Forced : No
Original source medium : Blu-ray

Text #20
ID : 36
ID in the original source medium : 4782 (0x12AE)
Format : PGS
Muxing mode : zlib
Codec ID : S_HDMV/PGS
Codec ID/Info : Picture based subtitle format used on BDs/HD-DVDs
Duration : 1 h 18 min
Bit rate : 554 b/s
Count of elements : 44
Stream size : 321 KiB (0%)
Language : Hungarian
Default : No
Forced : No
Original source medium : Blu-ray

Text #21
ID : 37
ID in the original source medium : 4783 (0x12AF)
Format : PGS
Muxing mode : zlib
Codec ID : S_HDMV/PGS
Codec ID/Info : Picture based subtitle format used on BDs/HD-DVDs
Duration : 2 h 4 min
Bit rate : 30.3 kb/s
Count of elements : 2318
Stream size : 26.9 MiB (0%)
Language : Italian
Default : No
Forced : No
Original source medium : Blu-ray

Text #22
ID : 38
ID in the original source medium : 4783 (0x12AF)
Format : PGS
Muxing mode : zlib
Codec ID : S_HDMV/PGS
Codec ID/Info : Picture based subtitle format used on BDs/HD-DVDs
Duration : 1 h 21 min
Bit rate : 809 b/s
Count of elements : 58
Stream size : 485 KiB (0%)
Language : Italian
Default : No
Forced : No
Original source medium : Blu-ray

Text #23
ID : 39
ID in the original source medium : 4784 (0x12B0)
Format : PGS
Muxing mode : zlib
Codec ID : S_HDMV/PGS
Codec ID/Info : Picture based subtitle format used on BDs/HD-DVDs
Duration : 2 h 4 min
Bit rate : 24.6 kb/s
Count of elements : 2434
Stream size : 21.8 MiB (0%)
Language : Japanese
Default : No
Forced : No
Original source medium : Blu-ray

Text #24
ID : 40
ID in the original source medium : 4785 (0x12B1)
Format : PGS
Muxing mode : zlib
Codec ID : S_HDMV/PGS
Codec ID/Info : Picture based subtitle format used on BDs/HD-DVDs
Duration : 1 h 59 min
Bit rate : 18.7 kb/s
Count of elements : 2312
Stream size : 15.9 MiB (0%)
Language : Korean
Default : No
Forced : No
Original source medium : Blu-ray

Text #25
ID : 41
ID in the original source medium : 4785 (0x12B1)
Format : PGS
Muxing mode : zlib
Codec ID : S_HDMV/PGS
Codec ID/Info : Picture based subtitle format used on BDs/HD-DVDs
Duration : 1 h 21 min
Bit rate : 485 b/s
Count of elements : 60
Stream size : 290 KiB (0%)
Language : Korean
Default : No
Forced : No
Original source medium : Blu-ray

Text #26
ID : 42
ID in the original source medium : 4786 (0x12B2)
Format : PGS
Muxing mode : zlib
Codec ID : S_HDMV/PGS
Codec ID/Info : Picture based subtitle format used on BDs/HD-DVDs
Duration : 2 h 4 min
Bit rate : 24.1 kb/s
Count of elements : 2202
Stream size : 21.4 MiB (0%)
Language : Norwegian
Default : No
Forced : No
Original source medium : Blu-ray

Text #27
ID : 43
ID in the original source medium : 4787 (0x12B3)
Format : PGS
Muxing mode : zlib
Codec ID : S_HDMV/PGS
Codec ID/Info : Picture based subtitle format used on BDs/HD-DVDs
Duration : 2 h 4 min
Bit rate : 25.0 kb/s
Count of elements : 2268
Stream size : 22.2 MiB (0%)
Language : Polish
Default : No
Forced : No
Original source medium : Blu-ray

Text #28
ID : 44
ID in the original source medium : 4787 (0x12B3)
Format : PGS
Muxing mode : zlib
Codec ID : S_HDMV/PGS
Codec ID/Info : Picture based subtitle format used on BDs/HD-DVDs
Duration : 1 h 44 min
Bit rate : 584 b/s
Count of elements : 56
Stream size : 446 KiB (0%)
Language : Polish
Default : No
Forced : No
Original source medium : Blu-ray

Text #29
ID : 45
ID in the original source medium : 4788 (0x12B4)
Format : PGS
Muxing mode : zlib
Codec ID : S_HDMV/PGS
Codec ID/Info : Picture based subtitle format used on BDs/HD-DVDs
Duration : 2 h 4 min
Bit rate : 28.2 kb/s
Count of elements : 2314
Stream size : 25.0 MiB (0%)
Language : Portuguese
Default : No
Forced : No
Original source medium : Blu-ray

Text #30
ID : 46
ID in the original source medium : 4789 (0x12B5)
Format : PGS
Muxing mode : zlib
Codec ID : S_HDMV/PGS
Codec ID/Info : Picture based subtitle format used on BDs/HD-DVDs
Duration : 1 h 59 min
Bit rate : 25.7 kb/s
Count of elements : 2258
Stream size : 21.9 MiB (0%)
Language : Romanian
Default : No
Forced : No
Original source medium : Blu-ray

Text #31
ID : 47
ID in the original source medium : 4790 (0x12B6)
Format : PGS
Muxing mode : zlib
Codec ID : S_HDMV/PGS
Codec ID/Info : Picture based subtitle format used on BDs/HD-DVDs
Duration : 1 h 59 min
Bit rate : 27.1 kb/s
Count of elements : 2122
Stream size : 23.2 MiB (0%)
Language : Russian
Default : No
Forced : No
Original source medium : Blu-ray

Text #32
ID : 48
ID in the original source medium : 4790 (0x12B6)
Format : PGS
Muxing mode : zlib
Codec ID : S_HDMV/PGS
Codec ID/Info : Picture based subtitle format used on BDs/HD-DVDs
Duration : 1 h 19 min
Bit rate : 120 b/s
Count of elements : 8
Stream size : 70.3 KiB (0%)
Language : Russian
Default : No
Forced : No
Original source medium : Blu-ray

Text #33
ID : 49
ID in the original source medium : 4791 (0x12B7)
Format : PGS
Muxing mode : zlib
Codec ID : S_HDMV/PGS
Codec ID/Info : Picture based subtitle format used on BDs/HD-DVDs
Duration : 1 h 59 min
Bit rate : 23.6 kb/s
Count of elements : 2300
Stream size : 20.1 MiB (0%)
Language : Slovenian
Default : No
Forced : No
Original source medium : Blu-ray

Text #34
ID : 50
ID in the original source medium : 4792 (0x12B8)
Format : PGS
Muxing mode : zlib
Codec ID : S_HDMV/PGS
Codec ID/Info : Picture based subtitle format used on BDs/HD-DVDs
Duration : 1 h 59 min
Bit rate : 26.6 kb/s
Count of elements : 2254
Stream size : 22.7 MiB (0%)
Language : Spanish
Default : No
Forced : No
Original source medium : Blu-ray

Text #35
ID : 51
ID in the original source medium : 4792 (0x12B8)
Format : PGS
Muxing mode : zlib
Codec ID : S_HDMV/PGS
Codec ID/Info : Picture based subtitle format used on BDs/HD-DVDs
Duration : 43 min 51 s
Bit rate : 783 b/s
Count of elements : 34
Stream size : 252 KiB (0%)
Language : Spanish
Default : No
Forced : No
Original source medium : Blu-ray

Text #36
ID : 52
ID in the original source medium : 4793 (0x12B9)
Format : PGS
Muxing mode : zlib
Codec ID : S_HDMV/PGS
Codec ID/Info : Picture based subtitle format used on BDs/HD-DVDs
Duration : 1 h 59 min
Bit rate : 28.3 kb/s
Count of elements : 2354
Stream size : 24.1 MiB (0%)
Language : Spanish
Default : No
Forced : No
Original source medium : Blu-ray

Text #37
ID : 53
ID in the original source medium : 4793 (0x12B9)
Format : PGS
Muxing mode : zlib
Codec ID : S_HDMV/PGS
Codec ID/Info : Picture based subtitle format used on BDs/HD-DVDs
Duration : 1 h 21 min
Bit rate : 325 b/s
Count of elements : 22
Stream size : 194 KiB (0%)
Language : Spanish
Default : No
Forced : No
Original source medium : Blu-ray

Text #38
ID : 54
ID in the original source medium : 4794 (0x12BA)
Format : PGS
Muxing mode : zlib
Codec ID : S_HDMV/PGS
Codec ID/Info : Picture based subtitle format used on BDs/HD-DVDs
Duration : 2 h 4 min
Bit rate : 23.6 kb/s
Count of elements : 2102
Stream size : 21.0 MiB (0%)
Language : Swedish
Default : No
Forced : No
Original source medium : Blu-ray

Text #39
ID : 55
ID in the original source medium : 4795 (0x12BB)
Format : PGS
Muxing mode : zlib
Codec ID : S_HDMV/PGS
Codec ID/Info : Picture based subtitle format used on BDs/HD-DVDs
Duration : 1 h 59 min
Bit rate : 24.3 kb/s
Count of elements : 2300
Stream size : 20.7 MiB (0%)
Language : Thai
Default : No
Forced : No
Original source medium : Blu-ray

Text #40
ID : 56
ID in the original source medium : 4795 (0x12BB)
Format : PGS
Muxing mode : zlib
Codec ID : S_HDMV/PGS
Codec ID/Info : Picture based subtitle format used on BDs/HD-DVDs
Duration : 1 h 28 min
Bit rate : 330 b/s
Count of elements : 28
Stream size : 213 KiB (0%)
Language : Thai
Default : No
Forced : No
Original source medium : Blu-ray

Text #41
ID : 57
ID in the original source medium : 4796 (0x12BC)
Format : PGS
Muxing mode : zlib
Codec ID : S_HDMV/PGS
Codec ID/Info : Picture based subtitle format used on BDs/HD-DVDs
Duration : 2 h 4 min
Bit rate : 25.1 kb/s
Count of elements : 2312
Stream size : 22.3 MiB (0%)
Language : Turkish
Default : No
Forced : No
Original source medium : Blu-ray

Text #42
ID : 58
ID in the original source medium : 4797 (0x12BD)
Format : PGS
Muxing mode : zlib
Codec ID : S_HDMV/PGS
Codec ID/Info : Picture based subtitle format used on BDs/HD-DVDs
Duration : 1 h 50 min
Bit rate : 1 880 b/s
Count of elements : 154
Stream size : 1.49 MiB (0%)
Language : Japanese
Default : No
Forced : No
Original source medium : Blu-ray

Menu
00:00:00.000 : Chapter 01
00:08:48.986 : Chapter 02
00:15:04.612 : Chapter 03
00:22:48.408 : Chapter 04
00:30:24.781 : Chapter 05
00:42:44.061 : Chapter 06
00:49:51.697 : Chapter 07
00:56:47.362 : Chapter 08
01:03:18.628 : Chapter 09
01:08:37.780 : Chapter 10
01:22:08.214 : Chapter 11
01:30:11.697 : Chapter 12
01:36:27.907 : Chapter 13
01:45:13.724 : Chapter 14
01:48:56.321 : Chapter 15
01:56:41.995 : Chapter 16

本帖子中包含更多资源

您需要 登录 才可以下载或查看,没有帐号?立即注册

x
回复

使用道具 举报

0

主题

774

帖子

3045

积分

论坛元老

Rank: 8Rank: 8

积分
3045
发表于 2021-5-2 16:17:26 | 显示全部楼层
感谢楼主分享
回复

使用道具 举报

0

主题

1216

帖子

5137

积分

论坛元老

Rank: 8Rank: 8

积分
5137
发表于 2021-5-3 20:18:41 | 显示全部楼层
感谢楼主分享高清影片
回复

使用道具 举报

0

主题

307

帖子

1436

积分

金牌会员

Rank: 6Rank: 6

积分
1436
发表于 7 天前 | 显示全部楼层
感谢楼主
回复

使用道具 举报

0

主题

136

帖子

285

积分

中级会员

Rank: 3Rank: 3

积分
285
发表于 5 天前 | 显示全部楼层
感谢楼主分享!支持
回复

使用道具 举报

您需要登录后才可以回帖 登录 | 立即注册

本版积分规则

QQ|Archiver|手机版|小黑屋|原盘天堂 好多盘 点击这里给我发消息

GMT+8, 2021-5-11 15:37 , Processed in 0.059238 second(s), 24 queries .

Powered by Discuz! X3.4

Copyright © 2001-2020, Tencent Cloud.

快速回复 返回顶部 返回列表