请选择 进入手机版 | 继续访问电脑版
本站Q群713428235【盘盘多】已满,请新会员加原盘天堂新官方QQ群709708625【好多盘】,验证信息填写您在论坛的会员名,不填会员名的无法入群哈,进群后修改您的群名片名字为您在论坛的会员名,请务必修改,否则群成员多了不知道您是哪个会员。

原盘天堂

 找回密码
 立即注册
京东商城当当华为商城名牌时尚折扣网,一个新型的网上购物平台,我们每周为您精选3~4个国际知名品牌,商品折扣低至2折限时限量售卖,商品囊括时装、护肤品、箱包、皮具、配饰、香水等等,琳琅满目。亿格瑞A10硬盘播放器 苏宁易购
查看: 143|回复: 8

4k蓝光原盘bdmv 特种空勤团:红色通缉令 英语原版 sas.red.notice.2021.2160p.bluray.hevc.dts-hd.ma.5.1[57.05 GB]

[复制链接]

5958

主题

6606

帖子

132万

积分

管理员

Rank: 18Rank: 18Rank: 18Rank: 18Rank: 18

积分
1329770
发表于 2021-5-2 09:49:16 | 显示全部楼层 |阅读模式








特种空勤团:红色通缉令 SAS: Red Notice (2021)

◎译  名 特种空勤团:红色通缉令/SAS:红色通知
◎片  名 SAS: Red Notice
◎年  代 2021
◎产  地 英国/匈牙利/荷兰/瑞士
◎类  别 动作/犯罪
◎语  言 英语
◎上映日期 2021-03-12(英国)
◎IMDb链接  https://www.imdb.com/title/tt4479380/
◎豆瓣评分 5.4/10 from 593 users
◎豆瓣链接 https://douban.com/subject/26322998/
◎导  演 马格努斯·马滕斯 Magnus Martens / 尼克·拉夫 Nick Love
◎编  剧 Andy McNab
◎主  演 萨姆·修汉 Sam Heughan
       鲁比·罗丝 Ruby Rose
       安迪·瑟金斯 Andy Serkis
       汉娜·乔恩-卡门 Hannah John-Kamen
       汤姆·霍珀 Tom Hopper
       诺埃尔·克拉克 Noel Clarke
       汤姆·威尔金森 Tom Wilkinson
       欧文·约曼 Owain Yeoman
       雷·潘莎基 Ray Panthaki
       安妮·雷德 Anne Reid
       陆思敬 Jing Lusi
       萨拉·温特 Sarah Winter
       理查德·麦凯布 Richard McCabe
       道格拉斯·瑞斯 Douglas Reith
       戴兰·史密斯 Dylan Smith
       卡罗琳·博尔顿 Caroline Boulton
       阿提拉·阿帕 Attila Árpa
       蒂姆·费林汉姆 Tim Fellingham
       泰·赫尔利 Ty Hurley
       马丁·安格鲍尔 Martin Angerbauer
       罗德里克·希尔 Roderick Hill
       巴尔·瓦斯维尔斯 Balázs Veres

◎标  签 动作 | 英国 | 犯罪 | 2021 | 电影 | 2020观影 | B欧洲 | 成片

◎简  介

  
  一支由拉兹洛·安东诺夫领导的训练有素的罪犯组成的小部队在英吉利海峡深处劫持了“欧洲之星”。
  
DISC INFO:

Disc Title:     S.A.S.Red.Notice.2021.MULTi.COMPLETE.UHD.BLURAY.iNTERNAL-SharpHD
Disc Size:      61,234,141,399 bytes
Protection:     AACS2
Extras:         Ultra HD, BD-Java
BDInfo:         0.7.5.9 (compatible layout created by DVDFab 12.0.2.6)

PLAYLIST REPORT:

Name:                   00001.MPLS  
Length:                 2:03:39.166 (h:m:s.ms)
Size:                   53,662,195,392 bytes
Total Bitrate:          57.86 Mbps

VIDEO:

Codec                   Bitrate             Description     
-----                   -------             -----------     
MPEG-H HEVC Video       47412 kbps          2160p / 24 fps / 16:9 / Main 10 @ Level 5.1 @ High / 4:2:0 / 10 bits / 1000nits / HDR10+ v1 Profile B / BT.2020

AUDIO:

Codec                           Language        Bitrate         Description     
-----                           --------        -------         -----------     
DTS-HD Master Audio             German          3704 kbps       5.1 / 48 kHz / 3704 kbps / 24-bit (DTS Core: 5.1 / 48 kHz / 1509 kbps / 24-bit)
DTS-HD Master Audio             English         3622 kbps       5.1 / 48 kHz / 3622 kbps / 24-bit (DTS Core: 5.1 / 48 kHz / 1509 kbps / 24-bit)

SUBTITLES:

Codec                           Language        Bitrate         Description     
-----                           --------        -------         -----------     
Presentation Graphics           German          38.44 kbps                     
Presentation Graphics           German          1.302 kbps   

Video
ID : 1
ID in the original source medium : 4113 (0x1011)
Format : HEVC
Format/Info : High Efficiency Video Coding
Format profile : Main [email protected]@High
HDR format : SMPTE ST 2094 App 4, Version 1, HDR10+ Profile B compatible
Codec ID : V_MPEGH/ISO/HEVC
Duration : 2 h 4 min
Bit rate : 47.4 Mb/s
Width : 3 840 pixels
Height : 2 160 pixels
Display aspect ratio : 16:9
Frame rate mode : Constant
Frame rate : 24.000 FPS
Color space : YUV
Chroma subsampling : 4:2:0 (Type 2)
Bit depth : 10 bits
Bits/(Pixel*Frame) : 0.238
Stream size : 41.1 GiB (86%)
Language : English
Default : No
Forced : No
Color range : Limited
Color primaries : BT.2020
Transfer characteristics : PQ
Matrix coefficients : BT.2020 non-constant
Mastering display color primaries : Display P3
Mastering display luminance : min: 0.0001 cd/m2, max: 1000 cd/m2
Maximum Content Light Level : 2579 cd/m2
Maximum Frame-Average Light Level : 530 cd/m2
Original source medium : Blu-ray

Audio #1
ID : 2
ID in the original source medium : 4353 (0x1101)
Format : DTS XLL
Format/Info : Digital Theater Systems
Commercial name : DTS-HD Master Audio
Codec ID : A_DTS
Duration : 2 h 4 min
Bit rate mode : Variable
Bit rate : 3 622 kb/s
Channel(s) : 6 channels
Channel layout : C L R Ls Rs LFE
Sampling rate : 48.0 kHz
Frame rate : 93.750 FPS (512 SPF)
Bit depth : 24 bits
Compression mode : Lossless
Stream size : 3.14 GiB (7%)
Title : DTS-HD MA 5.1
Language : English
Default : Yes
Forced : No
Original source medium : Blu-ray

Audio #2
ID : 3
Format : AC-3
Format/Info : Audio Coding 3
Commercial name : Dolby Digital
Codec ID : A_AC3
Duration : 2 h 4 min
Bit rate mode : Constant
Bit rate : 640 kb/s
Channel(s) : 6 channels
Channel layout : L R C LFE Ls Rs
Sampling rate : 48.0 kHz
Frame rate : 31.250 FPS (1536 SPF)
Compression mode : Lossy
Stream size : 568 MiB (1%)
Title : DD 5.1
Language : English
Service kind : Complete Main
Default : No
Forced : No

Audio #3
ID : 4
ID in the original source medium : 4352 (0x1100)
Format : DTS XLL
Format/Info : Digital Theater Systems
Commercial name : DTS-HD Master Audio
Codec ID : A_DTS
Duration : 2 h 4 min
Bit rate mode : Variable
Bit rate : 3 704 kb/s
Channel(s) : 6 channels
Channel layout : C L R Ls Rs LFE
Sampling rate : 48.0 kHz
Frame rate : 93.750 FPS (512 SPF)
Bit depth : 24 bits
Compression mode : Lossless
Stream size : 3.21 GiB (7%)
Title : DTS-HD MA 5.1
Language : German
Default : No
Forced : No
Original source medium : Blu-ray

Text #1
ID : 5
Format : UTF-8
Codec ID : S_TEXT/UTF8
Codec ID/Info : UTF-8 Plain Text
Duration : 1 h 57 min
Bit rate : 50 b/s
Count of elements : 1406
Stream size : 43.9 KiB (0%)
Title : English-SRT
Language : English
Default : Yes
Forced : No

Text #2
ID : 6
ID in the original source medium : 4768 (0x12A0)
Format : PGS
Muxing mode : zlib
Codec ID : S_HDMV/PGS
Codec ID/Info : Picture based subtitle format used on BDs/HD-DVDs
Duration : 1 h 57 min
Bit rate : 40.5 kb/s
Count of elements : 2432
Stream size : 34.1 MiB (0%)
Title : German-PGS
Language : German
Default : No
Forced : No
Original source medium : Blu-ray

Text #3
ID : 7
ID in the original source medium : 4769 (0x12A1)
Format : PGS
Muxing mode : zlib
Codec ID : S_HDMV/PGS
Codec ID/Info : Picture based subtitle format used on BDs/HD-DVDs
Duration : 1 h 53 min
Bit rate : 1 420 b/s
Count of elements : 106
Stream size : 1.15 MiB (0%)
Title : German-FORCED-PGS
Language : German
Default : No
Forced : No
Original source medium : Blu-ray

Menu
00:00:00.000 : Chapter 01
00:06:55.333 : Chapter 02
00:18:19.958 : Chapter 03
00:30:29.166 : Chapter 04
00:39:41.208 : Chapter 05
00:50:07.916 : Chapter 06
01:00:41.916 : Chapter 07
01:11:53.375 : Chapter 08
01:21:51.875 : Chapter 09
01:34:23.416 : Chapter 10
01:49:15.125 : Chapter 11
01:58:18.333 : Chapter 12
02:03:38.541 : Chapter 13

本帖子中包含更多资源

您需要 登录 才可以下载或查看,没有帐号?立即注册

x
回复

使用道具 举报

0

主题

774

帖子

3045

积分

论坛元老

Rank: 8Rank: 8

积分
3045
发表于 2021-5-2 16:20:14 | 显示全部楼层
感谢楼主分享
回复

使用道具 举报

0

主题

13

帖子

305

积分

中级会员

Rank: 3Rank: 3

积分
305
发表于 2021-5-2 19:29:54 | 显示全部楼层
为什么又有权限?????、
回复

使用道具 举报

0

主题

166

帖子

1761

积分

金牌会员

Rank: 6Rank: 6

积分
1761
发表于 2021-5-3 03:52:48 | 显示全部楼层
pj评价分不高哎
回复

使用道具 举报

5958

主题

6606

帖子

132万

积分

管理员

Rank: 18Rank: 18Rank: 18Rank: 18Rank: 18

积分
1329770
 楼主| 发表于 2021-5-3 07:36:58 | 显示全部楼层
网事随风1970 发表于 2021-5-2 19:29
为什么又有权限?????、

4K是本站VIP资源,请购买VIP进行下载
回复

使用道具 举报

0

主题

1216

帖子

5137

积分

论坛元老

Rank: 8Rank: 8

积分
5137
发表于 2021-5-3 20:15:51 | 显示全部楼层
感谢楼主分享高清影片
回复

使用道具 举报

0

主题

774

帖子

3045

积分

论坛元老

Rank: 8Rank: 8

积分
3045
发表于 2021-5-3 22:33:09 | 显示全部楼层
感谢楼主分享
回复

使用道具 举报

0

主题

307

帖子

1436

积分

金牌会员

Rank: 6Rank: 6

积分
1436
发表于 7 天前 | 显示全部楼层
感谢楼主
回复

使用道具 举报

0

主题

2

帖子

9

积分

新手上路

Rank: 1

积分
9
发表于 6 天前 | 显示全部楼层
感觉这部影片很火爆的样子。
回复

使用道具 举报

您需要登录后才可以回帖 登录 | 立即注册

本版积分规则

QQ|Archiver|手机版|小黑屋|原盘天堂 好多盘 点击这里给我发消息

GMT+8, 2021-5-11 16:23 , Processed in 0.062731 second(s), 25 queries .

Powered by Discuz! X3.4

Copyright © 2001-2020, Tencent Cloud.

快速回复 返回顶部 返回列表