请选择 进入手机版 | 继续访问电脑版
本站Q群713428235【盘盘多】已满,请新会员加原盘天堂新官方QQ群709708625【好多盘】,验证信息填写您在论坛的会员名,不填会员名的无法入群哈,进群后修改您的群名片名字为您在论坛的会员名,请务必修改,否则群成员多了不知道您是哪个会员。

原盘天堂

 找回密码
 立即注册
京东商城当当华为商城名牌时尚折扣网,一个新型的网上购物平台,我们每周为您精选3~4个国际知名品牌,商品折扣低至2折限时限量售卖,商品囊括时装、护肤品、箱包、皮具、配饰、香水等等,琳琅满目。亿格瑞A10硬盘播放器 苏宁易购
查看: 106|回复: 6

4k蓝光原盘bdmv 云中阴影 英语原版 shadow.in.the.cloud.2020.2160p.bluray.hevc.dts-hd.ma.5.1[61.27 GB]

[复制链接]

5958

主题

6605

帖子

132万

积分

管理员

Rank: 18Rank: 18Rank: 18Rank: 18Rank: 18

积分
1329763
发表于 2021-5-2 09:32:43 | 显示全部楼层 |阅读模式








云中阴影 Shadow In The Cloud (2020)

◎译  名 云中阴影/云中的阴影/致命天际线(台)
◎片  名 Shadow In The Cloud
◎年  代 2020
◎产  地 新西兰/美国
◎类  别 动作/恐怖
◎语  言 英语
◎上映日期 2020-09-12(多伦多电影节)/2021-01-01(美国)
◎IMDb链接  https://www.imdb.com/title/tt9691136/
◎豆瓣评分 5.2/10 from 2520 users
◎豆瓣链接 https://douban.com/subject/30449238/
◎片  长 83分钟
◎导  演 罗丝安妮·梁 Roseanne Liang
◎编  剧 马克斯·兰迪斯   Max Landis / 罗丝安妮·梁 Roseanne Liang
◎主  演 科洛·莫瑞兹 Chloë Grace Moretz
       尼克·罗宾森 Nick Robinson
       比尤拉·寇尔 Beulah Koale
       泰勒·约翰·史密斯 Taylor John Smith
       卡兰·马尔韦 Callan Mulvey
       拜伦·科尔 Byron Coll

◎标  签 动作 | 美国 | 惊悚 | 恐怖 | 2020 | 战争 | 二战 | 新西兰

◎简  介

  
  科洛·莫瑞兹将出演动作恐怖新片[云中阴影](Shadow In The Cloud,暂译)。本片由罗丝安妮·梁执导,马克斯·兰迪斯([超能失控])撰写剧本。莫瑞兹扮演一名携带绝密文件的上尉,她登上B-17轰炸机与迎面而来的日本伏击以及全男性的机组人员作斗争。
  

◎获奖情况

  第45届多伦多国际电影节  (2020)
  观众选择奖午夜疯狂单元

DISC INFO:

Disc Title:     Shadow.in.the.Cloud.2020.COMPLETE.UHD.BLURAY.iNTERNAL-SharpHD
Disc Size:      65,765,503,255 bytes
Protection:     AACS2
Extras:         Ultra HD
BDInfo:         0.7.5.9 (compatible layout created by DVDFab 12.0.2.6)

PLAYLIST REPORT:

Name:                   00001.MPLS  
Length:                 1:23:15.198 (h:m:s.ms)
Size:                   58,519,111,680 bytes
Total Bitrate:          93.72 Mbps

(*) Indicates included stream hidden by this playlist.

VIDEO:

Codec                   Bitrate             Description     
-----                   -------             -----------     
MPEG-H HEVC Video       85041 kbps          2160p / 23.976 fps / 16:9 / Main 10 @ Level 5.1 @ High / 4:2:0 / 10 bits / 1000nits / HDR10+ v1 Profile B / BT.2020
* MPEG-H HEVC Video     104 kbps (0.12%)    1080p / 23.976 fps / 16:9 / Main 10 @ Level 5.1 @ High / 4:2:0 / 10 bits / 1000nits / Dolby Vision MEL / BT.2020

AUDIO:

Codec                           Language        Bitrate         Description     
-----                           --------        -------         -----------     
DTS-HD Master Audio             German          2049 kbps       5.1 / 48 kHz / 2049 kbps / 16-bit (DTS Core: 5.1 / 48 kHz / 1509 kbps / 16-bit)
DTS-HD Master Audio             English         2033 kbps       5.1 / 48 kHz / 2033 kbps / 16-bit (DTS Core: 5.1 / 48 kHz / 1509 kbps / 16-bit)

SUBTITLES:

Codec                           Language        Bitrate         Description     
-----                           --------        -------         -----------     
Presentation Graphics           German          40.562 kbps                     
Presentation Graphics           German          0.149 kbps   

Video
ID : 1
ID in the original source medium : 4113 (0x1011)
Format : HEVC
Format/Info : High Efficiency Video Coding
Format profile : Main [email protected]@High
HDR format : SMPTE ST 2094 App 4, Version 1, HDR10+ Profile B compatible
Codec ID : V_MPEGH/ISO/HEVC
Duration : 1 h 23 min
Bit rate : 85.0 Mb/s
Width : 3 840 pixels
Height : 2 160 pixels
Display aspect ratio : 16:9
Frame rate mode : Constant
Frame rate : 23.976 (24000/1001) FPS
Color space : YUV
Chroma subsampling : 4:2:0 (Type 2)
Bit depth : 10 bits
Bits/(Pixel*Frame) : 0.428
Stream size : 49.5 GiB (95%)
Language : English
Default : No
Forced : No
Color range : Limited
Color primaries : BT.2020
Transfer characteristics : PQ
Matrix coefficients : BT.2020 non-constant
Mastering display color primaries : Display P3
Mastering display luminance : min: 0.0001 cd/m2, max: 1000 cd/m2
Maximum Content Light Level : 2340 cd/m2
Maximum Frame-Average Light Level : 400 cd/m2
Original source medium : Blu-ray

Audio #1
ID : 2
ID in the original source medium : 4353 (0x1101)
Format : DTS XLL
Format/Info : Digital Theater Systems
Commercial name : DTS-HD Master Audio
Codec ID : A_DTS
Duration : 1 h 23 min
Bit rate mode : Variable
Bit rate : 2 033 kb/s
Channel(s) : 6 channels
Channel layout : C L R Ls Rs LFE
Sampling rate : 48.0 kHz
Frame rate : 93.750 FPS (512 SPF)
Bit depth : 16 bits
Compression mode : Lossless
Stream size : 1.18 GiB (2%)
Title : DTS-HD MA 5.1
Language : English
Default : Yes
Forced : No
Original source medium : Blu-ray

Audio #2
ID : 3
Format : AC-3
Format/Info : Audio Coding 3
Commercial name : Dolby Digital
Codec ID : A_AC3
Duration : 1 h 23 min
Bit rate mode : Constant
Bit rate : 640 kb/s
Channel(s) : 6 channels
Channel layout : L R C LFE Ls Rs
Sampling rate : 48.0 kHz
Frame rate : 31.250 FPS (1536 SPF)
Compression mode : Lossy
Stream size : 381 MiB (1%)
Title : DD 5.1
Language : English
Service kind : Complete Main
Default : No
Forced : No

Audio #3
ID : 4
ID in the original source medium : 4352 (0x1100)
Format : DTS XLL
Format/Info : Digital Theater Systems
Commercial name : DTS-HD Master Audio
Codec ID : A_DTS
Duration : 1 h 23 min
Bit rate mode : Variable
Bit rate : 2 049 kb/s
Channel(s) : 6 channels
Channel layout : C L R Ls Rs LFE
Sampling rate : 48.0 kHz
Frame rate : 93.750 FPS (512 SPF)
Bit depth : 16 bits
Compression mode : Lossless
Stream size : 1.19 GiB (2%)
Title : DTS-HD MA 5.1
Language : German
Default : No
Forced : No
Original source medium : Blu-ray

Text #1
ID : 5
Format : UTF-8
Codec ID : S_TEXT/UTF8
Codec ID/Info : UTF-8 Plain Text
Duration : 1 h 16 min
Bit rate : 71 b/s
Count of elements : 1097
Stream size : 40.0 KiB (0%)
Title : English-SRT
Language : English
Default : Yes
Forced : No

Text #2
ID : 6
ID in the original source medium : 4768 (0x12A0)
Format : PGS
Muxing mode : zlib
Codec ID : S_HDMV/PGS
Codec ID/Info : Picture based subtitle format used on BDs/HD-DVDs
Duration : 1 h 15 min
Bit rate : 44.7 kb/s
Count of elements : 1860
Stream size : 24.2 MiB (0%)
Title : German-PGS
Language : German
Default : No
Forced : No
Original source medium : Blu-ray

Text #3
ID : 7
ID in the original source medium : 4769 (0x12A1)
Format : PGS
Muxing mode : zlib
Codec ID : S_HDMV/PGS
Codec ID/Info : Picture based subtitle format used on BDs/HD-DVDs
Duration : 1 h 13 min
Bit rate : 169 b/s
Count of elements : 8
Stream size : 90.7 KiB (0%)
Title : German-FORCED-PGS
Language : German
Default : No
Forced : No
Original source medium : Blu-ray

Menu
00:00:00.000 : Chapter 01
00:05:02.302 : Chapter 02
00:13:46.826 : Chapter 03
00:21:53.312 : Chapter 04
00:27:02.621 : Chapter 05
00:33:59.037 : Chapter 06
00:40:49.447 : Chapter 07
00:47:54.872 : Chapter 08
00:56:19.376 : Chapter 09
01:01:34.691 : Chapter 10
01:07:53.069 : Chapter 11
01:14:39.475 : Chapter 12
01:23:04.980 : Chapter 13

本帖子中包含更多资源

您需要 登录 才可以下载或查看,没有帐号?立即注册

x
回复

使用道具 举报

0

主题

774

帖子

3045

积分

论坛元老

Rank: 8Rank: 8

积分
3045
发表于 2021-5-2 16:21:18 | 显示全部楼层
感谢楼主分享
回复

使用道具 举报

0

主题

321

帖子

1869

积分

金牌会员

Rank: 6Rank: 6

积分
1869
发表于 2021-5-2 18:02:54 | 显示全部楼层
感谢楼主分享
回复

使用道具 举报

0

主题

1

帖子

7

积分

新手上路

Rank: 1

积分
7
发表于 2021-5-3 11:12:16 | 显示全部楼层

感谢楼主分享
回复

使用道具 举报

0

主题

1216

帖子

5137

积分

论坛元老

Rank: 8Rank: 8

积分
5137
发表于 2021-5-3 20:28:50 | 显示全部楼层
感谢楼主分享高清影片
回复

使用道具 举报

0

主题

307

帖子

1436

积分

金牌会员

Rank: 6Rank: 6

积分
1436
发表于 7 天前 | 显示全部楼层
感谢楼主
回复

使用道具 举报

0

主题

774

帖子

3045

积分

论坛元老

Rank: 8Rank: 8

积分
3045
发表于 1 小时前 | 显示全部楼层
感谢楼主分享高清影片
回复

使用道具 举报

您需要登录后才可以回帖 登录 | 立即注册

本版积分规则

QQ|Archiver|手机版|小黑屋|原盘天堂 好多盘 点击这里给我发消息

GMT+8, 2021-5-11 15:30 , Processed in 0.056180 second(s), 25 queries .

Powered by Discuz! X3.4

Copyright © 2001-2020, Tencent Cloud.

快速回复 返回顶部 返回列表