请选择 进入手机版 | 继续访问电脑版
本站Q群713428235【盘盘多】已满,请新会员加原盘天堂新官方QQ群709708625【好多盘】,验证信息填写您在论坛的会员名,不填会员名的无法入群哈,进群后修改您的群名片名字为您在论坛的会员名,请务必修改,否则群成员多了不知道您是哪个会员。

原盘天堂

 找回密码
 立即注册
京东商城当当华为商城名牌时尚折扣网,一个新型的网上购物平台,我们每周为您精选3~4个国际知名品牌,商品折扣低至2折限时限量售卖,商品囊括时装、护肤品、箱包、皮具、配饰、香水等等,琳琅满目。亿格瑞A10硬盘播放器 苏宁易购
查看: 116|回复: 6

4k蓝光原盘bdmv 生死时速 英语原版 speed.1994.2160p.bluray.hevc.dts-hd.ma.5.1[59.64 GB]

[复制链接]

5958

主题

6606

帖子

132万

积分

管理员

Rank: 18Rank: 18Rank: 18Rank: 18Rank: 18

积分
1329770
发表于 2021-5-2 09:05:53 | 显示全部楼层 |阅读模式








生死时速 Speed (1994)

◎译  名 生死时速/捍卫战警(台)
◎片  名 Speed
◎年  代 1994
◎产  地 美国
◎类  别 动作/惊悚/犯罪/冒险
◎语  言 英语
◎上映日期 1994-06-10(美国)
◎IMDb链接  https://www.imdb.com/title/tt0111257/
◎豆瓣评分 8.1/10 from 104849 users
◎豆瓣链接 https://douban.com/subject/1293167/
◎片  长 116分钟
◎导  演 扬·德·邦特 Jan de Bont
◎编  剧 格雷厄姆·约斯特 Graham Yost
◎主  演 基努·里维斯 Keanu Reeves
       桑德拉·布洛克 Sandra Bullock
       丹尼斯·霍珀 Dennis Hopper
       乔·莫顿 Joe Morton
       杰夫·丹尼尔斯 Jeff Daniels
       阿兰·卢克 Alan Ruck
       格伦·普拉默 Glenn Plummer
       丹尼尔·比利亚雷亚尔 Daniel Villarreal
       贝丝·格兰特 Beth Grant
       乔丹·朗德 Jordan Lund
       理查德·梅尔豪斯 Robert Mailhouse
       派特里克·费斯克勒 Patrick Fischler
       Patrick John Hurley
       Anne O'Sullivan
       博斯塔尔 Beau Starr
       约翰·卡波迪斯 John Capodice
       小托马斯·罗萨莱斯 Thomas Rosales Jr.
       詹姆斯·杜蒙特 James DuMont
       Antonio Mora
       Mark Kriski
       Dagny Hultgreen
       理查德·希夫 Richard Schiff
       桑迪·马丁 Sandy Martin
       Jim Mapp
       Loyda Ramos
       朱莉娅·维拉 Julia Vera
       Randy Algoe
       维罗尼卡·卡维特 Veronica Cartwright
       马克·戈登 Mark Gordon
       Craig Hosking
       J. David Jones
       Christopher C. Murphy
       迈克尔·塔姆布洛 Michael Tamburro
       Eddie Yansick
       弥尔顿·奎 Milton Quon
       沈晓谦 Xiaoqian Shen
       户田惠子 Keiko Toda

◎标  签 动作 | 美国 | KeanuReeves | 经典 | 美国电影 | 生死时速 | 犯罪 | 1994

◎简  介

  
  退休炸弹专家佩恩(丹尼斯•霍珀 Dennis Hopper  饰)因不满政府的退休政策,产生了报复社会的念头。他先是在电梯里安装炸弹,劫持人质勒索100万美元赎金,但被特警杰克(基努•李维斯 Keanu Reeves 饰)拆除了炸弹,救出了人质。佩恩趁乱逃脱。
  
  一计不成,佩恩并没有放弃,他继续他疯狂的计划。这次他炸毁了一辆公车,并在另一辆公车上安装了炸弹,只要该公车的时速超过了50英里就不能再减速,否则就会引起爆炸。当杰克赶上这辆公车时,公车已经满载乘客行驶在高速公路上,时速也早已过了50英里。
  
  杰克是俗称的“胆生毛”,他冒险上了公车,和佩恩之间的生死时速开始了。
  

◎获奖情况

  第67届奥斯卡金像奖  (1995)
  最佳剪辑(提名) 约翰·赖特
  最佳音效剪辑 斯蒂芬·亨特·弗利克
  最佳音响 格雷格·兰达克 / 大卫·麦克米兰 / 鲍勃·贝默尔 / 史蒂夫·马斯洛
  
  第48届英国电影学院奖  (1995)
  电影奖最佳剪辑 约翰·赖特
  电影奖最佳特殊视觉效果(提名) 博伊德·谢尔米斯 / 罗恩·布林克曼 / 理查德·E·霍兰德尔 / 约翰·弗雷泽
  电影奖最佳音效 格雷格·兰达克 / 大卫·麦克米兰 / 斯蒂芬·亨特·弗利克 / 史蒂夫·马斯洛 / 鲍勃·贝默尔
  
  第18届日本电影学院奖  (1995)
  最佳外语片(提名)

DISC INFO:

Disc Title:     Speed.1994.2160p.BluRay.HEVC.DTS-HD.MA.5.1-EATDIK
Disc Size:      63,757,967,690 bytes
Protection:     AACS2
Extras:         Ultra HD, BD-Java
BDInfo:         0.7.5.9 (compatible layout created by DVDFab 12.0.2.6)

PLAYLIST REPORT:

Name:                   00800.MPLS  
Length:                 1:55:54.447 (h:m:s.ms)
Size:                   62,807,347,200 bytes
Total Bitrate:          72.25 Mbps

VIDEO:

Codec                   Bitrate             Description     
-----                   -------             -----------     
MPEG-H HEVC Video       59583 kbps          2160p / 23.976 fps / 16:9 / Main 10 @ Level 5.1 @ High / 4:2:0 / 10 bits / 1000nits / HDR10 / BT.2020

AUDIO:

Codec                           Language        Bitrate         Description     
-----                           --------        -------         -----------     
DTS-HD Master Audio             English         3830 kbps       5.1 / 48 kHz / 3830 kbps / 24-bit (DTS Core: 5.1 / 48 kHz / 1509 kbps / 24-bit)
Dolby Digital Audio             English         320 kbps        2.0 / 48 kHz / 320 kbps
DTS Audio                       French          1509 kbps       5.1 / 48 kHz / 1509 kbps / 24-bit
Dolby Digital Audio             Spanish         448 kbps        5.1 / 48 kHz / 448 kbps
DTS Audio                       German          1509 kbps       5.1 / 48 kHz / 1509 kbps / 24-bit
Dolby Digital Audio             Japanese        224 kbps        2.0 / 48 kHz / 224 kbps / Dolby Surround
Dolby Digital Audio             English         224 kbps        2.0 / 48 kHz / 224 kbps
Dolby Digital Audio             English         224 kbps        2.0 / 48 kHz / 224 kbps

SUBTITLES:

Codec                           Language        Bitrate         Description     
-----                           --------        -------         -----------     
Presentation Graphics           English         38.529 kbps                     
Presentation Graphics           French          22.818 kbps                     
Presentation Graphics           Spanish         25.349 kbps                     
Presentation Graphics           German          27.518 kbps                     
Presentation Graphics           Japanese        17.143 kbps                     
Presentation Graphics           English         58.099 kbps                     
Presentation Graphics           French          43.267 kbps                     
Presentation Graphics           Spanish         56.734 kbps                     
Presentation Graphics           German          42.951 kbps                     
Presentation Graphics           Japanese        30.301 kbps                     
Presentation Graphics           English         72.953 kbps                     
Presentation Graphics           French          52.692 kbps                     
Presentation Graphics           Spanish         65.668 kbps                     
Presentation Graphics           German          54.971 kbps                     
Presentation Graphics           Japanese        36.466 kbps                     
Presentation Graphics           French          0.031 kbps                     
Presentation Graphics           Spanish         0.055 kbps                     
Presentation Graphics           German          0.082 kbps                     
Presentation Graphics           Japanese        0.898 kbps  

Video
ID : 1
ID in the original source medium : 4113 (0x1011)
Format : HEVC
Format/Info : High Efficiency Video Coding
Format profile : Main [email protected]@High
HDR format : SMPTE ST 2086, HDR10 compatible
Codec ID : V_MPEGH/ISO/HEVC
Duration : 1 h 55 min
Bit rate : 59.6 Mb/s
Width : 3 840 pixels
Height : 2 160 pixels
Display aspect ratio : 16:9
Frame rate mode : Constant
Frame rate : 23.976 (24000/1001) FPS
Color space : YUV
Chroma subsampling : 4:2:0 (Type 2)
Bit depth : 10 bits
Bits/(Pixel*Frame) : 0.300
Stream size : 48.2 GiB (87%)
Writing library : ATEME Titan File 3.9.6 (4.9.6.2)
Language : English
Default : No
Forced : No
Color range : Limited
Color primaries : BT.2020
Transfer characteristics : PQ
Matrix coefficients : BT.2020 non-constant
Mastering display color primaries : Display P3
Mastering display luminance : min: 0.0050 cd/m2, max: 1000 cd/m2
Original source medium : Blu-ray

Audio #1
ID : 2
ID in the original source medium : 4352 (0x1100)
Format : DTS XLL
Format/Info : Digital Theater Systems
Commercial name : DTS-HD Master Audio
Codec ID : A_DTS
Duration : 1 h 55 min
Bit rate mode : Variable
Bit rate : 3 830 kb/s
Channel(s) : 6 channels
Channel layout : C L R Ls Rs LFE
Sampling rate : 48.0 kHz
Frame rate : 93.750 FPS (512 SPF)
Bit depth : 24 bits
Compression mode : Lossless
Stream size : 3.10 GiB (6%)
Title : DTS-HD MA 5.1
Language : English
Default : Yes
Forced : No
Original source medium : Blu-ray

Audio #2
ID : 3
Format : AC-3
Format/Info : Audio Coding 3
Commercial name : Dolby Digital
Codec ID : A_AC3
Duration : 1 h 55 min
Bit rate mode : Constant
Bit rate : 640 kb/s
Channel(s) : 6 channels
Channel layout : L R C LFE Ls Rs
Sampling rate : 48.0 kHz
Frame rate : 31.250 FPS (1536 SPF)
Compression mode : Lossy
Stream size : 531 MiB (1%)
Title : DD 5.1
Language : English
Service kind : Complete Main
Default : No
Forced : No

Audio #3
ID : 4
ID in the original source medium : 4353 (0x1101)
Format : AC-3
Format/Info : Audio Coding 3
Commercial name : Dolby Digital
Codec ID : A_AC3
Duration : 1 h 55 min
Bit rate mode : Constant
Bit rate : 320 kb/s
Channel(s) : 2 channels
Channel layout : L R
Sampling rate : 48.0 kHz
Frame rate : 31.250 FPS (1536 SPF)
Compression mode : Lossy
Stream size : 265 MiB (0%)
Title : DD 2.0
Language : English
Service kind : Complete Main
Default : No
Forced : No
Original source medium : Blu-ray

Audio #4
ID : 5
ID in the original source medium : 4354 (0x1102)
Format : DTS
Format/Info : Digital Theater Systems
Codec ID : A_DTS
Duration : 1 h 55 min
Bit rate mode : Constant
Bit rate : 1 509 kb/s
Channel(s) : 6 channels
Channel layout : C L R Ls Rs LFE
Sampling rate : 48.0 kHz
Frame rate : 93.750 FPS (512 SPF)
Bit depth : 24 bits
Compression mode : Lossy
Stream size : 1.22 GiB (2%)
Title : DD 5.1
Language : French
Default : No
Forced : No
Original source medium : Blu-ray

Audio #5
ID : 6
ID in the original source medium : 4355 (0x1103)
Format : AC-3
Format/Info : Audio Coding 3
Commercial name : Dolby Digital
Codec ID : A_AC3
Duration : 1 h 55 min
Bit rate mode : Constant
Bit rate : 448 kb/s
Channel(s) : 6 channels
Channel layout : L R C LFE Ls Rs
Sampling rate : 48.0 kHz
Frame rate : 31.250 FPS (1536 SPF)
Compression mode : Lossy
Stream size : 371 MiB (1%)
Title : DD 5.1
Language : Spanish
Service kind : Complete Main
Default : No
Forced : No
Original source medium : Blu-ray

Audio #6
ID : 7
ID in the original source medium : 4356 (0x1104)
Format : DTS
Format/Info : Digital Theater Systems
Codec ID : A_DTS
Duration : 1 h 55 min
Bit rate mode : Constant
Bit rate : 1 509 kb/s
Channel(s) : 6 channels
Channel layout : C L R Ls Rs LFE
Sampling rate : 48.0 kHz
Frame rate : 93.750 FPS (512 SPF)
Bit depth : 24 bits
Compression mode : Lossy
Stream size : 1.22 GiB (2%)
Title : DD 5.1
Language : German
Default : No
Forced : No
Original source medium : Blu-ray

Audio #7
ID : 8
ID in the original source medium : 4357 (0x1105)
Format : AC-3
Format/Info : Audio Coding 3
Commercial name : Dolby Digital
Format settings : Dolby Surround
Codec ID : A_AC3
Duration : 1 h 55 min
Bit rate mode : Constant
Bit rate : 224 kb/s
Channel(s) : 2 channels
Channel layout : L R
Sampling rate : 48.0 kHz
Frame rate : 31.250 FPS (1536 SPF)
Compression mode : Lossy
Stream size : 186 MiB (0%)
Title : DD 2.0
Language : Japanese
Service kind : Complete Main
Default : No
Forced : No
Original source medium : Blu-ray

Audio #8
ID : 9
ID in the original source medium : 4358 (0x1106)
Format : AC-3
Format/Info : Audio Coding 3
Commercial name : Dolby Digital
Codec ID : A_AC3
Duration : 1 h 55 min
Bit rate mode : Constant
Bit rate : 224 kb/s
Channel(s) : 2 channels
Channel layout : L R
Sampling rate : 48.0 kHz
Frame rate : 31.250 FPS (1536 SPF)
Compression mode : Lossy
Stream size : 186 MiB (0%)
Title : DD 2.0
Language : English
Service kind : Complete Main
Default : No
Forced : No
Original source medium : Blu-ray

Audio #9
ID : 10
ID in the original source medium : 4359 (0x1107)
Format : AC-3
Format/Info : Audio Coding 3
Commercial name : Dolby Digital
Codec ID : A_AC3
Duration : 1 h 55 min
Bit rate mode : Constant
Bit rate : 224 kb/s
Channel(s) : 2 channels
Channel layout : L R
Sampling rate : 48.0 kHz
Frame rate : 31.250 FPS (1536 SPF)
Compression mode : Lossy
Stream size : 186 MiB (0%)
Title : DD 2.0
Language : English
Service kind : Complete Main
Default : No
Forced : No
Original source medium : Blu-ray

Text #1
ID : 11
Format : UTF-8
Codec ID : S_TEXT/UTF8
Codec ID/Info : UTF-8 Plain Text
Duration : 1 h 51 min
Bit rate : 48 b/s
Count of elements : 1081
Stream size : 39.6 KiB (0%)
Title : English-SRT
Language : English
Default : Yes
Forced : No

Text #2
ID : 12
ID in the original source medium : 4768 (0x12A0)
Format : PGS
Muxing mode : zlib
Codec ID : S_HDMV/PGS
Codec ID/Info : Picture based subtitle format used on BDs/HD-DVDs
Duration : 1 h 55 min
Bit rate : 38.8 kb/s
Count of elements : 3406
Stream size : 31.9 MiB (0%)
Title : English-PGS
Language : English
Default : No
Forced : No
Original source medium : Blu-ray

Text #3
ID : 13
ID in the original source medium : 4769 (0x12A1)
Format : PGS
Muxing mode : zlib
Codec ID : S_HDMV/PGS
Codec ID/Info : Picture based subtitle format used on BDs/HD-DVDs
Duration : 1 h 46 min
Bit rate : 24.8 kb/s
Count of elements : 2292
Stream size : 18.9 MiB (0%)
Title : French-PGS
Language : French
Default : No
Forced : No
Original source medium : Blu-ray

Text #4
ID : 14
ID in the original source medium : 4770 (0x12A2)
Format : PGS
Muxing mode : zlib
Codec ID : S_HDMV/PGS
Codec ID/Info : Picture based subtitle format used on BDs/HD-DVDs
Duration : 1 h 49 min
Bit rate : 26.8 kb/s
Count of elements : 2302
Stream size : 21.0 MiB (0%)
Title : Spanish-PGS
Language : Spanish
Default : No
Forced : No
Original source medium : Blu-ray

Text #5
ID : 15
ID in the original source medium : 4771 (0x12A3)
Format : PGS
Muxing mode : zlib
Codec ID : S_HDMV/PGS
Codec ID/Info : Picture based subtitle format used on BDs/HD-DVDs
Duration : 1 h 47 min
Bit rate : 29.8 kb/s
Count of elements : 1980
Stream size : 22.8 MiB (0%)
Title : German-PGS
Language : German
Default : No
Forced : No
Original source medium : Blu-ray

Text #6
ID : 16
ID in the original source medium : 4772 (0x12A4)
Format : PGS
Muxing mode : zlib
Codec ID : S_HDMV/PGS
Codec ID/Info : Picture based subtitle format used on BDs/HD-DVDs
Duration : 1 h 51 min
Bit rate : 17.8 kb/s
Count of elements : 2210
Stream size : 14.2 MiB (0%)
Title : Japanese-PGS
Language : Japanese
Default : No
Forced : No
Original source medium : Blu-ray

Text #7
ID : 17
ID in the original source medium : 4773 (0x12A5)
Format : PGS
Muxing mode : zlib
Codec ID : S_HDMV/PGS
Codec ID/Info : Picture based subtitle format used on BDs/HD-DVDs
Duration : 1 h 55 min
Bit rate : 58.4 kb/s
Count of elements : 3622
Stream size : 48.2 MiB (0%)
Title : English-COMMENTARY-PGS
Language : English
Default : No
Forced : No
Original source medium : Blu-ray

Text #8
ID : 18
ID in the original source medium : 4774 (0x12A6)
Format : PGS
Muxing mode : zlib
Codec ID : S_HDMV/PGS
Codec ID/Info : Picture based subtitle format used on BDs/HD-DVDs
Duration : 1 h 54 min
Bit rate : 44.0 kb/s
Count of elements : 2700
Stream size : 35.9 MiB (0%)
Title : French-COMMENTARY-PGS
Language : French
Default : No
Forced : No
Original source medium : Blu-ray

Text #9
ID : 19
ID in the original source medium : 4775 (0x12A7)
Format : PGS
Muxing mode : zlib
Codec ID : S_HDMV/PGS
Codec ID/Info : Picture based subtitle format used on BDs/HD-DVDs
Duration : 1 h 54 min
Bit rate : 57.6 kb/s
Count of elements : 3552
Stream size : 47.0 MiB (0%)
Title : Spanish-COMMENTARY-PGS
Language : Spanish
Default : No
Forced : No
Original source medium : Blu-ray

Text #10
ID : 20
ID in the original source medium : 4776 (0x12A8)
Format : PGS
Muxing mode : zlib
Codec ID : S_HDMV/PGS
Codec ID/Info : Picture based subtitle format used on BDs/HD-DVDs
Duration : 1 h 54 min
Bit rate : 43.6 kb/s
Count of elements : 2722
Stream size : 35.6 MiB (0%)
Title : German-COMMENTARY-PGS
Language : German
Default : No
Forced : No
Original source medium : Blu-ray

Text #11
ID : 21
ID in the original source medium : 4777 (0x12A9)
Format : PGS
Muxing mode : zlib
Codec ID : S_HDMV/PGS
Codec ID/Info : Picture based subtitle format used on BDs/HD-DVDs
Duration : 1 h 55 min
Bit rate : 30.4 kb/s
Count of elements : 2268
Stream size : 25.1 MiB (0%)
Title : Japanese-COMMENTARY-PGS
Language : Japanese
Default : No
Forced : No
Original source medium : Blu-ray

Text #12
ID : 22
ID in the original source medium : 4778 (0x12AA)
Format : PGS
Muxing mode : zlib
Codec ID : S_HDMV/PGS
Codec ID/Info : Picture based subtitle format used on BDs/HD-DVDs
Duration : 1 h 55 min
Bit rate : 73.0 kb/s
Count of elements : 4168
Stream size : 60.5 MiB (0%)
Title : English-COMMENTARY-PGS
Language : English
Default : No
Forced : No
Original source medium : Blu-ray

Text #13
ID : 23
ID in the original source medium : 4779 (0x12AB)
Format : PGS
Muxing mode : zlib
Codec ID : S_HDMV/PGS
Codec ID/Info : Picture based subtitle format used on BDs/HD-DVDs
Duration : 1 h 55 min
Bit rate : 52.7 kb/s
Count of elements : 3656
Stream size : 43.7 MiB (0%)
Title : French-COMMENTARY-PGS
Language : French
Default : No
Forced : No
Original source medium : Blu-ray

Text #14
ID : 24
ID in the original source medium : 4780 (0x12AC)
Format : PGS
Muxing mode : zlib
Codec ID : S_HDMV/PGS
Codec ID/Info : Picture based subtitle format used on BDs/HD-DVDs
Duration : 1 h 55 min
Bit rate : 65.7 kb/s
Count of elements : 3864
Stream size : 54.4 MiB (0%)
Title : Spanish-COMMENTARY-PGS
Language : Spanish
Default : No
Forced : No
Original source medium : Blu-ray

Text #15
ID : 25
ID in the original source medium : 4781 (0x12AD)
Format : PGS
Muxing mode : zlib
Codec ID : S_HDMV/PGS
Codec ID/Info : Picture based subtitle format used on BDs/HD-DVDs
Duration : 1 h 55 min
Bit rate : 55.0 kb/s
Count of elements : 3246
Stream size : 45.6 MiB (0%)
Title : German-COMMENTARY-PGS
Language : German
Default : No
Forced : No
Original source medium : Blu-ray

Text #16
ID : 26
ID in the original source medium : 4782 (0x12AE)
Format : PGS
Muxing mode : zlib
Codec ID : S_HDMV/PGS
Codec ID/Info : Picture based subtitle format used on BDs/HD-DVDs
Duration : 1 h 55 min
Bit rate : 36.5 kb/s
Count of elements : 3759
Stream size : 30.2 MiB (0%)
Title : Japanese-COMMENTARY-PGS
Language : Japanese
Default : No
Forced : No
Original source medium : Blu-ray

Text #17
ID : 27
ID in the original source medium : 4783 (0x12AF)
Format : PGS
Muxing mode : zlib
Codec ID : S_HDMV/PGS
Codec ID/Info : Picture based subtitle format used on BDs/HD-DVDs
Duration : 1 h 4 min
Bit rate : 55 b/s
Count of elements : 4
Stream size : 26.2 KiB (0%)
Title : French-FORCED-PGS
Language : French
Default : No
Forced : No
Original source medium : Blu-ray

Text #18
ID : 28
ID in the original source medium : 4784 (0x12B0)
Format : PGS
Muxing mode : zlib
Codec ID : S_HDMV/PGS
Codec ID/Info : Picture based subtitle format used on BDs/HD-DVDs
Duration : 1 h 6 min
Bit rate : 95 b/s
Count of elements : 6
Stream size : 46.8 KiB (0%)
Title : Spanish-FORCED-PGS
Language : Spanish
Default : No
Forced : No
Original source medium : Blu-ray

Text #19
ID : 29
ID in the original source medium : 4785 (0x12B1)
Format : PGS
Muxing mode : zlib
Codec ID : S_HDMV/PGS
Codec ID/Info : Picture based subtitle format used on BDs/HD-DVDs
Duration : 1 h 43 min
Bit rate : 91 b/s
Count of elements : 14
Stream size : 69.4 KiB (0%)
Title : German-FORCED-PGS
Language : German
Default : No
Forced : No
Original source medium : Blu-ray

Text #20
ID : 30
ID in the original source medium : 4786 (0x12B2)
Format : PGS
Muxing mode : zlib
Codec ID : S_HDMV/PGS
Codec ID/Info : Picture based subtitle format used on BDs/HD-DVDs
Duration : 1 h 26 min
Bit rate : 1 203 b/s
Count of elements : 94
Stream size : 762 KiB (0%)
Title : Japanese-FORCED-PGS
Language : Japanese
Default : No
Forced : No
Original source medium : Blu-ray

Menu
00:00:00.000 : Chapter 01
00:04:20.218 : Chapter 02
00:06:04.947 : Chapter 03
00:08:27.757 : Chapter 04
00:11:18.552 : Chapter 05
00:15:24.381 : Chapter 06
00:17:38.891 : Chapter 07
00:23:22.484 : Chapter 08
00:26:44.436 : Chapter 09
00:31:02.443 : Chapter 10
00:35:06.187 : Chapter 11
00:40:24.255 : Chapter 12
00:44:33.420 : Chapter 13
00:48:47.174 : Chapter 14
00:53:09.853 : Chapter 15
00:55:44.883 : Chapter 16
00:58:52.487 : Chapter 17
01:02:20.111 : Chapter 18
01:07:38.971 : Chapter 19
01:08:55.047 : Chapter 20
01:11:52.182 : Chapter 21
01:15:17.513 : Chapter 22
01:15:41.036 : Chapter 23
01:19:33.935 : Chapter 24
01:23:28.253 : Chapter 25
01:27:05.303 : Chapter 26
01:32:57.863 : Chapter 27
01:37:06.403 : Chapter 28
01:40:28.897 : Chapter 29
01:42:20.467 : Chapter 30
01:46:06.401 : Chapter 31
01:50:06.933 : Chapter 32

本帖子中包含更多资源

您需要 登录 才可以下载或查看,没有帐号?立即注册

x
回复

使用道具 举报

0

主题

4

帖子

19

积分

新手上路

Rank: 1

积分
19
发表于 2021-5-2 09:46:18 | 显示全部楼层
来看看。,能不能下载
回复

使用道具 举报

0

主题

321

帖子

1869

积分

金牌会员

Rank: 6Rank: 6

积分
1869
发表于 2021-5-2 13:50:59 | 显示全部楼层
感谢楼主分享
回复

使用道具 举报

0

主题

774

帖子

3045

积分

论坛元老

Rank: 8Rank: 8

积分
3045
发表于 2021-5-2 16:22:20 | 显示全部楼层
感谢楼主分享
回复

使用道具 举报

0

主题

70

帖子

1082

积分

金牌会员

Rank: 6Rank: 6

积分
1082
发表于 2021-5-3 18:52:11 | 显示全部楼层
Thank you very much!
回复

使用道具 举报

0

主题

1216

帖子

5137

积分

论坛元老

Rank: 8Rank: 8

积分
5137
发表于 2021-5-3 20:32:37 | 显示全部楼层
感谢楼主分享高清影片
回复

使用道具 举报

0

主题

307

帖子

1436

积分

金牌会员

Rank: 6Rank: 6

积分
1436
发表于 7 天前 | 显示全部楼层
感谢楼主
回复

使用道具 举报

您需要登录后才可以回帖 登录 | 立即注册

本版积分规则

QQ|Archiver|手机版|小黑屋|原盘天堂 好多盘 点击这里给我发消息

GMT+8, 2021-5-11 16:17 , Processed in 0.060537 second(s), 24 queries .

Powered by Discuz! X3.4

Copyright © 2001-2020, Tencent Cloud.

快速回复 返回顶部 返回列表