请选择 进入手机版 | 继续访问电脑版
本站Q群713428235【盘盘多】已满,请新会员加原盘天堂新官方QQ群709708625【好多盘】,验证信息填写您在论坛的会员名,不填会员名的无法入群哈,进群后修改您的群名片名字为您在论坛的会员名,请务必修改,否则群成员多了不知道您是哪个会员。

原盘天堂

 找回密码
 立即注册
京东商城当当华为商城名牌时尚折扣网,一个新型的网上购物平台,我们每周为您精选3~4个国际知名品牌,商品折扣低至2折限时限量售卖,商品囊括时装、护肤品、箱包、皮具、配饰、香水等等,琳琅满目。亿格瑞A10硬盘播放器 苏宁易购
查看: 102|回复: 4

2d蓝光原盘bdmv 特种空勤团:红色通缉令 英语原版 sas.red.notice.2021.1080p.bluray.avc.dts-hd.ma.5.1[40.28 GB]

[复制链接]

5958

主题

6605

帖子

132万

积分

管理员

Rank: 18Rank: 18Rank: 18Rank: 18Rank: 18

积分
1329763
发表于 2021-5-2 08:20:29 | 显示全部楼层 |阅读模式








特种空勤团:红色通缉令 SAS: Red Notice (2021)

◎译  名 特种空勤团:红色通缉令/SAS:红色通知
◎片  名 SAS: Red Notice
◎年  代 2021
◎产  地 英国/匈牙利/荷兰/瑞士
◎类  别 动作/犯罪
◎语  言 英语
◎上映日期 2021-03-12(英国)
◎IMDb链接  https://www.imdb.com/title/tt4479380/
◎豆瓣评分 5.4/10 from 593 users
◎豆瓣链接 https://douban.com/subject/26322998/
◎导  演 马格努斯·马滕斯 Magnus Martens / 尼克·拉夫 Nick Love
◎编  剧 Andy McNab
◎主  演 萨姆·修汉 Sam Heughan
       鲁比·罗丝 Ruby Rose
       安迪·瑟金斯 Andy Serkis
       汉娜·乔恩-卡门 Hannah John-Kamen
       汤姆·霍珀 Tom Hopper
       诺埃尔·克拉克 Noel Clarke
       汤姆·威尔金森 Tom Wilkinson
       欧文·约曼 Owain Yeoman
       雷·潘莎基 Ray Panthaki
       安妮·雷德 Anne Reid
       陆思敬 Jing Lusi
       萨拉·温特 Sarah Winter
       理查德·麦凯布 Richard McCabe
       道格拉斯·瑞斯 Douglas Reith
       戴兰·史密斯 Dylan Smith
       卡罗琳·博尔顿 Caroline Boulton
       阿提拉·阿帕 Attila Árpa
       蒂姆·费林汉姆 Tim Fellingham
       泰·赫尔利 Ty Hurley
       马丁·安格鲍尔 Martin Angerbauer
       罗德里克·希尔 Roderick Hill
       巴尔·瓦斯维尔斯 Balázs Veres

◎标  签 动作 | 英国 | 犯罪 | 2021 | 电影 | 2020观影 | B欧洲 | 成片

◎简  介

  
  一支由拉兹洛·安东诺夫领导的训练有素的罪犯组成的小部队在英吉利海峡深处劫持了“欧洲之星”。
  
DISC INFO:

Disc Title:     SAS.Red.Notice.2021.COMPLETE.BLURAY-PENTAGON
Disc Size:      43,254,727,132 bytes
Protection:     AACS
Extras:         BD-Java
BDInfo:         0.7.5.9 (compatible layout created by DVDFab 12.0.2.6)

PLAYLIST REPORT:

Name:                   00001.MPLS  
Length:                 2:03:46.585 (h:m:s.ms)
Size:                   35,748,913,152 bytes
Total Bitrate:          38.51 Mbps

VIDEO:

Codec                   Bitrate             Description     
-----                   -------             -----------     
MPEG-4 AVC Video        28984 kbps          1080p / 23.976 fps / 16:9 / High Profile 4.1

AUDIO:

Codec                           Language        Bitrate         Description     
-----                           --------        -------         -----------     
DTS-HD Master Audio             German          3719 kbps       5.1 / 48 kHz / 3719 kbps / 24-bit (DTS Core: 5.1 / 48 kHz / 1509 kbps / 24-bit)
DTS-HD Master Audio             English         3636 kbps       5.1 / 48 kHz / 3636 kbps / 24-bit (DTS Core: 5.1 / 48 kHz / 1509 kbps / 24-bit)

SUBTITLES:

Codec                           Language        Bitrate         Description     
-----                           --------        -------         -----------     
Presentation Graphics           German          33.588 kbps                     
Presentation Graphics           German          1.038 kbps        

Video
ID : 1
ID in the original source medium : 4113 (0x1011)
Format : AVC
Format/Info : Advanced Video Codec
Format profile : [email protected]
Format settings : CABAC / 3 Ref Frames
Format settings, CABAC : Yes
Format settings, Reference frames : 3 frames
Codec ID : V_MPEG4/ISO/AVC
Duration : 2 h 3 min
Bit rate mode : Variable
Bit rate : 29.0 Mb/s
Maximum bit rate : 35.0 Mb/s
Width : 1 920 pixels
Height : 1 080 pixels
Display aspect ratio : 16:9
Frame rate mode : Constant
Frame rate : 23.976 (24000/1001) FPS
Color space : YUV
Chroma subsampling : 4:2:0
Bit depth : 8 bits
Scan type : Progressive
Bits/(Pixel*Frame) : 0.583
Stream size : 25.1 GiB (89%)
Language : English
Default : No
Forced : No
Original source medium : Blu-ray

Audio
ID : 2
ID in the original source medium : 4353 (0x1101)
Format : DTS XLL
Format/Info : Digital Theater Systems
Commercial name : DTS-HD Master Audio
Codec ID : A_DTS
Duration : 2 h 3 min
Bit rate mode : Variable
Bit rate : 3 636 kb/s
Channel(s) : 6 channels
Channel layout : C L R Ls Rs LFE
Sampling rate : 48.0 kHz
Frame rate : 93.750 FPS (512 SPF)
Bit depth : 24 bits
Compression mode : Lossless
Stream size : 3.14 GiB (11%)
Title : DTS-HD MA 5.1
Language : English
Default : Yes
Forced : No
Original source medium : Blu-ray

Text
ID : 3
Format : UTF-8
Codec ID : S_TEXT/UTF8
Codec ID/Info : UTF-8 Plain Text
Duration : 1 h 57 min
Bit rate : 50 b/s
Count of elements : 1406
Stream size : 43.9 KiB (0%)
Title : English-SRT
Language : English
Default : Yes
Forced : No

Menu
00:00:00.000 : Chapter 01
00:06:55.164 : Chapter 02
00:18:20.891 : Chapter 03
00:30:30.995 : Chapter 04
00:39:43.506 : Chapter 05
00:50:10.465 : Chapter 06
01:00:45.350 : Chapter 07
01:11:57.688 : Chapter 08
01:21:57.078 : Chapter 09
01:34:29.163 : Chapter 10
01:49:21.555 : Chapter 11
01:58:25.431 : Chapter 12

本帖子中包含更多资源

您需要 登录 才可以下载或查看,没有帐号?立即注册

x
回复

使用道具 举报

0

主题

71

帖子

463

积分

中级会员

Rank: 3Rank: 3

积分
463
发表于 2021-5-2 09:25:00 | 显示全部楼层
谢谢,下来看看。。。
回复

使用道具 举报

0

主题

145

帖子

465

积分

中级会员

Rank: 3Rank: 3

积分
465
发表于 2021-5-2 11:10:49 | 显示全部楼层
感谢楼主分享!
回复

使用道具 举报

0

主题

773

帖子

3044

积分

论坛元老

Rank: 8Rank: 8

积分
3044
发表于 2021-5-2 16:26:36 | 显示全部楼层
感谢楼主分享
回复

使用道具 举报

0

主题

307

帖子

1436

积分

金牌会员

Rank: 6Rank: 6

积分
1436
发表于 7 天前 | 显示全部楼层
感谢楼主
回复

使用道具 举报

您需要登录后才可以回帖 登录 | 立即注册

本版积分规则

QQ|Archiver|手机版|小黑屋|原盘天堂 好多盘 点击这里给我发消息

GMT+8, 2021-5-11 15:10 , Processed in 0.062591 second(s), 25 queries .

Powered by Discuz! X3.4

Copyright © 2001-2020, Tencent Cloud.

快速回复 返回顶部 返回列表