请选择 进入手机版 | 继续访问电脑版
本站Q群713428235【盘盘多】已满,请新会员加原盘天堂新官方QQ群709708625【好多盘】,验证信息填写您在论坛的会员名,不填会员名的无法入群哈,进群后修改您的群名片名字为您在论坛的会员名,请务必修改,否则群成员多了不知道您是哪个会员。

原盘天堂

 找回密码
 立即注册
京东商城当当华为商城名牌时尚折扣网,一个新型的网上购物平台,我们每周为您精选3~4个国际知名品牌,商品折扣低至2折限时限量售卖,商品囊括时装、护肤品、箱包、皮具、配饰、香水等等,琳琅满目。亿格瑞A10硬盘播放器 苏宁易购
查看: 85|回复: 7

2d蓝光原盘bdmv 猫和老鼠 国音中字 tom.and.jerry.2021.1080p.bluray.avc.truehd.7.1.atmos[38.89 GB]

[复制链接]

5958

主题

6606

帖子

132万

积分

管理员

Rank: 18Rank: 18Rank: 18Rank: 18Rank: 18

积分
1329770
发表于 2021-5-2 08:01:40 | 显示全部楼层 |阅读模式






猫和老鼠 Tom and Jerry (2021)

◎译  名 猫和老鼠/猫和老鼠真人电影/汤姆和杰瑞/汤姆猫与杰利鼠(台)/Tom&Jerry大电影(港)
◎片  名 Tom and Jerry
◎年  代 2021
◎产  地 英国/美国
◎类  别 喜剧/动画/冒险
◎语  言 英语
◎上映日期 2021-02-10(中国台湾)/2021-02-26(美国/中国大陆)
◎IMDb链接  https://www.imdb.com/title/tt1361336/
◎豆瓣评分 5.4/10 from 33509 users
◎豆瓣链接 https://douban.com/subject/3439312/
◎片  长 101分钟
◎导  演 蒂姆·斯托瑞
◎编  剧 凯文·科斯特洛 / 威廉·汉纳 / 约瑟夫·巴伯拉
◎主  演 科洛·莫瑞兹
       迈克尔·佩纳
       郑肯
       科林·乔斯特
       乔丹·博尔格
       罗伯·德兰尼
       克里斯蒂娜·钟
       布赖恩·斯特帕尼克
       帕拉维·沙尔达
       卡米拉·阿维森
       克丽·麦克莱恩
       卡米拉·拉瑟福德
       泰·赫尔利
       丹尼尔·阿德博伊加
       乔蕾·科斯
       丹尼尔·厄根
       伯纳多·桑托斯
       乔·伯恩
       乔基姆·斯卡利

◎标  签 猫和老鼠 | 动画 | 经典 | 美国 | 2021 | 美国电影 | 电影 | 华纳

◎简  介

  
  “超杀女”科洛·莫瑞兹饰演的少女凯拉刚刚入职豪华大酒店,就碰上了叫人头疼的难题——杰瑞竟然想在酒店里定居,令酒店最近承接的世纪婚礼岌岌可危。于是,汤姆被凯拉雇佣成为酒店员工,目的是赶走杰瑞,这对欢喜冤家就此展开了一场你追我赶的爆笑喜剧。
  

DISC INFO:

Disc Title:     Tom.and.Jerry.2021.1080p.BluRay.AVC.TrueHD.7.1.Atmos-FGT
Disc Size:      41,744,238,508 bytes
Protection:     AACS
Extras:         BD-Java
BDInfo:         0.7.5.9 (compatible layout created by DVDFab 12.0.2.6)

PLAYLIST REPORT:

Name:                   00800.MPLS  
Length:                 1:41:04.808 (h:m:s.ms)
Size:                   31,745,636,352 bytes
Total Bitrate:          41.88 Mbps

VIDEO:

Codec                   Bitrate             Description     
-----                   -------             -----------     
MPEG-4 AVC Video        28021 kbps          1080p / 23.976 fps / 16:9 / High Profile 4.1

AUDIO:

Codec                           Language        Bitrate         Description     
-----                           --------        -------         -----------     
Dolby TrueHD/Atmos Audio        English         3504 kbps       7.1+11 objects / 48 kHz / 3056 kbps / 16-bit (AC3 Core: 5.1-EX / 48 kHz / 448 kbps)
Dolby Digital Audio             English         448 kbps        5.1 / 48 kHz / 448 kbps
Dolby Digital Audio             English         448 kbps        5.1 / 48 kHz / 448 kbps
Dolby Digital Audio             German          448 kbps        5.1 / 48 kHz / 448 kbps
Dolby Digital Audio             German          192 kbps        2.0 / 48 kHz / 192 kbps / Dolby Surround
Dolby Digital Audio             Italian         448 kbps        5.1 / 48 kHz / 448 kbps
Dolby Digital Audio             Chinese         448 kbps        5.1 / 48 kHz / 448 kbps
Dolby Digital Audio             Chinese         448 kbps        5.1 / 48 kHz / 448 kbps
Dolby Digital Audio             Korean          448 kbps        5.1 / 48 kHz / 448 kbps
Dolby Digital Audio             Danish          448 kbps        5.1 / 48 kHz / 448 kbps
Dolby Digital Audio             Finnish         448 kbps        5.1 / 48 kHz / 448 kbps
Dolby Digital Audio             Greek           448 kbps        5.1 / 48 kHz / 448 kbps
Dolby Digital Audio             Hindi           448 kbps        5.1 / 48 kHz / 448 kbps
Dolby Digital Audio             Norwegian       448 kbps        5.1 / 48 kHz / 448 kbps
Dolby Digital Audio             Swedish         448 kbps        5.1 / 48 kHz / 448 kbps
Dolby Digital Audio             Tamil           448 kbps        5.1 / 48 kHz / 448 kbps
Dolby Digital Audio             Telugu          448 kbps        5.1 / 48 kHz / 448 kbps

SUBTITLES:

Codec                           Language        Bitrate         Description     
-----                           --------        -------         -----------     
Presentation Graphics           English         53.019 kbps                     
Presentation Graphics           German          44.206 kbps                     
Presentation Graphics           Italian         41.31 kbps                     
Presentation Graphics           Chinese         32.911 kbps                     
Presentation Graphics           Chinese         33.249 kbps                     
Presentation Graphics           Korean          22.213 kbps                     
Presentation Graphics           Danish          33.446 kbps                     
Presentation Graphics           Finnish         32.983 kbps                     
Presentation Graphics           Greek           41.225 kbps                     
Presentation Graphics           Norwegian       36.2 kbps                       
Presentation Graphics           Swedish         28.195 kbps                     
Presentation Graphics           German          0.152 kbps                     
Presentation Graphics           Italian         0.696 kbps                     
Presentation Graphics           Chinese         0.819 kbps                     
Presentation Graphics           Chinese         0.902 kbps                     
Presentation Graphics           Korean          0.298 kbps                     
Presentation Graphics           Danish          0.609 kbps                     
Presentation Graphics           Finnish         0.655 kbps                     
Presentation Graphics           Greek           0.798 kbps                     
Presentation Graphics           Hindi           0.238 kbps                     
Presentation Graphics           Norwegian       0.853 kbps                     
Presentation Graphics           Swedish         0.333 kbps                     
Presentation Graphics           Tamil           0.471 kbps                     
Presentation Graphics           Telugu          0.309 kbps

Video
ID : 1
ID in the original source medium : 4113 (0x1011)
Format : AVC
Format/Info : Advanced Video Codec
Format profile : [email protected]
Format settings : CABAC / 4 Ref Frames
Format settings, CABAC : Yes
Format settings, Reference frames : 4 frames
Codec ID : V_MPEG4/ISO/AVC
Duration : 1 h 41 min
Bit rate mode : Variable
Bit rate : 27.9 Mb/s
Maximum bit rate : 31.9 Mb/s
Width : 1 920 pixels
Height : 1 080 pixels
Display aspect ratio : 16:9
Frame rate mode : Constant
Frame rate : 23.976 (24000/1001) FPS
Color space : YUV
Chroma subsampling : 4:2:0
Bit depth : 8 bits
Scan type : Progressive
Bits/(Pixel*Frame) : 0.561
Stream size : 19.7 GiB (65%)
Language : English
Default : No
Forced : No
Original source medium : Blu-ray

Audio #1
ID : 2
ID in the original source medium : 4352 (0x1100)
Format : MLP FBA 16-ch
Format/Info : Meridian Lossless Packing FBA with 16-channel presentation
Commercial name : Dolby TrueHD with Dolby Atmos
Codec ID : A_TRUEHD
Duration : 1 h 41 min
Bit rate mode : Variable
Bit rate : 3 056 kb/s
Maximum bit rate : 4 767 kb/s
Channel(s) : 8 channels
Channel layout : L R C LFE Ls Rs Lb Rb
Sampling rate : 48.0 kHz
Frame rate : 1 200.000 FPS (40 SPF)
Bit depth : 24 bits
Compression mode : Lossless
Stream size : 2.16 GiB (7%)
Title : TrueHD 7.1 Atmos
Language : English
Default : Yes
Forced : No
Original source medium : Blu-ray
Number of dynamic objects : 11
Bed channel count : 1 channel
Bed channel configuration : LFE

Audio #2
ID : 3
Format : DTS XLL
Format/Info : Digital Theater Systems
Commercial name : DTS-HD Master Audio
Codec ID : A_DTS
Duration : 1 h 41 min
Bit rate mode : Variable
Bit rate : 4 329 kb/s
Channel(s) : 8 channels
Channel layout : C L R LFE Lb Rb Lss Rss
Sampling rate : 48.0 kHz
Frame rate : 93.750 FPS (512 SPF)
Bit depth : 24 bits
Compression mode : Lossless
Stream size : 3.06 GiB (10%)
Title : DTS-HD MA 7.1
Language : English
Default : No
Forced : No

Audio #3
ID : 4
ID in the original source medium : 4352 (0x1100)
Format : AC-3
Format/Info : Audio Coding 3
Commercial name : Dolby Digital
Format settings : Dolby Surround EX
Codec ID : A_AC3
Duration : 1 h 41 min
Bit rate mode : Constant
Bit rate : 448 kb/s
Channel(s) : 6 channels
Channel layout : L R C LFE Ls Rs
Sampling rate : 48.0 kHz
Frame rate : 31.250 FPS (1536 SPF)
Compression mode : Lossy
Stream size : 324 MiB (1%)
Title : DD 5.1
Language : English
Service kind : Complete Main
Default : No
Forced : No
Original source medium : Blu-ray

Audio #4
ID : 5
ID in the original source medium : 4353 (0x1101)
Format : AC-3
Format/Info : Audio Coding 3
Commercial name : Dolby Digital
Codec ID : A_AC3
Duration : 1 h 41 min
Bit rate mode : Constant
Bit rate : 448 kb/s
Channel(s) : 6 channels
Channel layout : L R C LFE Ls Rs
Sampling rate : 48.0 kHz
Frame rate : 31.250 FPS (1536 SPF)
Compression mode : Lossy
Stream size : 324 MiB (1%)
Title : DD 5.1
Language : English
Service kind : Complete Main
Default : No
Forced : No
Original source medium : Blu-ray

Audio #5
ID : 6
ID in the original source medium : 4354 (0x1102)
Format : AC-3
Format/Info : Audio Coding 3
Commercial name : Dolby Digital
Codec ID : A_AC3
Duration : 1 h 41 min
Bit rate mode : Constant
Bit rate : 448 kb/s
Channel(s) : 6 channels
Channel layout : L R C LFE Ls Rs
Sampling rate : 48.0 kHz
Frame rate : 31.250 FPS (1536 SPF)
Compression mode : Lossy
Stream size : 324 MiB (1%)
Title : DD 5.1
Language : English
Service kind : Complete Main
Default : No
Forced : No
Original source medium : Blu-ray

Audio #6
ID : 7
ID in the original source medium : 4355 (0x1103)
Format : AC-3
Format/Info : Audio Coding 3
Commercial name : Dolby Digital
Codec ID : A_AC3
Duration : 1 h 41 min
Bit rate mode : Constant
Bit rate : 448 kb/s
Channel(s) : 6 channels
Channel layout : L R C LFE Ls Rs
Sampling rate : 48.0 kHz
Frame rate : 31.250 FPS (1536 SPF)
Compression mode : Lossy
Stream size : 324 MiB (1%)
Title : DD 5.1
Language : German
Service kind : Complete Main
Default : No
Forced : No
Original source medium : Blu-ray

Audio #7
ID : 8
ID in the original source medium : 4356 (0x1104)
Format : AC-3
Format/Info : Audio Coding 3
Commercial name : Dolby Digital
Format settings : Dolby Surround
Codec ID : A_AC3
Duration : 1 h 41 min
Bit rate mode : Constant
Bit rate : 192 kb/s
Channel(s) : 2 channels
Channel layout : L R
Sampling rate : 48.0 kHz
Frame rate : 31.250 FPS (1536 SPF)
Compression mode : Lossy
Stream size : 139 MiB (0%)
Title : DD 2.0
Language : German
Service kind : Complete Main
Default : No
Forced : No
Original source medium : Blu-ray

Audio #8
ID : 9
ID in the original source medium : 4357 (0x1105)
Format : AC-3
Format/Info : Audio Coding 3
Commercial name : Dolby Digital
Codec ID : A_AC3
Duration : 1 h 41 min
Bit rate mode : Constant
Bit rate : 448 kb/s
Channel(s) : 6 channels
Channel layout : L R C LFE Ls Rs
Sampling rate : 48.0 kHz
Frame rate : 31.250 FPS (1536 SPF)
Compression mode : Lossy
Stream size : 324 MiB (1%)
Title : DD 5.1
Language : Italian
Service kind : Complete Main
Default : No
Forced : No
Original source medium : Blu-ray

Audio #9
ID : 10
ID in the original source medium : 4358 (0x1106)
Format : AC-3
Format/Info : Audio Coding 3
Commercial name : Dolby Digital
Codec ID : A_AC3
Duration : 1 h 41 min
Bit rate mode : Constant
Bit rate : 448 kb/s
Channel(s) : 6 channels
Channel layout : L R C LFE Ls Rs
Sampling rate : 48.0 kHz
Frame rate : 31.250 FPS (1536 SPF)
Compression mode : Lossy
Stream size : 324 MiB (1%)
Title : DD 5.1
Language : Chinese
Service kind : Complete Main
Default : No
Forced : No
Original source medium : Blu-ray

Audio #10
ID : 11
ID in the original source medium : 4359 (0x1107)
Format : AC-3
Format/Info : Audio Coding 3
Commercial name : Dolby Digital
Codec ID : A_AC3
Duration : 1 h 41 min
Bit rate mode : Constant
Bit rate : 448 kb/s
Channel(s) : 6 channels
Channel layout : L R C LFE Ls Rs
Sampling rate : 48.0 kHz
Frame rate : 31.250 FPS (1536 SPF)
Compression mode : Lossy
Stream size : 324 MiB (1%)
Title : DD 5.1
Language : Chinese
Service kind : Complete Main
Default : No
Forced : No
Original source medium : Blu-ray

Audio #11
ID : 12
ID in the original source medium : 4360 (0x1108)
Format : AC-3
Format/Info : Audio Coding 3
Commercial name : Dolby Digital
Codec ID : A_AC3
Duration : 1 h 41 min
Bit rate mode : Constant
Bit rate : 448 kb/s
Channel(s) : 6 channels
Channel layout : L R C LFE Ls Rs
Sampling rate : 48.0 kHz
Frame rate : 31.250 FPS (1536 SPF)
Compression mode : Lossy
Stream size : 324 MiB (1%)
Title : DD 5.1
Language : Korean
Service kind : Complete Main
Default : No
Forced : No
Original source medium : Blu-ray

Audio #12
ID : 13
ID in the original source medium : 4361 (0x1109)
Format : AC-3
Format/Info : Audio Coding 3
Commercial name : Dolby Digital
Codec ID : A_AC3
Duration : 1 h 41 min
Bit rate mode : Constant
Bit rate : 448 kb/s
Channel(s) : 6 channels
Channel layout : L R C LFE Ls Rs
Sampling rate : 48.0 kHz
Frame rate : 31.250 FPS (1536 SPF)
Compression mode : Lossy
Stream size : 324 MiB (1%)
Title : DD 5.1
Language : Danish
Service kind : Complete Main
Default : No
Forced : No
Original source medium : Blu-ray

Audio #13
ID : 14
ID in the original source medium : 4362 (0x110A)
Format : AC-3
Format/Info : Audio Coding 3
Commercial name : Dolby Digital
Codec ID : A_AC3
Duration : 1 h 41 min
Bit rate mode : Constant
Bit rate : 448 kb/s
Channel(s) : 6 channels
Channel layout : L R C LFE Ls Rs
Sampling rate : 48.0 kHz
Frame rate : 31.250 FPS (1536 SPF)
Compression mode : Lossy
Stream size : 324 MiB (1%)
Title : DD 5.1
Language : Finnish
Service kind : Complete Main
Default : No
Forced : No
Original source medium : Blu-ray

Audio #14
ID : 15
ID in the original source medium : 4363 (0x110B)
Format : AC-3
Format/Info : Audio Coding 3
Commercial name : Dolby Digital
Codec ID : A_AC3
Duration : 1 h 41 min
Bit rate mode : Constant
Bit rate : 448 kb/s
Channel(s) : 6 channels
Channel layout : L R C LFE Ls Rs
Sampling rate : 48.0 kHz
Frame rate : 31.250 FPS (1536 SPF)
Compression mode : Lossy
Stream size : 324 MiB (1%)
Title : DD 5.1
Language : Greek
Service kind : Complete Main
Default : No
Forced : No
Original source medium : Blu-ray

Audio #15
ID : 16
ID in the original source medium : 4364 (0x110C)
Format : AC-3
Format/Info : Audio Coding 3
Commercial name : Dolby Digital
Codec ID : A_AC3
Duration : 1 h 41 min
Bit rate mode : Constant
Bit rate : 448 kb/s
Channel(s) : 6 channels
Channel layout : L R C LFE Ls Rs
Sampling rate : 48.0 kHz
Frame rate : 31.250 FPS (1536 SPF)
Compression mode : Lossy
Stream size : 324 MiB (1%)
Title : DD 5.1
Language : Hindi
Service kind : Complete Main
Default : No
Forced : No
Original source medium : Blu-ray

Audio #16
ID : 17
ID in the original source medium : 4365 (0x110D)
Format : AC-3
Format/Info : Audio Coding 3
Commercial name : Dolby Digital
Codec ID : A_AC3
Duration : 1 h 41 min
Bit rate mode : Constant
Bit rate : 448 kb/s
Channel(s) : 6 channels
Channel layout : L R C LFE Ls Rs
Sampling rate : 48.0 kHz
Frame rate : 31.250 FPS (1536 SPF)
Compression mode : Lossy
Stream size : 324 MiB (1%)
Title : DD 5.1
Language : Norwegian
Service kind : Complete Main
Default : No
Forced : No
Original source medium : Blu-ray

Audio #17
ID : 18
ID in the original source medium : 4366 (0x110E)
Format : AC-3
Format/Info : Audio Coding 3
Commercial name : Dolby Digital
Codec ID : A_AC3
Duration : 1 h 41 min
Bit rate mode : Constant
Bit rate : 448 kb/s
Channel(s) : 6 channels
Channel layout : L R C LFE Ls Rs
Sampling rate : 48.0 kHz
Frame rate : 31.250 FPS (1536 SPF)
Compression mode : Lossy
Stream size : 324 MiB (1%)
Title : DD 5.1
Language : Swedish
Service kind : Complete Main
Default : No
Forced : No
Original source medium : Blu-ray

Audio #18
ID : 19
ID in the original source medium : 4367 (0x110F)
Format : AC-3
Format/Info : Audio Coding 3
Commercial name : Dolby Digital
Codec ID : A_AC3
Duration : 1 h 41 min
Bit rate mode : Constant
Bit rate : 448 kb/s
Channel(s) : 6 channels
Channel layout : L R C LFE Ls Rs
Sampling rate : 48.0 kHz
Frame rate : 31.250 FPS (1536 SPF)
Compression mode : Lossy
Stream size : 324 MiB (1%)
Title : DD 5.1
Language : Tamil
Service kind : Complete Main
Default : No
Forced : No
Original source medium : Blu-ray

Audio #19
ID : 20
ID in the original source medium : 4368 (0x1110)
Format : AC-3
Format/Info : Audio Coding 3
Commercial name : Dolby Digital
Codec ID : A_AC3
Duration : 1 h 41 min
Bit rate mode : Constant
Bit rate : 448 kb/s
Channel(s) : 6 channels
Channel layout : L R C LFE Ls Rs
Sampling rate : 48.0 kHz
Frame rate : 31.250 FPS (1536 SPF)
Compression mode : Lossy
Stream size : 324 MiB (1%)
Title : DD 5.1
Language : Telugu
Service kind : Complete Main
Default : No
Forced : No
Original source medium : Blu-ray

Text #1
ID : 21
Format : UTF-8
Codec ID : S_TEXT/UTF8
Codec ID/Info : UTF-8 Plain Text
Duration : 1 h 40 min
Bit rate : 70 b/s
Count of elements : 1696
Stream size : 51.9 KiB (0%)
Title : English-SRT
Language : English
Default : Yes
Forced : No

Text #2
ID : 22
ID in the original source medium : 4608 (0x1200)
Format : PGS
Muxing mode : zlib
Codec ID : S_HDMV/PGS
Codec ID/Info : Picture based subtitle format used on BDs/HD-DVDs
Duration : 1 h 40 min
Bit rate : 53.3 kb/s
Count of elements : 4114
Stream size : 38.3 MiB (0%)
Title : English-PGS
Language : English
Default : No
Forced : No
Original source medium : Blu-ray

Text #3
ID : 23
ID in the original source medium : 4609 (0x1201)
Format : PGS
Muxing mode : zlib
Codec ID : S_HDMV/PGS
Codec ID/Info : Picture based subtitle format used on BDs/HD-DVDs
Duration : 1 h 40 min
Bit rate : 44.4 kb/s
Count of elements : 3644
Stream size : 32.0 MiB (0%)
Title : German-PGS
Language : German
Default : No
Forced : No
Original source medium : Blu-ray

Text #4
ID : 24
ID in the original source medium : 4610 (0x1202)
Format : PGS
Muxing mode : zlib
Codec ID : S_HDMV/PGS
Codec ID/Info : Picture based subtitle format used on BDs/HD-DVDs
Duration : 1 h 40 min
Bit rate : 41.5 kb/s
Count of elements : 3764
Stream size : 29.9 MiB (0%)
Title : Italian-PGS
Language : Italian
Default : No
Forced : No
Original source medium : Blu-ray

Text #5
ID : 25
ID in the original source medium : 4611 (0x1203)
Format : PGS
Muxing mode : zlib
Codec ID : S_HDMV/PGS
Codec ID/Info : Picture based subtitle format used on BDs/HD-DVDs
Duration : 1 h 40 min
Bit rate : 33.1 kb/s
Count of elements : 2820
Stream size : 23.8 MiB (0%)
Title : Chinese-PGS
Language : Chinese
Default : No
Forced : No
Original source medium : Blu-ray

Text #6
ID : 26
ID in the original source medium : 4612 (0x1204)
Format : PGS
Muxing mode : zlib
Codec ID : S_HDMV/PGS
Codec ID/Info : Picture based subtitle format used on BDs/HD-DVDs
Duration : 1 h 40 min
Bit rate : 33.5 kb/s
Count of elements : 3058
Stream size : 24.0 MiB (0%)
Title : Chinese-PGS
Language : Chinese
Default : No
Forced : No
Original source medium : Blu-ray

Text #7
ID : 27
ID in the original source medium : 4613 (0x1205)
Format : PGS
Muxing mode : zlib
Codec ID : S_HDMV/PGS
Codec ID/Info : Picture based subtitle format used on BDs/HD-DVDs
Duration : 1 h 40 min
Bit rate : 22.4 kb/s
Count of elements : 2866
Stream size : 16.1 MiB (0%)
Title : Korean-PGS
Language : Korean
Default : No
Forced : No
Original source medium : Blu-ray

Text #8
ID : 28
ID in the original source medium : 4614 (0x1206)
Format : PGS
Muxing mode : zlib
Codec ID : S_HDMV/PGS
Codec ID/Info : Picture based subtitle format used on BDs/HD-DVDs
Duration : 1 h 39 min
Bit rate : 34.1 kb/s
Count of elements : 2898
Stream size : 24.2 MiB (0%)
Title : Danish-PGS
Language : Danish
Default : No
Forced : No
Original source medium : Blu-ray

Text #9
ID : 29
ID in the original source medium : 4615 (0x1207)
Format : PGS
Muxing mode : zlib
Codec ID : S_HDMV/PGS
Codec ID/Info : Picture based subtitle format used on BDs/HD-DVDs
Duration : 1 h 39 min
Bit rate : 33.6 kb/s
Count of elements : 2962
Stream size : 23.8 MiB (0%)
Title : Finnish-PGS
Language : Finnish
Default : No
Forced : No
Original source medium : Blu-ray

Text #10
ID : 30
ID in the original source medium : 4616 (0x1208)
Format : PGS
Muxing mode : zlib
Codec ID : S_HDMV/PGS
Codec ID/Info : Picture based subtitle format used on BDs/HD-DVDs
Duration : 1 h 40 min
Bit rate : 41.5 kb/s
Count of elements : 3030
Stream size : 29.8 MiB (0%)
Title : Greek-PGS
Language : Greek
Default : No
Forced : No
Original source medium : Blu-ray

Text #11
ID : 31
ID in the original source medium : 4617 (0x1209)
Format : PGS
Muxing mode : zlib
Codec ID : S_HDMV/PGS
Codec ID/Info : Picture based subtitle format used on BDs/HD-DVDs
Duration : 1 h 40 min
Bit rate : 36.4 kb/s
Count of elements : 3046
Stream size : 26.2 MiB (0%)
Title : Norwegian-PGS
Language : Norwegian
Default : No
Forced : No
Original source medium : Blu-ray

Text #12
ID : 32
ID in the original source medium : 4618 (0x120A)
Format : PGS
Muxing mode : zlib
Codec ID : S_HDMV/PGS
Codec ID/Info : Picture based subtitle format used on BDs/HD-DVDs
Duration : 1 h 39 min
Bit rate : 28.7 kb/s
Count of elements : 2012
Stream size : 20.4 MiB (0%)
Title : Swedish-PGS
Language : Swedish
Default : No
Forced : No
Original source medium : Blu-ray

Text #13
ID : 33
ID in the original source medium : 4619 (0x120B)
Format : PGS
Muxing mode : zlib
Codec ID : S_HDMV/PGS
Codec ID/Info : Picture based subtitle format used on BDs/HD-DVDs
Duration : 1 h 6 min
Bit rate : 230 b/s
Count of elements : 12
Stream size : 112 KiB (0%)
Title : German-FORCED-PGS
Language : German
Default : No
Forced : No
Original source medium : Blu-ray

Text #14
ID : 34
ID in the original source medium : 4620 (0x120C)
Format : PGS
Muxing mode : zlib
Codec ID : S_HDMV/PGS
Codec ID/Info : Picture based subtitle format used on BDs/HD-DVDs
Duration : 1 h 35 min
Bit rate : 737 b/s
Count of elements : 62
Stream size : 515 KiB (0%)
Title : Italian-FORCED-PGS
Language : Italian
Default : No
Forced : No
Original source medium : Blu-ray

Text #15
ID : 35
ID in the original source medium : 4621 (0x120D)
Format : PGS
Muxing mode : zlib
Codec ID : S_HDMV/PGS
Codec ID/Info : Picture based subtitle format used on BDs/HD-DVDs
Duration : 1 h 35 min
Bit rate : 865 b/s
Count of elements : 84
Stream size : 606 KiB (0%)
Title : Chinese-FORCED-PGS
Language : Chinese
Default : No
Forced : No
Original source medium : Blu-ray

Text #16
ID : 36
ID in the original source medium : 4622 (0x120E)
Format : PGS
Muxing mode : zlib
Codec ID : S_HDMV/PGS
Codec ID/Info : Picture based subtitle format used on BDs/HD-DVDs
Duration : 1 h 35 min
Bit rate : 953 b/s
Count of elements : 86
Stream size : 668 KiB (0%)
Title : Chinese-FORCED-PGS
Language : Chinese
Default : No
Forced : No
Original source medium : Blu-ray

Text #17
ID : 37
ID in the original source medium : 4623 (0x120F)
Format : PGS
Muxing mode : zlib
Codec ID : S_HDMV/PGS
Codec ID/Info : Picture based subtitle format used on BDs/HD-DVDs
Duration : 1 h 31 min
Bit rate : 330 b/s
Count of elements : 40
Stream size : 221 KiB (0%)
Title : Korean-FORCED-PGS
Language : Korean
Default : No
Forced : No
Original source medium : Blu-ray

Text #18
ID : 38
ID in the original source medium : 4624 (0x1210)
Format : PGS
Muxing mode : zlib
Codec ID : S_HDMV/PGS
Codec ID/Info : Picture based subtitle format used on BDs/HD-DVDs
Duration : 1 h 35 min
Bit rate : 645 b/s
Count of elements : 50
Stream size : 451 KiB (0%)
Title : Danish-FORCED-PGS
Language : Danish
Default : No
Forced : No
Original source medium : Blu-ray

Text #19
ID : 39
ID in the original source medium : 4625 (0x1211)
Format : PGS
Muxing mode : zlib
Codec ID : S_HDMV/PGS
Codec ID/Info : Picture based subtitle format used on BDs/HD-DVDs
Duration : 1 h 31 min
Bit rate : 723 b/s
Count of elements : 66
Stream size : 485 KiB (0%)
Title : Finnish-FORCED_pgs
Language : Finnish
Default : No
Forced : No
Original source medium : Blu-ray

Text #20
ID : 40
ID in the original source medium : 4626 (0x1212)
Format : PGS
Muxing mode : zlib
Codec ID : S_HDMV/PGS
Codec ID/Info : Picture based subtitle format used on BDs/HD-DVDs
Duration : 1 h 35 min
Bit rate : 843 b/s
Count of elements : 68
Stream size : 590 KiB (0%)
Title : Greek-FORCED-PGS
Language : Greek
Default : No
Forced : No
Original source medium : Blu-ray

Text #21
ID : 41
ID in the original source medium : 4627 (0x1213)
Format : PGS
Muxing mode : zlib
Codec ID : S_HDMV/PGS
Codec ID/Info : Picture based subtitle format used on BDs/HD-DVDs
Duration : 1 h 31 min
Bit rate : 263 b/s
Count of elements : 32
Stream size : 176 KiB (0%)
Title : Hindi-FORCED-PGS
Language : Hindi
Default : No
Forced : No
Original source medium : Blu-ray

Text #22
ID : 42
ID in the original source medium : 4628 (0x1214)
Format : PGS
Muxing mode : zlib
Codec ID : S_HDMV/PGS
Codec ID/Info : Picture based subtitle format used on BDs/HD-DVDs
Duration : 1 h 35 min
Bit rate : 904 b/s
Count of elements : 74
Stream size : 632 KiB (0%)
Title : Norwegian-FORCED-PGS
Language : Norwegian
Default : No
Forced : No
Original source medium : Blu-ray

Text #23
ID : 43
ID in the original source medium : 4629 (0x1215)
Format : PGS
Muxing mode : zlib
Codec ID : S_HDMV/PGS
Codec ID/Info : Picture based subtitle format used on BDs/HD-DVDs
Duration : 1 h 26 min
Bit rate : 391 b/s
Count of elements : 32
Stream size : 247 KiB (0%)
Title : Swedish-FORCED-PGS
Language : Swedish
Default : No
Forced : No
Original source medium : Blu-ray

Text #24
ID : 44
ID in the original source medium : 4630 (0x1216)
Format : PGS
Muxing mode : zlib
Codec ID : S_HDMV/PGS
Codec ID/Info : Picture based subtitle format used on BDs/HD-DVDs
Duration : 1 h 31 min
Bit rate : 521 b/s
Count of elements : 38
Stream size : 349 KiB (0%)
Title : Tamil-FORCED-PGS
Language : Tamil
Default : No
Forced : No
Original source medium : Blu-ray

Text #25
ID : 45
ID in the original source medium : 4631 (0x1217)
Format : PGS
Muxing mode : zlib
Codec ID : S_HDMV/PGS
Codec ID/Info : Picture based subtitle format used on BDs/HD-DVDs
Duration : 1 h 31 min
Bit rate : 342 b/s
Count of elements : 36
Stream size : 229 KiB (0%)
Title : Telugu-FORCED-PGS
Language : Telugu
Default : No
Forced : No
Original source medium : Blu-ray

Menu
00:00:00.000 : Chapter 01
00:05:51.434 : Chapter 02
00:15:26.008 : Chapter 03
00:24:49.112 : Chapter 04
00:31:41.900 : Chapter 05
00:39:37.708 : Chapter 06
00:48:48.258 : Chapter 07
00:58:37.263 : Chapter 08
01:07:21.704 : Chapter 09
01:11:59.857 : Chapter 10
01:22:26.733 : Chapter 11
01:26:17.380 : Chapter 12
01:34:07.516 : Chapter 13

本帖子中包含更多资源

您需要 登录 才可以下载或查看,没有帐号?立即注册

x
回复

使用道具 举报

0

主题

774

帖子

3045

积分

论坛元老

Rank: 8Rank: 8

积分
3045
发表于 2021-5-2 16:28:34 | 显示全部楼层
感谢楼主分享
回复

使用道具 举报

0

主题

771

帖子

3886

积分

论坛元老

Rank: 8Rank: 8

积分
3886
发表于 2021-5-2 18:01:26 | 显示全部楼层
xx谢谢楼主分享
回复

使用道具 举报

0

主题

158

帖子

1360

积分

金牌会员

Rank: 6Rank: 6

积分
1360
发表于 2021-5-3 14:57:08 | 显示全部楼层
儿童的最爱。
回复

使用道具 举报

0

主题

158

帖子

1360

积分

金牌会员

Rank: 6Rank: 6

积分
1360
发表于 2021-5-3 14:58:12 | 显示全部楼层
好片,动画的儿童的最爱。
回复

使用道具 举报

0

主题

307

帖子

1436

积分

金牌会员

Rank: 6Rank: 6

积分
1436
发表于 7 天前 | 显示全部楼层
感谢楼主
回复

使用道具 举报

0

主题

37

帖子

232

积分

中级会员

Rank: 3Rank: 3

积分
232
发表于 6 天前 | 显示全部楼层
儿童最爱
回复

使用道具 举报

0

主题

774

帖子

3045

积分

论坛元老

Rank: 8Rank: 8

积分
3045
发表于 1 小时前 | 显示全部楼层
感谢楼主分享高清影片
回复

使用道具 举报

您需要登录后才可以回帖 登录 | 立即注册

本版积分规则

QQ|Archiver|手机版|小黑屋|原盘天堂 好多盘 点击这里给我发消息

GMT+8, 2021-5-11 16:03 , Processed in 0.059039 second(s), 25 queries .

Powered by Discuz! X3.4

Copyright © 2001-2020, Tencent Cloud.

快速回复 返回顶部 返回列表