请选择 进入手机版 | 继续访问电脑版
本站Q群713428235【盘盘多】已满,请新会员加原盘天堂新官方QQ群709708625【好多盘】,验证信息填写您在论坛的会员名,不填会员名的无法入群哈,进群后修改您的群名片名字为您在论坛的会员名,请务必修改,否则群成员多了不知道您是哪个会员。

原盘天堂

 找回密码
 立即注册
京东商城当当华为商城名牌时尚折扣网,一个新型的网上购物平台,我们每周为您精选3~4个国际知名品牌,商品折扣低至2折限时限量售卖,商品囊括时装、护肤品、箱包、皮具、配饰、香水等等,琳琅满目。亿格瑞A10硬盘播放器 苏宁易购
查看: 56|回复: 7

2d蓝光原盘bdmv 犹大与黑弥赛亚 英语原版 judas.and.the.black.messiah.2021.1080p.bluray.avc.dts-hd.ma.5.1[41.62 GB]

[复制链接]

5958

主题

6605

帖子

132万

积分

管理员

Rank: 18Rank: 18Rank: 18Rank: 18Rank: 18

积分
1329755
发表于 2021-4-30 10:04:21 | 显示全部楼层 |阅读模式








犹大与黑弥赛亚 Judas and the Black Messiah (2021)

◎译  名 犹大与黑弥赛亚/耶稣曾是我兄弟/耶稣是我同伴/耶稣是我同伙/犹大与黑色弥赛亚(台)/Jesus Is My Homeboy
◎片  名 Judas and the Black Messiah
◎年  代 2021
◎产  地 美国
◎类  别 剧情/传记/历史
◎语  言 英语
◎上映日期 2021-02-12(美国/美国网络)
◎IMDb评分  7.6/10 from 41,926 users
◎IMDb链接  https://www.imdb.com/title/tt9784798/
◎豆瓣评分 7.2/10 from 3394 users
◎豆瓣链接 https://douban.com/subject/30464264/
◎片  长 126分钟
◎导  演 沙卡·金 Shaka King
◎编  剧 威尔·伯森 Will Berson / 沙卡·金 Shaka King / 肯尼斯·卢卡斯 Kenneth Lucas / 基斯·卢卡斯 Keith Lucas
◎主  演 丹尼尔·卡卢亚 Daniel Kaluuya
       勒凯斯·斯坦菲尔德 Lakeith Stanfield
       杰西·普莱蒙 Jesse Plemons
       多米尼克·菲什巴克 Dominique Fishback
       艾什顿·桑德斯 Ashton Sanders
       阿尔吉·史密斯 Algee Smith
       达里尔·布里特-吉布森 Darrell Britt-Gibson
       里尔·莱尔·哈瓦瑞 Lil Rel Howery
       多米尼克·索恩 Dominique Thorne
       马丁·辛 Martin Sheen
       阿马里·切托姆 Amari Cheatom
       克里斯·戴维斯 Khris Davis
       伊恩·达夫 Ian Duff
       卡勒布·埃伯哈特 Caleb Eberhardt
       罗伯特·朗斯特里特 Robert Longstreet
       汤米·拉菲特 Tommy Lafitte
       特雷勒·希尔 Terayle Hill
       齐纳·萨维尔斯 China Shavers
       迈克尔·哈瑞蒂 Michael 'Mick' Harrity
       迈克尔·博诺莫 Michael Buonomo
       布莱恩·鲍曼 Brian Bowman
       杰梅因·福勒 Jermaine Fowler
       洛根·弗莱 Logan Fry
       泰拉·乔伊·史密斯 Tyra Joy Smith
       史蒂夫·里佐 Steve Rizzo
       亚伦·克莱伯 Aaron Kleiber
       小约翰·韦斯特 John West Jr.
       尼克·芬克 Nick Fink

◎标  签 美国 | 历史 | 传记 | 黑豹党 | 政治 | 剧情 | 2021 | 黑色幽默

◎简  介

  
  影片改编自真人真事。讲述了1960年代美国黑人社团黑豹党历史上的真实事件,故事聚焦于Hampton之死,他于1969年被杀,死于芝加哥警察局和FBI组织的一次突袭行动。警方开了80枪,而“黑豹党”成员一共只开了一枪,这一枪还是来自于一位成员被警方打死后的肌肉收缩。Hampton与怀孕的未婚妻正在睡觉时,头部被近距离射杀2枪,他当晚被下了药,根本没听见任何警方的动静,死后尸体被拖进小巷中,年仅21岁。经过审讯,他的死被判定为“正当杀人”,后来在1982年,以185万美元的赔偿数额,达到了民事诉讼的庭外和解。
  

◎获奖情况

  第78届金球奖  (2021)
  电影类最佳男配角 丹尼尔·卡卢亚
  电影类最佳原创歌曲(提名)
  
  第74届英国电影学院奖  (2021)
  电影奖最佳男配角 丹尼尔·卡卢亚
  电影奖最佳女配角(提名) 多米尼克·菲什巴克
  电影奖最佳摄影(提名)
  电影奖最佳选角(提名)
  
  第27届美国演员工会奖  (2021)
  电影奖最佳男配角 丹尼尔·卡卢亚
  
  第73届美国编剧工会奖  (2021)
  电影奖最佳原创剧本(提名) 沙卡·金 / 威尔·伯森
  
  第32届美国制片人工会奖  (2021)
  最佳电影制片人奖(提名)
  
  第23届美国服装设计工会奖  (2021)
  年代电影最佳服装设计(提名) 查利斯·安托瓦内特·琼斯
  
  第92届美国国家评论协会奖  (2020)
  年度佳片
  
  第26届美国评论家选择电影奖  (2021)
  最佳男配角 丹尼尔·卡卢亚
  最佳群戏(提名)
  最佳歌曲(提名)
  
  第21届美国电影学会奖  (2020)
  年度佳片

DISC INFO:

Disc Title:     Judas.and.the.Black.Messiah.2021.1080p.BluRay.AVC.DTS-HD.MA.5.1-FGT
Disc Size:      44,684,746,767 bytes
Protection:     AACS
Extras:         BD-Java
BDInfo:         0.7.5.9 (compatible layout created by DVDFab 12.0.2.6)

PLAYLIST REPORT:

Name:                   00001.MPLS  
Length:                 2:05:25.518 (h:m:s.ms)
Size:                   37,881,858,048 bytes
Total Bitrate:          40.27 Mbps

VIDEO:

Codec                   Bitrate             Description     
-----                   -------             -----------     
MPEG-4 AVC Video        33974 kbps          1080p / 23.976 fps / 16:9 / High Profile 4.1

AUDIO:

Codec                           Language        Bitrate         Description     
-----                           --------        -------         -----------     
DTS-HD Master Audio             English         3504 kbps       5.1 / 48 kHz / 3504 kbps / 24-bit (DTS Core: 5.1 / 48 kHz / 1509 kbps / 24-bit)
Dolby Digital Audio             English         640 kbps        5.1 / 48 kHz / 640 kbps

SUBTITLES:

Codec                           Language        Bitrate         Description     
-----                           --------        -------         -----------     
Presentation Graphics           English         46.31 kbps                     
Presentation Graphics           French          31.944 kbps                     
Presentation Graphics           Spanish         39.225 kbps  

Video
ID : 1
ID in the original source medium : 4113 (0x1011)
Format : AVC
Format/Info : Advanced Video Codec
Format profile : [email protected]
Format settings : CABAC / 2 Ref Frames
Format settings, CABAC : Yes
Format settings, Reference frames : 2 frames
Format settings, GOP : M=1, N=10
Codec ID : V_MPEG4/ISO/AVC
Duration : 2 h 5 min
Bit rate mode : Variable
Bit rate : 34.0 Mb/s
Width : 1 920 pixels
Height : 1 080 pixels
Display aspect ratio : 16:9
Frame rate mode : Constant
Frame rate : 23.976 (24000/1001) FPS
Color space : YUV
Chroma subsampling : 4:2:0
Bit depth : 8 bits
Scan type : Progressive
Bits/(Pixel*Frame) : 0.683
Stream size : 29.8 GiB (89%)
Language : English
Default : No
Forced : No
Original source medium : Blu-ray

Audio #1
ID : 2
ID in the original source medium : 4352 (0x1100)
Format : DTS XLL
Format/Info : Digital Theater Systems
Commercial name : DTS-HD Master Audio
Codec ID : A_DTS
Duration : 2 h 5 min
Bit rate mode : Variable
Bit rate : 3 504 kb/s
Channel(s) : 6 channels
Channel layout : C L R Ls Rs LFE
Sampling rate : 48.0 kHz
Frame rate : 93.750 FPS (512 SPF)
Bit depth : 24 bits
Compression mode : Lossless
Stream size : 3.07 GiB (9%)
Title : DTS-HD MA 5.1
Language : English
Default : Yes
Forced : No
Original source medium : Blu-ray

Audio #2
ID : 3
ID in the original source medium : 4353 (0x1101)
Format : AC-3
Format/Info : Audio Coding 3
Commercial name : Dolby Digital
Codec ID : A_AC3
Duration : 2 h 5 min
Bit rate mode : Constant
Bit rate : 640 kb/s
Channel(s) : 6 channels
Channel layout : L R C LFE Ls Rs
Sampling rate : 48.0 kHz
Frame rate : 31.250 FPS (1536 SPF)
Compression mode : Lossy
Stream size : 574 MiB (2%)
Title : DD 5.1
Language : English
Service kind : Complete Main
Default : No
Forced : No
Original source medium : Blu-ray

Text #1
ID : 4
Format : UTF-8
Codec ID : S_TEXT/UTF8
Codec ID/Info : UTF-8 Plain Text
Duration : 2 h 3 min
Bit rate : 66 b/s
Count of elements : 1809
Stream size : 59.7 KiB (0%)
Title : English-SRT
Language : English
Default : Yes
Forced : No

Text #2
ID : 5
ID in the original source medium : 4608 (0x1200)
Format : PGS
Muxing mode : zlib
Codec ID : S_HDMV/PGS
Codec ID/Info : Picture based subtitle format used on BDs/HD-DVDs
Duration : 2 h 3 min
Bit rate : 47.1 kb/s
Count of elements : 4140
Stream size : 41.5 MiB (0%)
Title : English-PGS
Language : English
Default : No
Forced : No
Original source medium : Blu-ray

Text #3
ID : 6
ID in the original source medium : 4609 (0x1201)
Format : PGS
Muxing mode : zlib
Codec ID : S_HDMV/PGS
Codec ID/Info : Picture based subtitle format used on BDs/HD-DVDs
Duration : 2 h 4 min
Bit rate : 32.2 kb/s
Count of elements : 3182
Stream size : 28.7 MiB (0%)
Title : French-PGS
Language : French
Default : No
Forced : No
Original source medium : Blu-ray

Text #4
ID : 7
ID in the original source medium : 4610 (0x1202)
Format : PGS
Muxing mode : zlib
Codec ID : S_HDMV/PGS
Codec ID/Info : Picture based subtitle format used on BDs/HD-DVDs
Duration : 2 h 4 min
Bit rate : 39.6 kb/s
Count of elements : 3442
Stream size : 35.2 MiB (0%)
Title : Spanish-PGS
Language : Spanish
Default : No
Forced : No
Original source medium : Blu-ray

Menu
00:00:00.000 : Chapter 01
00:09:07.088 : Chapter 02
00:18:52.965 : Chapter 03
00:28:25.745 : Chapter 04
00:41:20.436 : Chapter 05
00:49:02.940 : Chapter 06
00:57:45.253 : Chapter 07
01:09:56.358 : Chapter 08
01:21:29.050 : Chapter 09
01:28:32.932 : Chapter 10
01:36:29.450 : Chapter 11
01:44:18.252 : Chapter 12
01:54:13.096 : Chapter 13

本帖子中包含更多资源

您需要 登录 才可以下载或查看,没有帐号?立即注册

x
回复

使用道具 举报

0

主题

771

帖子

3886

积分

论坛元老

Rank: 8Rank: 8

积分
3886
发表于 2021-4-30 10:34:14 | 显示全部楼层
谢谢楼主分享
回复

使用道具 举报

0

主题

1146

帖子

8595

积分

VIP永久

Rank: 12Rank: 12Rank: 12

积分
8595
发表于 2021-4-30 10:35:49 | 显示全部楼层
谢谢楼主分享
回复

使用道具 举报

0

主题

696

帖子

3547

积分

论坛元老

Rank: 8Rank: 8

积分
3547
发表于 2021-4-30 11:31:40 | 显示全部楼层
谢楼主分享
回复

使用道具 举报

0

主题

772

帖子

3043

积分

论坛元老

Rank: 8Rank: 8

积分
3043
发表于 2021-4-30 15:02:42 | 显示全部楼层
谢楼主的分享
回复

使用道具 举报

0

主题

771

帖子

3886

积分

论坛元老

Rank: 8Rank: 8

积分
3886
发表于 2021-5-1 09:29:39 | 显示全部楼层
谢谢楼主分享
回复

使用道具 举报

0

主题

772

帖子

3043

积分

论坛元老

Rank: 8Rank: 8

积分
3043
发表于 2021-5-1 16:28:59 | 显示全部楼层
感谢楼主分享
回复

使用道具 举报

0

主题

307

帖子

1436

积分

金牌会员

Rank: 6Rank: 6

积分
1436
发表于 7 天前 | 显示全部楼层
感谢楼主
回复

使用道具 举报

您需要登录后才可以回帖 登录 | 立即注册

本版积分规则

QQ|Archiver|手机版|小黑屋|原盘天堂 好多盘 点击这里给我发消息

GMT+8, 2021-5-11 14:57 , Processed in 0.060155 second(s), 25 queries .

Powered by Discuz! X3.4

Copyright © 2001-2020, Tencent Cloud.

快速回复 返回顶部 返回列表