请选择 进入手机版 | 继续访问电脑版
本站Q群713428235【盘盘多】已满,请新会员加原盘天堂新官方QQ群709708625【好多盘】,验证信息填写您在论坛的会员名,不填会员名的无法入群哈,进群后修改您的群名片名字为您在论坛的会员名,请务必修改,否则群成员多了不知道您是哪个会员。

原盘天堂

 找回密码
 立即注册
京东商城当当华为商城名牌时尚折扣网,一个新型的网上购物平台,我们每周为您精选3~4个国际知名品牌,商品折扣低至2折限时限量售卖,商品囊括时装、护肤品、箱包、皮具、配饰、香水等等,琳琅满目。亿格瑞A10硬盘播放器 苏宁易购
查看: 82|回复: 5

2d蓝光原盘bdmv 大师 英语原版 the.virtuoso.2021.1080p.bluray.avc.dts-hd.ma.5.1[32.53 GB]

[复制链接]

5958

主题

6606

帖子

132万

积分

管理员

Rank: 18Rank: 18Rank: 18Rank: 18Rank: 18

积分
1329770
发表于 2021-4-30 09:42:00 | 显示全部楼层 |阅读模式








大师 The Virtuoso (2021)

◎译  名 大师/行家
◎片  名 The Virtuoso
◎年  代 2021
◎产  地 美国
◎类  别 动作/惊悚/犯罪
◎语  言 英语
◎上映日期 2021-04-30(美国/美国网络)
◎IMDb链接  https://www.imdb.com/title/tt4136456/
◎豆瓣评分 6.3/10 from 1389 users
◎豆瓣链接 https://douban.com/subject/33441582/
◎导  演 尼克·斯塔利亚诺 Nick Stagliano
◎主  演 安东尼·霍普金斯 Anthony Hopkins
       艾比·考尼什 Abbie Cornish
       安松·蒙特 Anson Mount
       迪奥拉·拜尔德 Diora Baird
       埃迪·马森 Eddie Marsan
       大卫·摩斯 David Morse
       理查德·布雷克 Richard Brake
       克里斯·佩尔费蒂 Chris Perfetti
       布莱斯·科里根 Blaise Corrigan

◎标  签 安东尼·霍普金斯 | 犯罪 | 悬疑 | 美国 | 动作 | 2021 | 惊悚 | 美国电影

◎简  介

  
  安东尼·霍普金斯、安森·蒙特(《异人族》《星际迷航:发现号》)、艾比·考尼什(《三块广告牌》《明亮的星》)将主演黑色惊悚片《大师》(The Virtuoso,暂译),Nick Stagliano(《美好的一天》)执导。蒙特饰一个职业杀手,欠下他的导师(霍普金斯)很多,为此他得杀掉最新接受的一个任务目标。但没有任何这个目标的照片和具体描述,他只知道目标会在下午5点,出现在一个死气沉沉的小镇的餐厅里。那么餐厅里任何顾客都可能是这个杀手要杀的人,还有那个神秘的女招待(考尼什),就算她不是目标,也是一个足够威胁这项任务的存在,她甚至可能危害杀手的生命。
  
  该片也即将在#戛纳电影节#卖片。
  
DISC INFO:

Disc Title:     The.Virtuoso.2021.1080p.BluRay.AVC.DTS-HD.MA.5.1-FGT
Disc Size:      34,928,444,016 bytes
Protection:     AACS
Extras:         BD-Java
BDInfo:         0.7.5.9 (compatible layout created by DVDFab 12.0.2.6)

PLAYLIST REPORT:

Name:                   00800.MPLS  
Length:                 1:49:41.491 (h:m:s.ms)
Size:                   34,418,669,568 bytes
Total Bitrate:          41.84 Mbps

VIDEO:

Codec                   Bitrate             Description     
-----                   -------             -----------     
MPEG-4 AVC Video        36211 kbps          1080p / 23.976 fps / 16:9 / High Profile 4.1

AUDIO:

Codec                           Language        Bitrate         Description     
-----                           --------        -------         -----------     
DTS-HD Master Audio             English         3286 kbps       5.1 / 48 kHz / 3286 kbps / 24-bit (DTS Core: 5.1 / 48 kHz / 1509 kbps / 24-bit)
Dolby Digital Audio             English         192 kbps        2.0 / 48 kHz / 192 kbps

SUBTITLES:

Codec                           Language        Bitrate         Description     
-----                           --------        -------         -----------     
Presentation Graphics           English         20.786 kbps                     
Presentation Graphics           English         23.016 kbps                     
Presentation Graphics           Spanish         20.885 kbps

Video
ID : 1
ID in the original source medium : 4113 (0x1011)
Format : AVC
Format/Info : Advanced Video Codec
Format profile : [email protected]
Format settings : CABAC / 4 Ref Frames
Format settings, CABAC : Yes
Format settings, Reference frames : 4 frames
Codec ID : V_MPEG4/ISO/AVC
Duration : 1 h 49 min
Bit rate mode : Variable
Bit rate : 35.1 Mb/s
Maximum bit rate : 37.0 Mb/s
Width : 1 920 pixels
Height : 1 080 pixels
Display aspect ratio : 16:9
Frame rate mode : Constant
Frame rate : 23.976 (24000/1001) FPS
Color space : YUV
Chroma subsampling : 4:2:0
Bit depth : 8 bits
Scan type : Progressive
Bits/(Pixel*Frame) : 0.705
Stream size : 26.9 GiB (91%)
Language : English
Default : No
Forced : No
Original source medium : Blu-ray

Audio #1
ID : 2
ID in the original source medium : 4352 (0x1100)
Format : DTS XLL
Format/Info : Digital Theater Systems
Commercial name : DTS-HD Master Audio
Codec ID : A_DTS
Duration : 1 h 49 min
Bit rate mode : Variable
Bit rate : 3 286 kb/s
Channel(s) : 6 channels
Channel layout : C L R Ls Rs LFE
Sampling rate : 48.0 kHz
Frame rate : 93.750 FPS (512 SPF)
Bit depth : 24 bits
Compression mode : Lossless
Stream size : 2.52 GiB (9%)
Title : DTS-HD MA 5.1
Language : English
Default : Yes
Forced : No
Original source medium : Blu-ray

Audio #2
ID : 3
ID in the original source medium : 4353 (0x1101)
Format : AC-3
Format/Info : Audio Coding 3
Commercial name : Dolby Digital
Codec ID : A_AC3
Duration : 1 h 49 min
Bit rate mode : Constant
Bit rate : 192 kb/s
Channel(s) : 2 channels
Channel layout : L R
Sampling rate : 48.0 kHz
Frame rate : 31.250 FPS (1536 SPF)
Compression mode : Lossy
Stream size : 151 MiB (0%)
Title : DD 2.0
Language : English
Service kind : Complete Main
Default : No
Forced : No
Original source medium : Blu-ray

Text #1
ID : 4
Format : UTF-8
Codec ID : S_TEXT/UTF8
Codec ID/Info : UTF-8 Plain Text
Duration : 1 h 42 min
Bit rate : 35 b/s
Count of elements : 876
Stream size : 26.4 KiB (0%)
Title : English-SRT
Language : English
Default : Yes
Forced : No

Text #2
ID : 5
ID in the original source medium : 4608 (0x1200)
Format : PGS
Muxing mode : zlib
Codec ID : S_HDMV/PGS
Codec ID/Info : Picture based subtitle format used on BDs/HD-DVDs
Duration : 1 h 42 min
Bit rate : 22.3 kb/s
Count of elements : 1764
Stream size : 16.3 MiB (0%)
Title : English-PGS
Language : English
Default : No
Forced : No
Original source medium : Blu-ray

Text #3
ID : 6
ID in the original source medium : 4609 (0x1201)
Format : PGS
Muxing mode : zlib
Codec ID : S_HDMV/PGS
Codec ID/Info : Picture based subtitle format used on BDs/HD-DVDs
Duration : 1 h 43 min
Bit rate : 24.3 kb/s
Count of elements : 2088
Stream size : 18.1 MiB (0%)
Title : English-PGS
Language : English
Default : No
Forced : No
Original source medium : Blu-ray

Text #4
ID : 7
ID in the original source medium : 4610 (0x1202)
Format : PGS
Muxing mode : zlib
Codec ID : S_HDMV/PGS
Codec ID/Info : Picture based subtitle format used on BDs/HD-DVDs
Duration : 1 h 47 min
Bit rate : 21.2 kb/s
Count of elements : 1788
Stream size : 16.4 MiB (0%)
Title : Spanish-PGS
Language : Spanish
Default : No
Forced : No
Original source medium : Blu-ray

Menu
00:00:00.000 : Chapter 01
00:04:04.285 : Chapter 02
00:09:55.219 : Chapter 03
00:14:37.167 : Chapter 04
00:23:39.584 : Chapter 05
00:29:31.394 : Chapter 06
00:37:21.030 : Chapter 07
00:43:00.869 : Chapter 08
00:51:23.955 : Chapter 09
00:57:42.792 : Chapter 10
01:04:54.640 : Chapter 11
01:14:02.855 : Chapter 12
01:19:25.886 : Chapter 13
01:23:48.940 : Chapter 14
01:29:17.018 : Chapter 15
01:42:37.025 : Chapter 16

本帖子中包含更多资源

您需要 登录 才可以下载或查看,没有帐号?立即注册

x
回复

使用道具 举报

0

主题

1146

帖子

8595

积分

VIP永久

Rank: 12Rank: 12Rank: 12

积分
8595
发表于 2021-4-30 10:44:39 | 显示全部楼层
谢谢楼主分享
回复

使用道具 举报

0

主题

696

帖子

3547

积分

论坛元老

Rank: 8Rank: 8

积分
3547
发表于 2021-4-30 11:32:49 | 显示全部楼层
谢楼主分享
回复

使用道具 举报

0

主题

774

帖子

3045

积分

论坛元老

Rank: 8Rank: 8

积分
3045
发表于 2021-4-30 15:05:13 | 显示全部楼层
谢楼主的分享
回复

使用道具 举报

0

主题

774

帖子

3045

积分

论坛元老

Rank: 8Rank: 8

积分
3045
发表于 2021-5-3 22:30:00 | 显示全部楼层
感谢楼主分享
回复

使用道具 举报

0

主题

307

帖子

1436

积分

金牌会员

Rank: 6Rank: 6

积分
1436
发表于 7 天前 | 显示全部楼层
感谢楼主
回复

使用道具 举报

您需要登录后才可以回帖 登录 | 立即注册

本版积分规则

QQ|Archiver|手机版|小黑屋|原盘天堂 好多盘 点击这里给我发消息

GMT+8, 2021-5-11 15:54 , Processed in 0.061796 second(s), 25 queries .

Powered by Discuz! X3.4

Copyright © 2001-2020, Tencent Cloud.

快速回复 返回顶部 返回列表