请选择 进入手机版 | 继续访问电脑版
本站Q群713428235【盘盘多】已满,请新会员加原盘天堂新官方QQ群709708625【好多盘】,验证信息填写您在论坛的会员名,不填会员名的无法入群哈,进群后修改您的群名片名字为您在论坛的会员名,请务必修改,否则群成员多了不知道您是哪个会员。

原盘天堂

 找回密码
 立即注册
京东商城当当华为商城名牌时尚折扣网,一个新型的网上购物平台,我们每周为您精选3~4个国际知名品牌,商品折扣低至2折限时限量售卖,商品囊括时装、护肤品、箱包、皮具、配饰、香水等等,琳琅满目。亿格瑞A10硬盘播放器 苏宁易购
查看: 63|回复: 4

2d蓝光原盘bdmv 蛛丝马迹 英语原版 the.little.things.2021.1080p.bluray.avc.dts-hd.ma.5.1[39.86 GB]

[复制链接]

5958

主题

6605

帖子

132万

积分

管理员

Rank: 18Rank: 18Rank: 18Rank: 18Rank: 18

积分
1329755
发表于 2021-4-30 09:28:08 | 显示全部楼层 |阅读模式








蛛丝马迹 The Little Things (2021)

◎译  名 蛛丝马迹/细物警探(台)/小东西/小事/小细节/蛛尸马迹(港)
◎片  名 The Little Things
◎年  代 2021
◎产  地 美国
◎类  别 剧情/惊悚/犯罪
◎语  言 英语
◎上映日期 2021-01-29(美国)
◎IMDb评分  6.3/10 from 54,320 users
◎IMDb链接  https://www.imdb.com/title/tt10016180/
◎豆瓣评分 6.5/10 from 6178 users
◎豆瓣链接 https://douban.com/subject/30489388/
◎片  长 127分钟
◎导  演 约翰·李·汉考克 John Lee Hancock
◎编  剧 约翰·李·汉考克 John Lee Hancock
◎主  演 丹泽尔·华盛顿 Denzel Washington
       拉米·马雷克 Rami Malek
       杰瑞德·莱托 Jared Leto
       克里斯·鲍尔 Chris Bauer
       迈克尔·凯悦  Michael Hyatt
       特里·金尼 Terry Kinney
       娜塔丽·莫瑞丝 Natalie Morales
       伊莎贝尔·阿雷扎 Isabel Arraiza
       乔利斯·贾斯基 Joris Jarsky
       格伦·莫肖尔 Glenn Morshower
       苏菲亚·威希涅瓦 Sofia Vassilieva
       杰森·詹姆斯·里希特 Jason James Richter
       约翰·哈伦·金 John Harlan Kim
       弗雷德里克·凯勒 Frederick Koehler
       朱迪斯·斯科特 Judith Scott
       玛雅·卡赞 Maya Kazan
       奥利维亚·华盛顿 Olivia Washington
       基夫·范登·霍伊维尔 Kiff Vanden Heuvel
       J.唐宁 J. Downing
       托马斯·克劳福德 Thomas Crawford
       利纳拉·华盛顿 Linara Washington
       杰夫·科贝特 Jeff Corbett
       斯蒂芬妮·埃尔布 Stephanie Erb
       萨曼莎·科尔米耶 Samantha Cormier
       李·加林顿 Lee Garlington
       迪米特·D·马里诺夫 Dimiter D. Marinov
       朱莉娅·维拉 Julia Vera
       杰克·托帕利安 Jack Topalian
       查理·塞斯顿 Charlie Saxton
       埃姆利·贝赫什蒂 Emil Beheshti
       汉克·诺思罗普 Hank Northrop
       亚当·哈林顿 Adam Harrington
       凯莉·奥马利 Kerry O'Malley
       汤姆·休斯 Tom Hughes

◎标  签 犯罪 | 美国 | 悬疑 | 2021 | 惊悚 | 剧情 | 人性 | 破案

◎简  介

  
  克恩郡巡警乔狄肯,小名狄克(丹泽尔·华盛顿 饰),被派往洛杉矶进行本该是趟简单明快的证据收集任务。取而代之的是,他被卷入一场缉捕正肆虐该市的连环杀手之行动。领导缉捕的是洛杉矶郡警长吉姆贝克斯特(拉米·马雷克 饰),对狄克的警察直觉大为惊艳,因而私自寻求他的协助。
  
  但在两 人追踪主要嫌疑人艾伯特史帕玛(杰瑞德·莱托 饰)时,贝克斯特浑然不觉该调查勾起了狄克对过去不愉快的回忆,随之出土的黑暗秘密除了威胁案件调查外,可能牵连更剧。
  

◎获奖情况

  第78届金球奖  (2021)
  电影类最佳男配角(提名) 杰瑞德·莱托
  
  第27届美国演员工会奖  (2021)
  电影奖最佳男配角(提名) 杰瑞德·莱托

DISC INFO:

Disc Title:     The.Little.Things.2021.COMPLETE.BLURAY-PCH
Disc Size:      42,794,735,081 bytes
Protection:     AACS
Extras:         BD-Java
BDInfo:         0.7.5.9 (compatible layout created by DVDFab 12.0.2.6)

PLAYLIST REPORT:

Name:                   00800.MPLS  
Length:                 2:07:49.912 (h:m:s.ms)
Size:                   39,155,152,896 bytes
Total Bitrate:          40.84 Mbps

VIDEO:

Codec                   Bitrate             Description     
-----                   -------             -----------     
MPEG-4 AVC Video        31543 kbps          1080p / 23.976 fps / 16:9 / High Profile 4.1

AUDIO:

Codec                           Language        Bitrate         Description     
-----                           --------        -------         -----------     
DTS-HD Master Audio             English         3332 kbps       5.1 / 48 kHz / 3332 kbps / 24-bit (DTS Core: 5.1 / 48 kHz / 1509 kbps / 24-bit)
Dolby Digital Audio             English         640 kbps        5.1 / 48 kHz / 640 kbps
Dolby Digital Audio             French          640 kbps        5.1 / 48 kHz / 640 kbps
Dolby Digital Audio             German          640 kbps        5.1 / 48 kHz / 640 kbps
Dolby Digital Audio             German          192 kbps        2.0 / 48 kHz / 192 kbps / Dolby Surround
Dolby Digital Audio             Italian         640 kbps        5.1 / 48 kHz / 640 kbps
Dolby Digital Audio             Spanish         640 kbps        5.1 / 48 kHz / 640 kbps

SUBTITLES:

Codec                           Language        Bitrate         Description     
-----                           --------        -------         -----------     
Presentation Graphics           English         29.551 kbps                     
Presentation Graphics           French          21.479 kbps                     
Presentation Graphics           German          28.733 kbps                     
Presentation Graphics           Italian         26.094 kbps                     
Presentation Graphics           Spanish         23.158 kbps                     
Presentation Graphics           Dutch           20.811 kbps                     
Presentation Graphics           Danish          25.479 kbps                     
Presentation Graphics           Finnish         24.896 kbps                     
Presentation Graphics           Norwegian       24.418 kbps                     
Presentation Graphics           Swedish         25.574 kbps                     
Presentation Graphics           French          0.234 kbps                     
Presentation Graphics           German          0.05 kbps                       
Presentation Graphics           Italian         0.62 kbps                       
Presentation Graphics           Spanish         0.422 kbps

Video
ID : 1
ID in the original source medium : 4113 (0x1011)
Format : AVC
Format/Info : Advanced Video Codec
Format profile : [email protected]
Format settings : CABAC / 4 Ref Frames
Format settings, CABAC : Yes
Format settings, Reference frames : 4 frames
Codec ID : V_MPEG4/ISO/AVC
Duration : 2 h 7 min
Bit rate mode : Variable
Bit rate : 30.6 Mb/s
Maximum bit rate : 32.0 Mb/s
Width : 1 920 pixels
Height : 1 080 pixels
Display aspect ratio : 16:9
Frame rate mode : Constant
Frame rate : 23.976 (24000/1001) FPS
Color space : YUV
Chroma subsampling : 4:2:0
Bit depth : 8 bits
Scan type : Progressive
Bits/(Pixel*Frame) : 0.616
Stream size : 27.4 GiB (82%)
Language : English
Default : No
Forced : No
Original source medium : Blu-ray

Audio #1
ID : 2
ID in the original source medium : 4352 (0x1100)
Format : DTS XLL
Format/Info : Digital Theater Systems
Commercial name : DTS-HD Master Audio
Codec ID : A_DTS
Duration : 2 h 7 min
Bit rate mode : Variable
Bit rate : 3 332 kb/s
Channel(s) : 6 channels
Channel layout : C L R Ls Rs LFE
Sampling rate : 48.0 kHz
Frame rate : 93.750 FPS (512 SPF)
Bit depth : 24 bits
Compression mode : Lossless
Stream size : 2.97 GiB (9%)
Title : DTS-HD MA 5.1
Language : English
Default : Yes
Forced : No
Original source medium : Blu-ray

Audio #2
ID : 3
ID in the original source medium : 4353 (0x1101)
Format : AC-3
Format/Info : Audio Coding 3
Commercial name : Dolby Digital
Codec ID : A_AC3
Duration : 2 h 7 min
Bit rate mode : Constant
Bit rate : 640 kb/s
Channel(s) : 6 channels
Channel layout : L R C LFE Ls Rs
Sampling rate : 48.0 kHz
Frame rate : 31.250 FPS (1536 SPF)
Compression mode : Lossy
Stream size : 585 MiB (2%)
Title : DD 5.1
Language : English
Service kind : Complete Main
Default : No
Forced : No
Original source medium : Blu-ray

Audio #3
ID : 4
ID in the original source medium : 4354 (0x1102)
Format : AC-3
Format/Info : Audio Coding 3
Commercial name : Dolby Digital
Codec ID : A_AC3
Duration : 2 h 7 min
Bit rate mode : Constant
Bit rate : 640 kb/s
Channel(s) : 6 channels
Channel layout : L R C LFE Ls Rs
Sampling rate : 48.0 kHz
Frame rate : 31.250 FPS (1536 SPF)
Compression mode : Lossy
Stream size : 585 MiB (2%)
Title : DD 5.1
Language : French
Service kind : Complete Main
Default : No
Forced : No
Original source medium : Blu-ray

Audio #4
ID : 5
ID in the original source medium : 4355 (0x1103)
Format : AC-3
Format/Info : Audio Coding 3
Commercial name : Dolby Digital
Codec ID : A_AC3
Duration : 2 h 7 min
Bit rate mode : Constant
Bit rate : 640 kb/s
Channel(s) : 6 channels
Channel layout : L R C LFE Ls Rs
Sampling rate : 48.0 kHz
Frame rate : 31.250 FPS (1536 SPF)
Compression mode : Lossy
Stream size : 585 MiB (2%)
Title : DD 5.1
Language : German
Service kind : Complete Main
Default : No
Forced : No
Original source medium : Blu-ray

Audio #5
ID : 6
ID in the original source medium : 4356 (0x1104)
Format : AC-3
Format/Info : Audio Coding 3
Commercial name : Dolby Digital
Format settings : Dolby Surround
Codec ID : A_AC3
Duration : 2 h 7 min
Bit rate mode : Constant
Bit rate : 192 kb/s
Channel(s) : 2 channels
Channel layout : L R
Sampling rate : 48.0 kHz
Frame rate : 31.250 FPS (1536 SPF)
Compression mode : Lossy
Stream size : 176 MiB (1%)
Title : DD 2.0
Language : German
Service kind : Complete Main
Default : No
Forced : No
Original source medium : Blu-ray

Audio #6
ID : 7
ID in the original source medium : 4357 (0x1105)
Format : AC-3
Format/Info : Audio Coding 3
Commercial name : Dolby Digital
Codec ID : A_AC3
Duration : 2 h 7 min
Bit rate mode : Constant
Bit rate : 640 kb/s
Channel(s) : 6 channels
Channel layout : L R C LFE Ls Rs
Sampling rate : 48.0 kHz
Frame rate : 31.250 FPS (1536 SPF)
Compression mode : Lossy
Stream size : 585 MiB (2%)
Title : DD 5.1
Language : Italian
Service kind : Complete Main
Default : No
Forced : No
Original source medium : Blu-ray

Audio #7
ID : 8
ID in the original source medium : 4358 (0x1106)
Format : AC-3
Format/Info : Audio Coding 3
Commercial name : Dolby Digital
Codec ID : A_AC3
Duration : 2 h 7 min
Bit rate mode : Constant
Bit rate : 640 kb/s
Channel(s) : 6 channels
Channel layout : L R C LFE Ls Rs
Sampling rate : 48.0 kHz
Frame rate : 31.250 FPS (1536 SPF)
Compression mode : Lossy
Stream size : 585 MiB (2%)
Title : DD 5.1
Language : Spanish
Service kind : Complete Main
Default : No
Forced : No
Original source medium : Blu-ray

Text #1
ID : 9
Format : UTF-8
Codec ID : S_TEXT/UTF8
Codec ID/Info : UTF-8 Plain Text
Duration : 1 h 59 min
Bit rate : 44 b/s
Count of elements : 1317
Stream size : 38.5 KiB (0%)
Title : English-SRT
Language : English
Default : Yes
Forced : No

Text #2
ID : 10
ID in the original source medium : 4608 (0x1200)
Format : PGS
Muxing mode : zlib
Codec ID : S_HDMV/PGS
Codec ID/Info : Picture based subtitle format used on BDs/HD-DVDs
Duration : 2 h 2 min
Bit rate : 30.9 kb/s
Count of elements : 3090
Stream size : 27.0 MiB (0%)
Title : English-PGS
Language : English
Default : No
Forced : No
Original source medium : Blu-ray

Text #3
ID : 11
ID in the original source medium : 4609 (0x1201)
Format : PGS
Muxing mode : zlib
Codec ID : S_HDMV/PGS
Codec ID/Info : Picture based subtitle format used on BDs/HD-DVDs
Duration : 2 h 7 min
Bit rate : 21.6 kb/s
Count of elements : 2482
Stream size : 19.6 MiB (0%)
Title : French-PGS
Language : French
Default : No
Forced : No
Original source medium : Blu-ray

Text #4
ID : 12
ID in the original source medium : 4610 (0x1202)
Format : PGS
Muxing mode : zlib
Codec ID : S_HDMV/PGS
Codec ID/Info : Picture based subtitle format used on BDs/HD-DVDs
Duration : 2 h 3 min
Bit rate : 29.7 kb/s
Count of elements : 2682
Stream size : 26.3 MiB (0%)
Title : German-PGS
Language : German
Default : No
Forced : No
Original source medium : Blu-ray

Text #5
ID : 13
ID in the original source medium : 4611 (0x1203)
Format : PGS
Muxing mode : zlib
Codec ID : S_HDMV/PGS
Codec ID/Info : Picture based subtitle format used on BDs/HD-DVDs
Duration : 2 h 7 min
Bit rate : 26.2 kb/s
Count of elements : 3106
Stream size : 23.9 MiB (0%)
Title : Italian-PGS
Language : Italian
Default : No
Forced : No
Original source medium : Blu-ray

Text #6
ID : 14
ID in the original source medium : 4612 (0x1204)
Format : PGS
Muxing mode : zlib
Codec ID : S_HDMV/PGS
Codec ID/Info : Picture based subtitle format used on BDs/HD-DVDs
Duration : 2 h 7 min
Bit rate : 23.3 kb/s
Count of elements : 2496
Stream size : 21.2 MiB (0%)
Title : Spanish-PGS
Language : Spanish
Default : No
Forced : No
Original source medium : Blu-ray

Text #7
ID : 15
ID in the original source medium : 4613 (0x1205)
Format : PGS
Muxing mode : zlib
Codec ID : S_HDMV/PGS
Codec ID/Info : Picture based subtitle format used on BDs/HD-DVDs
Duration : 2 h 5 min
Bit rate : 21.2 kb/s
Count of elements : 1686
Stream size : 19.0 MiB (0%)
Title : Dutch-PGS
Language : Dutch
Default : No
Forced : No
Original source medium : Blu-ray

Text #8
ID : 16
ID in the original source medium : 4614 (0x1206)
Format : PGS
Muxing mode : zlib
Codec ID : S_HDMV/PGS
Codec ID/Info : Picture based subtitle format used on BDs/HD-DVDs
Duration : 2 h 7 min
Bit rate : 25.6 kb/s
Count of elements : 2596
Stream size : 23.3 MiB (0%)
Title : Danish-PGS
Language : Danish
Default : No
Forced : No
Original source medium : Blu-ray

Text #9
ID : 17
ID in the original source medium : 4615 (0x1207)
Format : PGS
Muxing mode : zlib
Codec ID : S_HDMV/PGS
Codec ID/Info : Picture based subtitle format used on BDs/HD-DVDs
Duration : 2 h 7 min
Bit rate : 25.0 kb/s
Count of elements : 2584
Stream size : 22.8 MiB (0%)
Title : Finnish-PGS
Language : Finnish
Default : No
Forced : No
Original source medium : Blu-ray

Text #10
ID : 18
ID in the original source medium : 4616 (0x1208)
Format : PGS
Muxing mode : zlib
Codec ID : S_HDMV/PGS
Codec ID/Info : Picture based subtitle format used on BDs/HD-DVDs
Duration : 2 h 7 min
Bit rate : 24.6 kb/s
Count of elements : 2600
Stream size : 22.3 MiB (0%)
Title : Norwegian-PGS
Language : Norwegian
Default : No
Forced : No
Original source medium : Blu-ray

Text #11
ID : 19
ID in the original source medium : 4617 (0x1209)
Format : PGS
Muxing mode : zlib
Codec ID : S_HDMV/PGS
Codec ID/Info : Picture based subtitle format used on BDs/HD-DVDs
Duration : 2 h 5 min
Bit rate : 26.1 kb/s
Count of elements : 2580
Stream size : 23.4 MiB (0%)
Title : Swedish-PGS
Language : Swedish
Default : No
Forced : No
Original source medium : Blu-ray

Text #12
ID : 20
ID in the original source medium : 4618 (0x120A)
Format : PGS
Muxing mode : zlib
Codec ID : S_HDMV/PGS
Codec ID/Info : Picture based subtitle format used on BDs/HD-DVDs
Duration : 1 h 57 min
Bit rate : 254 b/s
Count of elements : 26
Stream size : 219 KiB (0%)
Title : French-FPRCED-PGS
Language : French
Default : No
Forced : No
Original source medium : Blu-ray

Text #13
ID : 21
ID in the original source medium : 4619 (0x120B)
Format : PGS
Muxing mode : zlib
Codec ID : S_HDMV/PGS
Codec ID/Info : Picture based subtitle format used on BDs/HD-DVDs
Duration : 4 min 16 s
Bit rate : 1 491 b/s
Count of elements : 4
Stream size : 46.7 KiB (0%)
Title : German-FORCED-PGS
Language : German
Default : No
Forced : No
Original source medium : Blu-ray

Text #14
ID : 22
ID in the original source medium : 4620 (0x120C)
Format : PGS
Muxing mode : zlib
Codec ID : S_HDMV/PGS
Codec ID/Info : Picture based subtitle format used on BDs/HD-DVDs
Duration : 2 h 7 min
Bit rate : 624 b/s
Count of elements : 74
Stream size : 581 KiB (0%)
Title : Italian-FORCED-PGS
Language : Italian
Default : No
Forced : No
Original source medium : Blu-ray

Text #15
ID : 23
ID in the original source medium : 4621 (0x120D)
Format : PGS
Muxing mode : zlib
Codec ID : S_HDMV/PGS
Codec ID/Info : Picture based subtitle format used on BDs/HD-DVDs
Duration : 1 h 57 min
Bit rate : 459 b/s
Count of elements : 38
Stream size : 395 KiB (0%)
Title : Spanish-FORCED-PGS
Language : Spanish
Default : No
Forced : No
Original source medium : Blu-ray

Menu
00:00:00.000 : Chapter 01
00:04:14.295 : Chapter 02
00:13:18.714 : Chapter 03
00:23:18.021 : Chapter 04
00:31:38.897 : Chapter 05
00:40:27.591 : Chapter 06
00:49:16.995 : Chapter 07
00:58:38.348 : Chapter 08
01:07:12.695 : Chapter 09
01:15:27.898 : Chapter 10
01:25:12.941 : Chapter 11
01:34:59.485 : Chapter 12
01:44:32.182 : Chapter 13
01:51:47.075 : Chapter 14
01:56:24.435 : Chapter 15
02:02:34.388 : Chapter 16

本帖子中包含更多资源

您需要 登录 才可以下载或查看,没有帐号?立即注册

x
回复

使用道具 举报

0

主题

1146

帖子

8595

积分

VIP永久

Rank: 12Rank: 12Rank: 12

积分
8595
发表于 2021-4-30 10:38:29 | 显示全部楼层
谢谢楼主分享
回复

使用道具 举报

0

主题

321

帖子

1869

积分

金牌会员

Rank: 6Rank: 6

积分
1869
发表于 2021-4-30 19:10:44 | 显示全部楼层
赞一个,很不错!
回复

使用道具 举报

0

主题

772

帖子

3043

积分

论坛元老

Rank: 8Rank: 8

积分
3043
发表于 2021-5-1 16:25:33 | 显示全部楼层
感谢楼主分享
回复

使用道具 举报

0

主题

772

帖子

3043

积分

论坛元老

Rank: 8Rank: 8

积分
3043
发表于 2021-5-2 17:25:25 | 显示全部楼层
感谢楼主分享
回复

使用道具 举报

您需要登录后才可以回帖 登录 | 立即注册

本版积分规则

QQ|Archiver|手机版|小黑屋|原盘天堂 好多盘 点击这里给我发消息

GMT+8, 2021-5-11 14:48 , Processed in 0.060808 second(s), 25 queries .

Powered by Discuz! X3.4

Copyright © 2001-2020, Tencent Cloud.

快速回复 返回顶部 返回列表