请选择 进入手机版 | 继续访问电脑版
本站Q群713428235【盘盘多】已满,请新会员加原盘天堂新官方QQ群709708625【好多盘】,验证信息填写您在论坛的会员名,不填会员名的无法入群哈,进群后修改您的群名片名字为您在论坛的会员名,请务必修改,否则群成员多了不知道您是哪个会员。

原盘天堂

 找回密码
 立即注册
京东商城当当华为商城名牌时尚折扣网,一个新型的网上购物平台,我们每周为您精选3~4个国际知名品牌,商品折扣低至2折限时限量售卖,商品囊括时装、护肤品、箱包、皮具、配饰、香水等等,琳琅满目。亿格瑞A10硬盘播放器 苏宁易购
查看: 109|回复: 3

2d蓝光原盘bdmv 神枪手 英语原版 the.marksman.2021.1080p.bluray.avc.dts-hd.ma.5.1[35.37 GB]

[复制链接]

5958

主题

6605

帖子

132万

积分

管理员

Rank: 18Rank: 18Rank: 18Rank: 18Rank: 18

积分
1329763
发表于 2021-4-28 09:19:10 | 显示全部楼层 |阅读模式








神枪手 The Marksman (2021)


◎译  名 神枪手/捍卫救援(台)/立即应召/The Minuteman
◎片  名 The Marksman
◎年  代 2021
◎产  地 美国
◎类  别 动作/惊悚
◎语  言 英语
◎上映日期 2021-01-15(美国)
◎IMDb评分  5.6/10 from 8,296 users
◎IMDb链接  https://www.imdb.com/title/tt6902332/
◎豆瓣评分 5.4/10 from 2714 users
◎豆瓣链接 https://douban.com/subject/33441781/
◎片  长 108分钟
◎导  演 罗伯特·洛伦兹 Robert Lorenz
◎编  剧 克里斯·查尔斯 Chris Charles / 丹尼·克拉维茨 Danny Kravitz / 罗伯特·洛伦兹 Robert Lorenz
◎主  演 连姆·尼森 Liam Neeson
       凯瑟琳·温妮克 Katheryn Winnick
       特蕾莎·鲁伊斯 Teresa Ruiz
       胡安·巴勃罗·拉瓦 Juan Pablo Raba
       迪兰·科宁 Dylan Kenin
       卢斯·雷恩斯 Luce Rains
       雅各布·佩雷斯 Jacob Perez
       多米尼克·坎塞利埃 Dominic Cancelliere
       蔡斯·马林斯 Chase Mullins
       肖恩A·罗萨莱斯 Sean A. Rosales
       阿尔弗雷多·奎罗斯 Alfredo Quiroz
       亚历克斯·奈特 Alex Knight
       格雷森·贝里 Grayson Berry
       安伯·明迪桑德 Amber Midthunder
       汤米·拉菲特 Tommy Lafitte
       王明 Ming Wang
       卢·伍德曼 Lew Wurdeman
       克里斯托弗·米勒 Christopher Mele

◎标  签 连姆尼森 | 动作 | 美国 | 犯罪 | 2021 | 枪战 | 惊悚 | 电影

◎简  介

  
  海军陆战队退役的神射手吉姆(连姆·尼森 饰)在亚利桑那州边境拥有一座牧场,过着离群索居生活的吉姆,某日目睹11岁男孩米格尔和母亲萝莎遭到墨西哥毒贩追杀。在一场激烈枪战后,奄奄一息的萝莎将米格尔托付给吉姆,吉姆决定带着米格尔横跨半个美国,前往芝加哥与家人团聚,两人也建立起一段不平凡的友谊。然而,面对穷追不舍的毒贩杀手,吉姆一路上将运用自己过去在海军陆战队习得的战斗技巧,与这群杀手展开一场生死之战,誓死护送米格尔安全回家……
  
DISC INFO:

Disc Title:     The.Marksman.2021.1080p.BluRay.AVC.DTS-HD.MA.5.1-FGT
Disc Size:      37,982,050,239 bytes
Protection:     AACS
BDInfo:         0.7.5.9 (compatible layout created by DVDFab 12.0.2.6)

PLAYLIST REPORT:

Name:                   00000.MPLS  
Length:                 1:47:29.526 (h:m:s.ms)
Size:                   29,743,896,576 bytes
Total Bitrate:          36.89 Mbps

VIDEO:

Codec                   Bitrate             Description     
-----                   -------             -----------     
MPEG-4 AVC Video        30019 kbps          1080p / 23.976 fps / 16:9 / High Profile 4.1

AUDIO:

Codec                           Language        Bitrate         Description     
-----                           --------        -------         -----------     
DTS-HD Master Audio             English         3255 kbps       5.1 / 48 kHz / 3255 kbps / 24-bit (DTS Core: 5.1 / 48 kHz / 1509 kbps / 24-bit)
LPCM Audio                      English         1536 kbps       2.0 / 48 kHz / 1536 kbps / 16-bit

SUBTITLES:

Codec                           Language        Bitrate         Description     
-----                           --------        -------         -----------     
Presentation Graphics           English         16.886 kbps     

Video
ID : 1
ID in the original source medium : 4113 (0x1011)
Format : AVC
Format/Info : Advanced Video Codec
Format profile : [email protected]
Format settings : CABAC / 4 Ref Frames
Format settings, CABAC : Yes
Format settings, Reference frames : 4 frames
Codec ID : V_MPEG4/ISO/AVC
Duration : 1 h 47 min
Bit rate mode : Variable
Bit rate : 30.0 Mb/s
Maximum bit rate : 35.0 Mb/s
Width : 1 920 pixels
Height : 1 080 pixels
Display aspect ratio : 16:9
Frame rate mode : Constant
Frame rate : 23.976 (24000/1001) FPS
Color space : YUV
Chroma subsampling : 4:2:0
Bit depth : 8 bits
Scan type : Progressive
Bits/(Pixel*Frame) : 0.604
Stream size : 22.5 GiB (86%)
Language : English
Default : No
Forced : No
Color range : Limited
Color primaries : BT.709
Transfer characteristics : BT.709
Matrix coefficients : BT.709
Original source medium : Blu-ray

Audio #1
ID : 2
ID in the original source medium : 4352 (0x1100)
Format : DTS XLL
Format/Info : Digital Theater Systems
Commercial name : DTS-HD Master Audio
Codec ID : A_DTS
Duration : 1 h 47 min
Bit rate mode : Variable
Bit rate : 3 255 kb/s
Channel(s) : 6 channels
Channel layout : C L R Ls Rs LFE
Sampling rate : 48.0 kHz
Frame rate : 93.750 FPS (512 SPF)
Bit depth : 24 bits
Compression mode : Lossless
Stream size : 2.44 GiB (9%)
Title : DTS-HD MA 5.1
Language : English
Default : Yes
Forced : No
Original source medium : Blu-ray

Audio #2
ID : 3
ID in the original source medium : 4353 (0x1101)
Format : PCM
Format settings : Little / Signed
Codec ID : A_PCM/INT/LIT
Duration : 1 h 47 min
Bit rate mode : Constant
Bit rate : 1 536 kb/s
Channel(s) : 2 channels
Sampling rate : 48.0 kHz
Frame rate : 30.000 FPS (1600 SPF)
Bit depth : 16 bits
Stream size : 1.15 GiB (4%)
Title : LPCM 2.0
Language : English
Default : No
Forced : No
Original source medium : Blu-ray

Text #1
ID : 4
Format : UTF-8
Codec ID : S_TEXT/UTF8
Codec ID/Info : UTF-8 Plain Text
Duration : 1 h 41 min
Bit rate : 27 b/s
Count of elements : 885
Stream size : 20.6 KiB (0%)
Title : English-SRT
Language : English
Default : Yes
Forced : No

Text #2
ID : 5
ID in the original source medium : 4608 (0x1200)
Format : PGS
Muxing mode : zlib
Codec ID : S_HDMV/PGS
Codec ID/Info : Picture based subtitle format used on BDs/HD-DVDs
Duration : 1 h 45 min
Bit rate : 17.2 kb/s
Count of elements : 1804
Stream size : 13.0 MiB (0%)
Title : English-PGS
Language : English
Default : No
Forced : No
Original source medium : Blu-ray

Menu
00:00:00.000 : Chapter 01
00:09:43.291 : Chapter 02
00:18:06.877 : Chapter 03
00:27:57.842 : Chapter 04
00:40:06.445 : Chapter 05
00:51:09.399 : Chapter 06
01:01:57.171 : Chapter 07
01:10:21.717 : Chapter 08
01:20:09.930 : Chapter 09
01:30:25.920 : Chapter 10
01:40:41.243 : Chapter 11

本帖子中包含更多资源

您需要 登录 才可以下载或查看,没有帐号?立即注册

x
回复

使用道具 举报

0

主题

307

帖子

1436

积分

金牌会员

Rank: 6Rank: 6

积分
1436
发表于 2021-4-28 11:37:47 | 显示全部楼层
谢谢分享   楼主辛苦
回复

使用道具 举报

0

主题

321

帖子

1869

积分

金牌会员

Rank: 6Rank: 6

积分
1869
发表于 2021-4-28 19:18:51 | 显示全部楼层
感谢楼主分享
回复

使用道具 举报

0

主题

305

帖子

3404

积分

论坛元老

Rank: 8Rank: 8

积分
3404
发表于 2021-4-29 13:27:29 | 显示全部楼层
谢谢分享
回复

使用道具 举报

您需要登录后才可以回帖 登录 | 立即注册

本版积分规则

QQ|Archiver|手机版|小黑屋|原盘天堂 好多盘 点击这里给我发消息

GMT+8, 2021-5-11 15:07 , Processed in 0.054887 second(s), 25 queries .

Powered by Discuz! X3.4

Copyright © 2001-2020, Tencent Cloud.

快速回复 返回顶部 返回列表