请选择 进入手机版 | 继续访问电脑版
本站Q群713428235【盘盘多】已满,请新会员加原盘天堂新官方QQ群709708625【好多盘】,验证信息填写您在论坛的会员名,不填会员名的无法入群哈,进群后修改您的群名片名字为您在论坛的会员名,请务必修改,否则群成员多了不知道您是哪个会员。

原盘天堂

 找回密码
 立即注册
京东商城当当华为商城名牌时尚折扣网,一个新型的网上购物平台,我们每周为您精选3~4个国际知名品牌,商品折扣低至2折限时限量售卖,商品囊括时装、护肤品、箱包、皮具、配饰、香水等等,琳琅满目。亿格瑞A10硬盘播放器 苏宁易购
查看: 189|回复: 10

4k蓝光原盘bdmv 前哨 英语原版 the.outpost.2020.2160p.bluray.hevc.dts-hd.ma.5.1[79.73 GB]

[复制链接]

5958

主题

6605

帖子

132万

积分

管理员

Rank: 18Rank: 18Rank: 18Rank: 18Rank: 18

积分
1329755
发表于 2021-4-27 11:41:29 | 显示全部楼层 |阅读模式








前哨 The Outpost (2020)


◎译  名 前哨/72小时前哨救援(台)/前哨基地
◎片  名 The Outpost
◎年  代 2020
◎产  地 保加利亚/美国
◎类  别 剧情/历史/战争
◎语  言 英语
◎上映日期 2020-07-03(美国)
◎IMDb链接  https://www.imdb.com/title/tt3833480/
◎豆瓣评分 7.1/10 from 16652 users
◎豆瓣链接 https://douban.com/subject/30212622/
◎片  长 123分钟
◎导  演 罗德·拉里 Rod Lurie
◎编  剧 埃瑞克·约翰逊 Eric Johnson / 保罗·塔马西 Paul Tamasy / 杰克·塔伯 Jake Tapper
◎主  演 斯科特·伊斯特伍德 Scott Eastwood
       奥兰多·布鲁姆 Orlando Bloom
       卡赖伯·兰德里·琼斯 Caleb Landry Jones
       雅各布·西皮奥 Jacob Scipio
       杰克·凯西 Jack Kesy
       米洛·吉布森 Milo Gibson
       阿历克斯·阿诺 Alexander Arnold
       塞莱娜·辛顿 Celina Sinden
       泰勒·约翰·史密斯 Taylor John Smith
       科里·哈德里克 Cory Hardrict
       巴比·洛克伍德 Bobby Lockwood
       威尔·阿滕伯勒 Will Attenborough
       法希姆·法兹利 Fahim Fazli
       詹姆斯·贾格尔 James Jagger
       科瓦米·帕特森 Kwame Patterson
       阿尔菲·斯图尔特 Alfie Stewart
       Daniel Rodriguez
       特里·塔克 Trey Tucker

◎标  签 战争 | 阿富汗战争 | 真实事件改编 | 美国 | 2020 | 美国电影 | 剧情 | 电影

◎简  介

  
  斯科特·伊斯特伍德、卡赖伯·兰德里·琼斯、奥兰多·布鲁姆将主演Millennium Media打造的阿富汗战争题材影片[前哨](The Outpost,暂译)。罗德·拉里执导影片,影片则根据CNN记者Jake Tapper著作改编。影片故事将围绕53名美国士兵的真实故事展开,这些士兵与阿富汗东北部约400名敌方武装分子拉开持久的作战。他们所建造的前哨基地位于巴基斯坦边境仅14英里处的三处陡峭山脉底部。基地则面临塔利班恐怖分子的袭击。而驻扎在那里的士兵则面临着巨大威胁。片中斯科特·伊斯特伍德扮演克林特·罗马沙军士,卡赖伯·兰德里·琼斯扮演专业军士Ty Michael Carter,布鲁姆扮演的Benjamin D. Keating在阿富汗战争中不幸丧生。该片预计将在今年8月展开拍摄,影片也将在戛纳电影节寻找买家。
  

◎获奖情况

  第92届美国国家评论协会奖  (2020)
  十佳独立电影
  
  第26届美国评论家选择电影奖  (2021)
  最佳歌曲(提名)
  
  第25届金卫星奖  (2021)
  电影部门最佳原创歌曲(提名)

DISC INFO:

Disc Title:     The.Outpost.2019.2160p.BluRay.HEVC.DTS-HD.MA.5.1-UNTOUCHED
Disc Size:      85,613,435,394 bytes
Protection:     AACS2
Extras:         Ultra HD
BDInfo:         0.7.5.9 (compatible layout created by DVDFab 12.0.2.6)

PLAYLIST REPORT:

Name:                   00000.MPLS  
Length:                 2:03:30.403 (h:m:s.ms)
Size:                   78,029,432,832 bytes
Total Bitrate:          84.24 Mbps

VIDEO:

Codec                   Bitrate             Description     
-----                   -------             -----------     
MPEG-H HEVC Video       76126 kbps          2160p / 23.976 fps / 16:9 / Main 10 @ Level 5.1 @ High / 4:2:0 / 10 bits / 1000nits / HDR10+ v1 Profile B / BT.2020

AUDIO:

Codec                           Language        Bitrate         Description     
-----                           --------        -------         -----------     
DTS-HD Master Audio             German          1987 kbps       5.1 / 48 kHz / 1987 kbps / 16-bit (DTS Core: 5.1 / 48 kHz / 1509 kbps / 16-bit)
DTS-HD Master Audio             English         2032 kbps       5.1 / 48 kHz / 2032 kbps / 16-bit (DTS Core: 5.1 / 48 kHz / 1509 kbps / 16-bit)

SUBTITLES:

Codec                           Language        Bitrate         Description     
-----                           --------        -------         -----------     
Presentation Graphics           German          49.05 kbps                     
Presentation Graphics           German          0.064 kbps

Video
ID : 1
ID in the original source medium : 4113 (0x1011)
Format : HEVC
Format/Info : High Efficiency Video Coding
Format profile : Main [email protected]@High
HDR format : SMPTE ST 2094 App 4, Version 1, HDR10+ Profile B compatible
Codec ID : V_MPEGH/ISO/HEVC
Duration : 2 h 3 min
Bit rate : 76.1 Mb/s
Width : 3 840 pixels
Height : 2 160 pixels
Display aspect ratio : 16:9
Frame rate mode : Constant
Frame rate : 23.976 (24000/1001) FPS
Color space : YUV
Chroma subsampling : 4:2:0 (Type 2)
Bit depth : 10 bits
Bits/(Pixel*Frame) : 0.383
Stream size : 65.7 GiB (94%)
Language : English
Default : No
Forced : No
Color range : Limited
Color primaries : BT.2020
Transfer characteristics : PQ
Matrix coefficients : BT.2020 non-constant
Mastering display color primaries : Display P3
Mastering display luminance : min: 0.0001 cd/m2, max: 1000 cd/m2
Maximum Content Light Level : 5566 cd/m2
Maximum Frame-Average Light Level : 400 cd/m2
Original source medium : Blu-ray

Audio #1
ID : 2
ID in the original source medium : 4353 (0x1101)
Format : DTS XLL
Format/Info : Digital Theater Systems
Commercial name : DTS-HD Master Audio
Codec ID : A_DTS
Duration : 2 h 3 min
Bit rate mode : Variable
Bit rate : 2 032 kb/s
Channel(s) : 6 channels
Channel layout : C L R Ls Rs LFE
Sampling rate : 48.0 kHz
Frame rate : 93.750 FPS (512 SPF)
Bit depth : 16 bits
Compression mode : Lossless
Stream size : 1.75 GiB (3%)
Title : DTS-HD MA 5.1
Language : English
Default : Yes
Forced : No
Original source medium : Blu-ray

Audio #2
ID : 3
Format : AC-3
Format/Info : Audio Coding 3
Commercial name : Dolby Digital
Codec ID : A_AC3
Duration : 2 h 3 min
Bit rate mode : Constant
Bit rate : 640 kb/s
Channel(s) : 6 channels
Channel layout : L R C LFE Ls Rs
Sampling rate : 48.0 kHz
Frame rate : 31.250 FPS (1536 SPF)
Compression mode : Lossy
Stream size : 565 MiB (1%)
Title : DD 5.1
Language : English
Service kind : Complete Main
Default : No
Forced : No

Audio #3
ID : 4
ID in the original source medium : 4352 (0x1100)
Format : DTS XLL
Format/Info : Digital Theater Systems
Commercial name : DTS-HD Master Audio
Codec ID : A_DTS
Duration : 2 h 3 min
Bit rate mode : Variable
Bit rate : 1 987 kb/s
Channel(s) : 6 channels
Channel layout : C L R Ls Rs LFE
Sampling rate : 48.0 kHz
Frame rate : 93.750 FPS (512 SPF)
Bit depth : 16 bits
Compression mode : Lossless
Stream size : 1.71 GiB (2%)
Title : DTS-HD MA 5.1
Language : German
Default : No
Forced : No
Original source medium : Blu-ray

Text #1
ID : 5
Format : UTF-8
Codec ID : S_TEXT/UTF8
Codec ID/Info : UTF-8 Plain Text
Duration : 2 h 1 min
Bit rate : 78 b/s
Count of elements : 2805
Stream size : 69.8 KiB (0%)
Title : English-SRT
Language : English
Default : Yes
Forced : No

Text #2
ID : 6
ID in the original source medium : 4768 (0x12A0)
Format : PGS
Muxing mode : zlib
Codec ID : S_HDMV/PGS
Codec ID/Info : Picture based subtitle format used on BDs/HD-DVDs
Duration : 2 h 0 min
Bit rate : 50.1 kb/s
Count of elements : 3596
Stream size : 43.3 MiB (0%)
Title : German-PGS
Language : German
Default : No
Forced : No
Original source medium : Blu-ray

Text #3
ID : 7
ID in the original source medium : 4769 (0x12A1)
Format : PGS
Muxing mode : zlib
Codec ID : S_HDMV/PGS
Codec ID/Info : Picture based subtitle format used on BDs/HD-DVDs
Duration : 27 min 42 s
Bit rate : 284 b/s
Count of elements : 4
Stream size : 57.8 KiB (0%)
Title : German-FORCED-PGS
Language : German
Default : No
Forced : No
Original source medium : Blu-ray

Menu
00:00:00.000 : Chapter 01
00:10:28.753 : Chapter 02
00:18:13.801 : Chapter 03
00:30:15.313 : Chapter 04
00:41:48.005 : Chapter 05
00:50:08.630 : Chapter 06
00:59:56.009 : Chapter 07
01:10:07.077 : Chapter 08
01:19:43.695 : Chapter 09
01:29:06.883 : Chapter 10
01:39:44.728 : Chapter 11
01:50:41.509 : Chapter 12

本帖子中包含更多资源

您需要 登录 才可以下载或查看,没有帐号?立即注册

x
回复

使用道具 举报

0

主题

696

帖子

3547

积分

论坛元老

Rank: 8Rank: 8

积分
3547
发表于 2021-4-27 12:57:50 | 显示全部楼层
谢楼主分享
回复

使用道具 举报

0

主题

321

帖子

1869

积分

金牌会员

Rank: 6Rank: 6

积分
1869
发表于 2021-4-27 18:52:57 | 显示全部楼层
谢楼主分享
回复

使用道具 举报

0

主题

771

帖子

3886

积分

论坛元老

Rank: 8Rank: 8

积分
3886
发表于 2021-4-27 19:12:12 | 显示全部楼层










回复

使用道具 举报

0

主题

307

帖子

1436

积分

金牌会员

Rank: 6Rank: 6

积分
1436
发表于 2021-4-28 11:39:36 | 显示全部楼层
谢谢分享   楼主辛苦
回复

使用道具 举报

0

主题

307

帖子

1436

积分

金牌会员

Rank: 6Rank: 6

积分
1436
发表于 2021-4-28 11:41:00 | 显示全部楼层
谢谢分享   楼主辛苦
回复

使用道具 举报

0

主题

33

帖子

152

积分

VIP月

Rank: 9Rank: 9Rank: 9

积分
152
发表于 2021-4-28 16:02:26 | 显示全部楼层
感谢分享谢谢谢谢谢...
回复

使用道具 举报

0

主题

1216

帖子

5137

积分

论坛元老

Rank: 8Rank: 8

积分
5137
发表于 2021-4-28 20:02:43 | 显示全部楼层
感谢楼主分享高清影片
回复

使用道具 举报

0

主题

772

帖子

3043

积分

论坛元老

Rank: 8Rank: 8

积分
3043
发表于 2021-5-1 17:00:07 | 显示全部楼层
感谢楼主分享
回复

使用道具 举报

0

主题

772

帖子

3043

积分

论坛元老

Rank: 8Rank: 8

积分
3043
发表于 2021-5-2 17:15:15 | 显示全部楼层
感谢楼主分享
回复

使用道具 举报

您需要登录后才可以回帖 登录 | 立即注册

本版积分规则

QQ|Archiver|手机版|小黑屋|原盘天堂 好多盘 点击这里给我发消息

GMT+8, 2021-5-11 14:53 , Processed in 0.062688 second(s), 25 queries .

Powered by Discuz! X3.4

Copyright © 2001-2020, Tencent Cloud.

快速回复 返回顶部 返回列表