请选择 进入手机版 | 继续访问电脑版
本站Q群713428235【盘盘多】已满,请新会员加原盘天堂新官方QQ群709708625【好多盘】,验证信息填写您在论坛的会员名,不填会员名的无法入群哈,进群后修改您的群名片名字为您在论坛的会员名,请务必修改,否则群成员多了不知道您是哪个会员。

原盘天堂

 找回密码
 立即注册
京东商城当当华为商城名牌时尚折扣网,一个新型的网上购物平台,我们每周为您精选3~4个国际知名品牌,商品折扣低至2折限时限量售卖,商品囊括时装、护肤品、箱包、皮具、配饰、香水等等,琳琅满目。亿格瑞A10硬盘播放器 苏宁易购
查看: 122|回复: 7

2d蓝光原盘bdmv 征服 英语原版 vanquish.2021.1080p.bluray.avc.dts-hd.ma.5.1[21.98 GB]

[复制链接]

5958

主题

6605

帖子

132万

积分

管理员

Rank: 18Rank: 18Rank: 18Rank: 18Rank: 18

积分
1329755
发表于 2021-4-24 22:24:29 | 显示全部楼层 |阅读模式








征服 Vanquish (2021)

◎译  名 征服/恶夜杀神(台)/The Longest Night
◎片  名 Vanquish
◎年  代 2021
◎产  地 美国
◎类  别 动作/惊悚/犯罪
◎语  言 英语
◎上映日期 2021-04-23(美国)
◎IMDb链接  https://www.imdb.com/title/tt5932368/
◎豆瓣评分 4.5/10 from 230 users
◎豆瓣链接 https://douban.com/subject/35203597/
◎导  演 乔治·加洛 George Gallo
◎编  剧 乔治·加洛 George Gallo
◎主  演 鲁比·罗丝 Ruby Rose
       摩根·弗里曼 Morgan Freeman
       帕特里克·茂顿 Patrick Muldoon
       Julie Lott
       尼克·瓦莱隆加 Nick Vallelonga
       乔尔·迈克利 Joel Michaely
       迈尔斯·多莱克 Miles Doleac
       克里斯‧穆利纳克斯 Chris Mullinax
       保罗·辛普森 Paul Sampson
       埃莱·巴德汉 Ele Bardha
       伊万·高蒂尔 Yvan Gauthier

◎标  签 动作 | 犯罪 | 美国 | 摩根·弗里曼 | 2021 | 鲁比·罗丝 | 美国电影 | 惊悚

◎简  介

  
  摩根·弗里曼、鲁比·罗丝将主演动作惊悚片[征服](Vanquish,暂译)。乔治·加洛([中间人])执导,加洛与Samuel Bartlett共同操刀剧本。弗里曼饰演一位退休的警察局长,他通过绑架他的看护人(罗丝)的女儿来勒索她,迫使她帮助他,欺骗他腐败的警察团队,企图清理整座城市。该片已在密西西比州比洛克西开拍。
  
DISC INFO:

Disc Title:     Vanquish.2021.1080p.BluRay.AVC.DTS-HD.MA.5.1-FGT
Disc Size:      23,605,766,079 bytes
Protection:     AACS
Extras:         BD-Java
BDInfo:         0.7.5.9 (compatible layout created by DVDFab 12.0.2.2)

PLAYLIST REPORT:

Name:                   00664.MPLS  
Length:                 1:34:08.684 (h:m:s.ms)
Size:                   22,482,794,496 bytes
Total Bitrate:          31.84 Mbps

VIDEO:

Codec                   Bitrate             Description     
-----                   -------             -----------     
MPEG-4 AVC Video        26114 kbps          1080p / 23.976 fps / 16:9 / High Profile 4.1

AUDIO:

Codec                           Language        Bitrate         Description     
-----                           --------        -------         -----------     
DTS-HD Master Audio             English         3801 kbps       5.1 / 48 kHz / 3801 kbps / 24-bit (DTS Core: 5.1 / 48 kHz / 1509 kbps / 24-bit)
Dolby Digital Audio             English         192 kbps        2.0 / 48 kHz / 192 kbps

SUBTITLES:

Codec                           Language        Bitrate         Description     
-----                           --------        -------         -----------     
Presentation Graphics           English         25.617 kbps                     
Presentation Graphics           Spanish         20.335 kbps                     
Presentation Graphics           Portuguese      20.167 kbps                     
Presentation Graphics           English         0.642 kbps

Video
ID : 1
ID in the original source medium : 4113 (0x1011)
Format : AVC
Format/Info : Advanced Video Codec
Format profile : [email protected]
Format settings : CABAC / 4 Ref Frames
Format settings, CABAC : Yes
Format settings, Reference frames : 4 frames
Codec ID : V_MPEG4/ISO/AVC
Duration : 1 h 34 min
Bit rate mode : Variable
Bit rate : 25.7 Mb/s
Maximum bit rate : 37.0 Mb/s
Width : 1 920 pixels
Height : 1 080 pixels
Display aspect ratio : 16:9
Frame rate mode : Constant
Frame rate : 23.976 (24000/1001) FPS
Color space : YUV
Chroma subsampling : 4:2:0
Bit depth : 8 bits
Scan type : Progressive
Bits/(Pixel*Frame) : 0.518
Stream size : 16.9 GiB (86%)
Language : English
Default : No
Forced : No
Original source medium : Blu-ray

Audio #1
ID : 2
ID in the original source medium : 4352 (0x1100)
Format : DTS XLL
Format/Info : Digital Theater Systems
Commercial name : DTS-HD Master Audio
Codec ID : A_DTS
Duration : 1 h 34 min
Bit rate mode : Variable
Bit rate : 3 801 kb/s
Channel(s) : 6 channels
Channel layout : C L R Ls Rs LFE
Sampling rate : 48.0 kHz
Frame rate : 93.750 FPS (512 SPF)
Bit depth : 24 bits
Compression mode : Lossless
Stream size : 2.50 GiB (13%)
Title : DTS-HD MA 5.1
Language : English
Default : Yes
Forced : No
Original source medium : Blu-ray

Audio #2
ID : 3
ID in the original source medium : 4353 (0x1101)
Format : AC-3
Format/Info : Audio Coding 3
Commercial name : Dolby Digital
Codec ID : A_AC3
Duration : 1 h 34 min
Bit rate mode : Constant
Bit rate : 192 kb/s
Channel(s) : 2 channels
Channel layout : L R
Sampling rate : 48.0 kHz
Frame rate : 31.250 FPS (1536 SPF)
Compression mode : Lossy
Stream size : 129 MiB (1%)
Title : DD 2.0
Language : English
Service kind : Complete Main
Default : No
Forced : No
Original source medium : Blu-ray

Text #1
ID : 4
Format : UTF-8
Codec ID : S_TEXT/UTF8
Codec ID/Info : UTF-8 Plain Text
Duration : 1 h 30 min
Bit rate : 34 b/s
Count of elements : 953
Stream size : 23.2 KiB (0%)
Title : English-SRT
Language : English
Default : Yes
Forced : No

Text #2
ID : 5
ID in the original source medium : 4608 (0x1200)
Format : PGS
Muxing mode : zlib
Codec ID : S_HDMV/PGS
Codec ID/Info : Picture based subtitle format used on BDs/HD-DVDs
Duration : 1 h 30 min
Bit rate : 26.6 kb/s
Count of elements : 2256
Stream size : 17.3 MiB (0%)
Title : English-PGS
Language : English
Default : No
Forced : No
Original source medium : Blu-ray

Text #3
ID : 6
ID in the original source medium : 4609 (0x1201)
Format : PGS
Muxing mode : zlib
Codec ID : S_HDMV/PGS
Codec ID/Info : Picture based subtitle format used on BDs/HD-DVDs
Duration : 1 h 32 min
Bit rate : 20.8 kb/s
Count of elements : 1716
Stream size : 13.7 MiB (0%)
Title : Spanish-PGS
Language : Spanish
Default : No
Forced : No
Original source medium : Blu-ray

Text #4
ID : 7
ID in the original source medium : 4610 (0x1202)
Format : PGS
Muxing mode : zlib
Codec ID : S_HDMV/PGS
Codec ID/Info : Picture based subtitle format used on BDs/HD-DVDs
Duration : 1 h 31 min
Bit rate : 20.8 kb/s
Count of elements : 1758
Stream size : 13.6 MiB (0%)
Title : Portuguese-PGS
Language : Portuguese
Default : No
Forced : No
Original source medium : Blu-ray

Text #5
ID : 8
ID in the original source medium : 4611 (0x1203)
Format : PGS
Muxing mode : zlib
Codec ID : S_HDMV/PGS
Codec ID/Info : Picture based subtitle format used on BDs/HD-DVDs
Duration : 54 min 19 s
Bit rate : 1 112 b/s
Count of elements : 60
Stream size : 443 KiB (0%)
Title : English-FORCED-PGS
Language : English
Default : No
Forced : No
Original source medium : Blu-ray

Text #6
ID : 9
ID in the original source medium : 4611 (0x1203)
Format : PGS
Muxing mode : zlib
Codec ID : S_HDMV/PGS
Codec ID/Info : Picture based subtitle format used on BDs/HD-DVDs
Duration : 54 min 19 s
Bit rate : 1 112 b/s
Count of elements : 60
Stream size : 443 KiB (0%)
Title : English-FORCED-PGS
Language : English
Default : No
Forced : No
Original source medium : Blu-ray

Menu
00:00:00.000 : Chapter 01
00:06:17.460 : Chapter 02
00:11:53.087 : Chapter 03
00:16:05.089 : Chapter 04
00:23:06.051 : Chapter 05
00:26:23.540 : Chapter 06
00:33:11.531 : Chapter 07
00:42:08.943 : Chapter 08
00:44:56.235 : Chapter 09
00:50:57.137 : Chapter 10
00:55:27.449 : Chapter 11
01:02:05.388 : Chapter 12
01:08:37.279 : Chapter 13
01:14:32.926 : Chapter 14
01:18:50.183 : Chapter 15
01:25:52.105 : Chapter 16

本帖子中包含更多资源

您需要 登录 才可以下载或查看,没有帐号?立即注册

x
回复

使用道具 举报

0

主题

307

帖子

1436

积分

金牌会员

Rank: 6Rank: 6

积分
1436
发表于 2021-4-25 10:25:19 | 显示全部楼层
谢谢分享,谢谢楼主
回复

使用道具 举报

0

主题

771

帖子

3886

积分

论坛元老

Rank: 8Rank: 8

积分
3886
发表于 2021-4-25 10:41:44 | 显示全部楼层










回复

使用道具 举报

0

主题

1216

帖子

5137

积分

论坛元老

Rank: 8Rank: 8

积分
5137
发表于 2021-4-26 12:23:33 | 显示全部楼层
感谢楼主分享高清影片
回复

使用道具 举报

0

主题

772

帖子

3043

积分

论坛元老

Rank: 8Rank: 8

积分
3043
发表于 2021-4-26 16:53:09 | 显示全部楼层
感谢楼主的分享
回复

使用道具 举报

0

主题

772

帖子

3043

积分

论坛元老

Rank: 8Rank: 8

积分
3043
发表于 2021-4-26 16:57:18 | 显示全部楼层
感谢楼主的分享
回复

使用道具 举报

0

主题

6

帖子

540

积分

高级会员

Rank: 4

积分
540
发表于 2021-4-27 16:02:35 | 显示全部楼层
谢谢分享,谢谢楼主
回复

使用道具 举报

0

主题

307

帖子

1436

积分

金牌会员

Rank: 6Rank: 6

积分
1436
发表于 2021-4-28 11:49:19 | 显示全部楼层
谢谢分享   楼主辛苦
回复

使用道具 举报

您需要登录后才可以回帖 登录 | 立即注册

本版积分规则

QQ|Archiver|手机版|小黑屋|原盘天堂 好多盘 点击这里给我发消息

GMT+8, 2021-5-11 15:02 , Processed in 0.060626 second(s), 25 queries .

Powered by Discuz! X3.4

Copyright © 2001-2020, Tencent Cloud.

快速回复 返回顶部 返回列表