请选择 进入手机版 | 继续访问电脑版
本站Q群713428235【盘盘多】已满,请新会员加原盘天堂新官方QQ群709708625【好多盘】,验证信息填写您在论坛的会员名,不填会员名的无法入群哈,进群后修改您的群名片名字为您在论坛的会员名,请务必修改,否则群成员多了不知道您是哪个会员。

原盘天堂

 找回密码
 立即注册
京东商城当当华为商城名牌时尚折扣网,一个新型的网上购物平台,我们每周为您精选3~4个国际知名品牌,商品折扣低至2折限时限量售卖,商品囊括时装、护肤品、箱包、皮具、配饰、香水等等,琳琅满目。亿格瑞A10硬盘播放器 苏宁易购
查看: 217|回复: 15

4k蓝光原盘bdmv 蝙蝠侠:黑暗骑士 中字 the.dark.knight.2008.2160p.bluray.hevc.dts-hd.ma.5.1[67.89 GB]

[复制链接]

5958

主题

6605

帖子

132万

积分

管理员

Rank: 18Rank: 18Rank: 18Rank: 18Rank: 18

积分
1329755
发表于 2021-4-18 21:54:04 | 显示全部楼层 |阅读模式






蝙蝠侠:黑暗骑士 The Dark Knight (2008)

导演: 克里斯托弗·诺兰
编剧: 乔纳森·诺兰 / 克里斯托弗·诺兰 / 大卫·S·高耶
主演: 克里斯蒂安·贝尔 / 希斯·莱杰 / 艾伦·艾克哈特 / 迈克尔·凯恩 / 玛吉·吉伦哈尔 / 更多...
类型: 剧情 / 动作 / 科幻 / 惊悚 / 犯罪
官方网站: thedarkknight.warnerbros.com
制片国家/地区: 美国 / 英国
语言: 英语 / 汉语普通话
上映日期: 2008-07-14(纽约首映) / 2008-07-18(美国)
片长: 152分钟
又名: 蝙蝠侠前传2:黑暗骑士 / 黑暗骑士(台) / 蝙蝠侠-黑夜之神(港) / 蝙蝠侠6:暗夜骑士 / Batman: The Dark Knight / TDK
IMDb链接: tt0468569
资源名称: 蝙蝠侠.The.Dark.Knight.2008.tt0468569

豆瓣评分
9.2
849992人评价
5星 67.2%
4星 26.4%
3星 5.8%
2星 0.5%
1星 0.2%
好于 99% 科幻片
好于 99% 犯罪片


剧情简介 · · · · · ·
  从亲眼目睹父母被人杀死的阴影中走出来的“蝙蝠侠”,经历了成长之后,已经不再是那个桀骜不的孤单英雄了。在警官吉姆·戈登和检查官哈维·登特的通力帮助下,“蝙蝠侠”无后顾之忧地继续满世界的奔波,与日益增长起来的犯罪威胁做着永无休止的争斗,而他所在的高谭市,也是进展最为明显的地方,犯罪率以一种惊人的速度持续下降着,毕竟对方是能够上天入地的“蝙蝠侠”,不借两个胆子谁还敢造次呢?不过像高谭这种科技与污秽并存的城市,平静是不可能维持太久的,果不其然,新一轮的混乱很快就席卷了整个城市,人们再一被被恐慌所笼罩着,而声称愿意为这一切负责的,自然就是所有混乱的源头以及支配者--“小丑”了。
  先不管“小丑”掀起一个又一个犯罪的狂潮的最终目的为何,他的企图都是邪恶的,所作所为更是早就危害到了高谭市民的正常生活……其中自然包括了“蝙蝠侠”身边几个非常重要的人,而他需要做的,就是将这股新的危机全部亲自用手捏得粉碎。然而在面对着这个有史以来最具针对性、最恶毒的对手时,“蝙蝠侠”却不得不从他的地下军械库里搬出每一件能够用得上的高科技武器,还得时刻纠结着为他曾经信仰的一切寻找答案。

DISC INFO:

Disc Title:     The.Dark.Knight.2008.2160p.BluRay.HEVC.DTS-HD.MA.5.1-OLDHAM
Disc Size:      72,895,082,219 bytes
Protection:     AACS2
BD-Java:        Yes
Extras:         Ultra HD
BDInfo:         0.5.8.7 (compatible layout created by DVDFab 10.0.7.7)

PLAYLIST REPORT:

Name:                   00033.MPLS  
Length:                 2:32:12.248 (h:m:s.ms)
Size:                   72,318,400,512 bytes
Total Bitrate:          63.35 Mbps

VIDEO:

Codec                   Bitrate             Description     
-----                   -------             -----------     
MPEG-H HEVC Video       47159 kbps          2160p / 23.976 fps / 16:9 / Main 10 Profile 5.1 High / 4:2:0 / 10 bits / HDR / BT.2020 /

AUDIO:

Codec                           Language        Bitrate         Description     
-----                           --------        -------         -----------     
DTS-HD Master Audio             English         3814 kbps       5.1 / 48 kHz / 3814 kbps / 24-bit (DTS Core: 5.1 / 48 kHz / 1509 kbps / 24-bit)
Dolby Digital Audio             English         192 kbps        2.0 / 48 kHz / 192 kbps / Dolby Surround
DTS-HD Master Audio             French          2262 kbps       5.1 / 48 kHz / 2262 kbps / 16-bit (DTS Core: 5.1 / 48 kHz / 1509 kbps / 16-bit)
DTS-HD Master Audio             German          2262 kbps       5.1 / 48 kHz / 2262 kbps / 16-bit (DTS Core: 5.1 / 48 kHz / 1509 kbps / 16-bit)
Dolby Digital Audio             Italian         448 kbps        5.1 / 48 kHz / 448 kbps
Dolby Digital Audio             Spanish         448 kbps        5.1 / 48 kHz / 448 kbps
Dolby Digital Audio             Czech           448 kbps        5.1 / 48 kHz / 448 kbps
Dolby Digital Audio             Hungarian       448 kbps        5.1 / 48 kHz / 448 kbps
Dolby Digital Audio             Polish          448 kbps        5.1 / 48 kHz / 448 kbps
Dolby Digital Audio             Russian         640 kbps        5.1 / 48 kHz / 640 kbps
Dolby Digital Audio             Japanese        448 kbps        5.1 / 48 kHz / 448 kbps

SUBTITLES:

Codec                           Language        Bitrate         Description     
-----                           --------        -------         -----------     
Presentation Graphics           English         38.415 kbps                     
Presentation Graphics           French          28.311 kbps                     
Presentation Graphics           German          44.826 kbps                     
Presentation Graphics           Italian         40.153 kbps                     
Presentation Graphics           Spanish         33.596 kbps                     
Presentation Graphics           Dutch           28.93 kbps                     
Presentation Graphics           Chinese         29.716 kbps                     
Presentation Graphics           Chinese         29.9 kbps                       
Presentation Graphics           Korean          20.344 kbps                     
Presentation Graphics           Arabic          17.621 kbps                     
Presentation Graphics           Czech           29.712 kbps                     
Presentation Graphics           Croatian        29.489 kbps                     
Presentation Graphics           Danish          30.042 kbps                     
Presentation Graphics           Finnish         30.274 kbps                     
Presentation Graphics           Greek           35.651 kbps                     
Presentation Graphics           Hungarian       27.988 kbps                     
Presentation Graphics           Norwegian       31.84 kbps                     
Presentation Graphics           Polish          33.627 kbps                     
Presentation Graphics           Portuguese      33.839 kbps                     
Presentation Graphics           Romanian        31.509 kbps                     
Presentation Graphics           Russian         32.699 kbps                     
Presentation Graphics           Swedish         29.241 kbps                     
Presentation Graphics           French          0.214 kbps                     
Presentation Graphics           Czech           0.279 kbps                     
Presentation Graphics           Spanish         0.275 kbps                     
Presentation Graphics           Italian         0.35 kbps                       
Presentation Graphics           Polish          0.349 kbps                     
Presentation Graphics           Russian         0.35 kbps                       
Presentation Graphics           Hungarian       0.268 kbps                     
Presentation Graphics           German          0.045 kbps                     
Presentation Graphics           Japanese        25.196 kbps                     
Presentation Graphics           Japanese        0.243 kbps

Video
ID : 1
Format : HEVC
Format/Info : High Efficiency Video Coding
Format profile : Main [email protected]@High
HDR format : SMPTE ST 2086, HDR10 compatible
Codec ID : V_MPEGH/ISO/HEVC
Duration : 2 h 32 min
Bit rate : 47.2 Mb/s
Width : 3 840 pixels
Height : 2 160 pixels
Display aspect ratio : 16:9
Frame rate mode : Constant
Frame rate : 23.976 (24000/1001) FPS
Color space : YUV
Chroma subsampling : 4:2:0 (Type 2)
Bit depth : 10 bits
Bits/(Pixel*Frame) : 0.237
Stream size : 50.1 GiB (79%)
Title : The.Dark.Knight.2008.2160p.BluRay.REMUX.HEVC.DTS-HD.MA.5.1-FGT
Default : Yes
Forced : No
Color range : Limited
Color primaries : BT.2020
Transfer characteristics : PQ
Matrix coefficients : BT.2020 non-constant
Mastering display color primaries : Display P3
Mastering display luminance : min: 0.0050 cd/m2, max: 4000 cd/m2
Maximum Content Light Level : 500 cd/m2
Maximum Frame-Average Light Level : 200 cd/m2

Audio #1
ID : 2
Format : DTS XLL
Format/Info : Digital Theater Systems
Commercial name : DTS-HD Master Audio
Codec ID : A_DTS
Duration : 2 h 32 min
Bit rate mode : Variable
Bit rate : 3 814 kb/s
Channel(s) : 6 channels
Channel layout : C L R Ls Rs LFE
Sampling rate : 48.0 kHz
Frame rate : 93.750 FPS (512 SPF)
Bit depth : 24 bits
Compression mode : Lossless
Stream size : 4.06 GiB (6%)
Title : The.Dark.Knight.2008.2160p.BluRay.REMUX.HEVC.DTS-HD.MA.5.1-FGT
Language : English
Default : Yes
Forced : No

Audio #2
ID : 3
Format : AC-3
Format/Info : Audio Coding 3
Commercial name : Dolby Digital
Format settings : Dolby Surround
Codec ID : A_AC3
Duration : 2 h 32 min
Bit rate mode : Constant
Bit rate : 192 kb/s
Channel(s) : 2 channels
Channel layout : L R
Sampling rate : 48.0 kHz
Frame rate : 31.250 FPS (1536 SPF)
Compression mode : Lossy
Stream size : 209 MiB (0%)
Title : The.Dark.Knight.2008.2160p.BluRay.REMUX.HEVC.DTS-HD.MA.5.1-FGT
Language : English
Service kind : Complete Main
Default : No
Forced : No

Audio #3
ID : 4
Format : DTS XLL
Format/Info : Digital Theater Systems
Commercial name : DTS-HD Master Audio
Codec ID : A_DTS
Duration : 2 h 32 min
Bit rate mode : Variable
Bit rate : 2 262 kb/s
Channel(s) : 6 channels
Channel layout : C L R Ls Rs LFE
Sampling rate : 48.0 kHz
Frame rate : 93.750 FPS (512 SPF)
Bit depth : 16 bits
Compression mode : Lossless
Stream size : 2.41 GiB (4%)
Title : The.Dark.Knight.2008.2160p.BluRay.REMUX.HEVC.DTS-HD.MA.5.1-FGT
Language : French
Default : No
Forced : No

Audio #4
ID : 5
Format : DTS XLL
Format/Info : Digital Theater Systems
Commercial name : DTS-HD Master Audio
Codec ID : A_DTS
Duration : 2 h 32 min
Bit rate mode : Variable
Bit rate : 2 262 kb/s
Channel(s) : 6 channels
Channel layout : C L R Ls Rs LFE
Sampling rate : 48.0 kHz
Frame rate : 93.750 FPS (512 SPF)
Bit depth : 16 bits
Compression mode : Lossless
Stream size : 2.41 GiB (4%)
Title : The.Dark.Knight.2008.2160p.BluRay.REMUX.HEVC.DTS-HD.MA.5.1-FGT
Language : German
Default : No
Forced : No

Audio #5
ID : 6
Format : AC-3
Format/Info : Audio Coding 3
Commercial name : Dolby Digital
Codec ID : A_AC3
Duration : 2 h 32 min
Bit rate mode : Constant
Bit rate : 448 kb/s
Channel(s) : 6 channels
Channel layout : L R C LFE Ls Rs
Sampling rate : 48.0 kHz
Frame rate : 31.250 FPS (1536 SPF)
Compression mode : Lossy
Stream size : 488 MiB (1%)
Title : The.Dark.Knight.2008.2160p.BluRay.REMUX.HEVC.DTS-HD.MA.5.1-FGT
Language : Italian
Service kind : Complete Main
Default : No
Forced : No

Audio #6
ID : 7
Format : AC-3
Format/Info : Audio Coding 3
Commercial name : Dolby Digital
Codec ID : A_AC3
Duration : 2 h 32 min
Bit rate mode : Constant
Bit rate : 448 kb/s
Channel(s) : 6 channels
Channel layout : L R C LFE Ls Rs
Sampling rate : 48.0 kHz
Frame rate : 31.250 FPS (1536 SPF)
Compression mode : Lossy
Stream size : 488 MiB (1%)
Title : The.Dark.Knight.2008.2160p.BluRay.REMUX.HEVC.DTS-HD.MA.5.1-FGT
Language : Spanish
Service kind : Complete Main
Default : No
Forced : No

Audio #7
ID : 8
Format : AC-3
Format/Info : Audio Coding 3
Commercial name : Dolby Digital
Codec ID : A_AC3
Duration : 2 h 32 min
Bit rate mode : Constant
Bit rate : 448 kb/s
Channel(s) : 6 channels
Channel layout : L R C LFE Ls Rs
Sampling rate : 48.0 kHz
Frame rate : 31.250 FPS (1536 SPF)
Compression mode : Lossy
Stream size : 488 MiB (1%)
Title : The.Dark.Knight.2008.2160p.BluRay.REMUX.HEVC.DTS-HD.MA.5.1-FGT
Language : Czech
Service kind : Complete Main
Default : No
Forced : No

Audio #8
ID : 9
Format : AC-3
Format/Info : Audio Coding 3
Commercial name : Dolby Digital
Codec ID : A_AC3
Duration : 2 h 32 min
Bit rate mode : Constant
Bit rate : 448 kb/s
Channel(s) : 6 channels
Channel layout : L R C LFE Ls Rs
Sampling rate : 48.0 kHz
Frame rate : 31.250 FPS (1536 SPF)
Compression mode : Lossy
Stream size : 488 MiB (1%)
Title : The.Dark.Knight.2008.2160p.BluRay.REMUX.HEVC.DTS-HD.MA.5.1-FGT
Language : Hungarian
Service kind : Complete Main
Default : No
Forced : No

Audio #9
ID : 10
Format : AC-3
Format/Info : Audio Coding 3
Commercial name : Dolby Digital
Codec ID : A_AC3
Duration : 2 h 32 min
Bit rate mode : Constant
Bit rate : 448 kb/s
Channel(s) : 6 channels
Channel layout : L R C LFE Ls Rs
Sampling rate : 48.0 kHz
Frame rate : 31.250 FPS (1536 SPF)
Compression mode : Lossy
Stream size : 488 MiB (1%)
Title : The.Dark.Knight.2008.2160p.BluRay.REMUX.HEVC.DTS-HD.MA.5.1-FGT
Language : Polish
Service kind : Complete Main
Default : No
Forced : No

Audio #10
ID : 11
Format : AC-3
Format/Info : Audio Coding 3
Commercial name : Dolby Digital
Codec ID : A_AC3
Duration : 2 h 32 min
Bit rate mode : Constant
Bit rate : 640 kb/s
Channel(s) : 6 channels
Channel layout : L R C LFE Ls Rs
Sampling rate : 48.0 kHz
Frame rate : 31.250 FPS (1536 SPF)
Compression mode : Lossy
Stream size : 697 MiB (1%)
Title : The.Dark.Knight.2008.2160p.BluRay.REMUX.HEVC.DTS-HD.MA.5.1-FGT
Language : Russian
Service kind : Complete Main
Default : No
Forced : No

Audio #11
ID : 12
Format : AC-3
Format/Info : Audio Coding 3
Commercial name : Dolby Digital
Codec ID : A_AC3
Duration : 2 h 32 min
Bit rate mode : Constant
Bit rate : 448 kb/s
Channel(s) : 6 channels
Channel layout : L R C LFE Ls Rs
Sampling rate : 48.0 kHz
Frame rate : 31.250 FPS (1536 SPF)
Compression mode : Lossy
Stream size : 488 MiB (1%)
Title : The.Dark.Knight.2008.2160p.BluRay.REMUX.HEVC.DTS-HD.MA.5.1-FGT
Language : Japanese
Service kind : Complete Main
Default : No
Forced : No

Text #1
ID : 13
Format : PGS
Muxing mode : zlib
Codec ID : S_HDMV/PGS
Codec ID/Info : Picture based subtitle format used on BDs/HD-DVDs
Duration : 2 h 30 min
Bit rate : 38.8 kb/s
Count of elements : 4020
Stream size : 41.8 MiB (0%)
Title : English-PGS
Language : English
Default : Yes
Forced : No

Text #2
ID : 14
Format : PGS
Muxing mode : zlib
Codec ID : S_HDMV/PGS
Codec ID/Info : Picture based subtitle format used on BDs/HD-DVDs
Duration : 2 h 30 min
Bit rate : 28.6 kb/s
Count of elements : 4164
Stream size : 30.8 MiB (0%)
Title : French-PGS
Language : French
Default : No
Forced : No

Text #3
ID : 15
Format : PGS
Muxing mode : zlib
Codec ID : S_HDMV/PGS
Codec ID/Info : Picture based subtitle format used on BDs/HD-DVDs
Duration : 2 h 30 min
Bit rate : 45.3 kb/s
Count of elements : 4140
Stream size : 48.8 MiB (0%)
Title : German-PGS
Language : German
Default : No
Forced : No

Text #4
ID : 16
Format : PGS
Muxing mode : zlib
Codec ID : S_HDMV/PGS
Codec ID/Info : Picture based subtitle format used on BDs/HD-DVDs
Duration : 2 h 30 min
Bit rate : 40.6 kb/s
Count of elements : 4060
Stream size : 43.7 MiB (0%)
Title : Italian-PGS
Language : Italian
Default : No
Forced : No

Text #5
ID : 17
Format : PGS
Muxing mode : zlib
Codec ID : S_HDMV/PGS
Codec ID/Info : Picture based subtitle format used on BDs/HD-DVDs
Duration : 2 h 30 min
Bit rate : 34.0 kb/s
Count of elements : 3886
Stream size : 36.6 MiB (0%)
Title : Spanish-PGS
Language : Spanish
Default : No
Forced : No

Text #6
ID : 18
Format : PGS
Muxing mode : zlib
Codec ID : S_HDMV/PGS
Codec ID/Info : Picture based subtitle format used on BDs/HD-DVDs
Duration : 2 h 30 min
Bit rate : 29.3 kb/s
Count of elements : 3160
Stream size : 31.5 MiB (0%)
Title : Dutch-PGS
Language : Dutch
Default : No
Forced : No

Text #7
ID : 19
Format : PGS
Muxing mode : zlib
Codec ID : S_HDMV/PGS
Codec ID/Info : Picture based subtitle format used on BDs/HD-DVDs
Duration : 2 h 31 min
Bit rate : 29.9 kb/s
Count of elements : 3688
Stream size : 32.4 MiB (0%)
Title : Chinese-PGS
Language : Chinese
Default : No
Forced : No

Text #8
ID : 20
Format : PGS
Muxing mode : zlib
Codec ID : S_HDMV/PGS
Codec ID/Info : Picture based subtitle format used on BDs/HD-DVDs
Duration : 2 h 30 min
Bit rate : 30.3 kb/s
Count of elements : 3688
Stream size : 32.6 MiB (0%)
Title : Chinese-PGS
Language : Chinese
Default : No
Forced : No

Text #9
ID : 21
Format : PGS
Muxing mode : zlib
Codec ID : S_HDMV/PGS
Codec ID/Info : Picture based subtitle format used on BDs/HD-DVDs
Duration : 2 h 30 min
Bit rate : 20.6 kb/s
Count of elements : 3574
Stream size : 22.1 MiB (0%)
Title : Korean-PGS
Language : Korean
Default : No
Forced : No

Text #10
ID : 22
Format : PGS
Muxing mode : zlib
Codec ID : S_HDMV/PGS
Codec ID/Info : Picture based subtitle format used on BDs/HD-DVDs
Duration : 2 h 30 min
Bit rate : 17.8 kb/s
Count of elements : 3614
Stream size : 19.2 MiB (0%)
Title : Arabic-PGS
Language : Arabic
Default : No
Forced : No

Text #11
ID : 23
Format : PGS
Muxing mode : zlib
Codec ID : S_HDMV/PGS
Codec ID/Info : Picture based subtitle format used on BDs/HD-DVDs
Duration : 2 h 30 min
Bit rate : 30.1 kb/s
Count of elements : 3564
Stream size : 32.3 MiB (0%)
Title : Czech-PGS
Language : Czech
Default : No
Forced : No

Text #12
ID : 24
Format : PGS
Muxing mode : zlib
Codec ID : S_HDMV/PGS
Codec ID/Info : Picture based subtitle format used on BDs/HD-DVDs
Duration : 2 h 30 min
Bit rate : 29.9 kb/s
Count of elements : 3628
Stream size : 32.1 MiB (0%)
Title : Croatian-PGS
Language : Croatian
Default : No
Forced : No

Text #13
ID : 25
Format : PGS
Muxing mode : zlib
Codec ID : S_HDMV/PGS
Codec ID/Info : Picture based subtitle format used on BDs/HD-DVDs
Duration : 2 h 30 min
Bit rate : 30.4 kb/s
Count of elements : 2756
Stream size : 32.7 MiB (0%)
Title : Danish-PGS
Language : Danish
Default : No
Forced : No

Text #14
ID : 26
Format : PGS
Muxing mode : zlib
Codec ID : S_HDMV/PGS
Codec ID/Info : Picture based subtitle format used on BDs/HD-DVDs
Duration : 2 h 30 min
Bit rate : 30.6 kb/s
Count of elements : 3346
Stream size : 33.0 MiB (0%)
Title : Finnish-PGS
Language : Finnish
Default : No
Forced : No

Text #15
ID : 27
Format : PGS
Muxing mode : zlib
Codec ID : S_HDMV/PGS
Codec ID/Info : Picture based subtitle format used on BDs/HD-DVDs
Duration : 2 h 30 min
Bit rate : 36.1 kb/s
Count of elements : 3686
Stream size : 38.8 MiB (0%)
Title : Greek-PGS
Language : Greek
Default : No
Forced : No

Text #16
ID : 28
Format : PGS
Muxing mode : zlib
Codec ID : S_HDMV/PGS
Codec ID/Info : Picture based subtitle format used on BDs/HD-DVDs
Duration : 2 h 30 min
Bit rate : 28.4 kb/s
Count of elements : 3460
Stream size : 30.5 MiB (0%)
Title : Hungarian-PGS
Language : Hungarian
Default : No
Forced : No

Text #17
ID : 29
Format : PGS
Muxing mode : zlib
Codec ID : S_HDMV/PGS
Codec ID/Info : Picture based subtitle format used on BDs/HD-DVDs
Duration : 2 h 30 min
Bit rate : 32.2 kb/s
Count of elements : 3642
Stream size : 34.7 MiB (0%)
Title : Norwegian-PGS
Language : Norwegian
Default : No
Forced : No

Text #18
ID : 30
Format : PGS
Muxing mode : zlib
Codec ID : S_HDMV/PGS
Codec ID/Info : Picture based subtitle format used on BDs/HD-DVDs
Duration : 2 h 30 min
Bit rate : 34.0 kb/s
Count of elements : 3638
Stream size : 36.6 MiB (0%)
Title : Polish-PGS
Language : Polish
Default : No
Forced : No

Text #19
ID : 31
Format : PGS
Muxing mode : zlib
Codec ID : S_HDMV/PGS
Codec ID/Info : Picture based subtitle format used on BDs/HD-DVDs
Duration : 2 h 30 min
Bit rate : 34.3 kb/s
Count of elements : 3594
Stream size : 36.8 MiB (0%)
Title : Portuguese-PGS
Language : Portuguese
Default : No
Forced : No

Text #20
ID : 32
Format : PGS
Muxing mode : zlib
Codec ID : S_HDMV/PGS
Codec ID/Info : Picture based subtitle format used on BDs/HD-DVDs
Duration : 2 h 22 min
Bit rate : 33.6 kb/s
Count of elements : 3134
Stream size : 34.3 MiB (0%)
Title : Romanian-PGS
Language : Romanian
Default : No
Forced : No

Text #21
ID : 33
Format : PGS
Muxing mode : zlib
Codec ID : S_HDMV/PGS
Codec ID/Info : Picture based subtitle format used on BDs/HD-DVDs
Duration : 2 h 30 min
Bit rate : 33.1 kb/s
Count of elements : 3730
Stream size : 35.6 MiB (0%)
Title : Russian-PGS
Language : Russian
Default : No
Forced : No

Text #22
ID : 34
Format : PGS
Muxing mode : zlib
Codec ID : S_HDMV/PGS
Codec ID/Info : Picture based subtitle format used on BDs/HD-DVDs
Duration : 2 h 30 min
Bit rate : 29.6 kb/s
Count of elements : 3646
Stream size : 31.8 MiB (0%)
Title : Swedish-PGS
Language : Swedish
Default : No
Forced : No

Text #23
ID : 35
Format : PGS
Muxing mode : zlib
Codec ID : S_HDMV/PGS
Codec ID/Info : Picture based subtitle format used on BDs/HD-DVDs
Duration : 2 h 23 min
Bit rate : 227 b/s
Count of elements : 30
Stream size : 238 KiB (0%)
Title : French-FORCED-PGS
Language : French
Default : No
Forced : No

Text #24
ID : 36
Format : PGS
Muxing mode : zlib
Codec ID : S_HDMV/PGS
Codec ID/Info : Picture based subtitle format used on BDs/HD-DVDs
Duration : 2 h 23 min
Bit rate : 296 b/s
Count of elements : 34
Stream size : 311 KiB (0%)
Title : Czech-FORCED-PGS
Language : Czech
Default : No
Forced : No

Text #25
ID : 37
Format : PGS
Muxing mode : zlib
Codec ID : S_HDMV/PGS
Codec ID/Info : Picture based subtitle format used on BDs/HD-DVDs
Duration : 2 h 23 min
Bit rate : 292 b/s
Count of elements : 30
Stream size : 307 KiB (0%)
Title : Spanish-FORCED-PGS
Language : Spanish
Default : No
Forced : No

Text #26
ID : 38
Format : PGS
Muxing mode : zlib
Codec ID : S_HDMV/PGS
Codec ID/Info : Picture based subtitle format used on BDs/HD-DVDs
Duration : 2 h 23 min
Bit rate : 372 b/s
Count of elements : 40
Stream size : 391 KiB (0%)
Title : Italian-FORCED-PGS
Language : Italian
Default : No
Forced : No

Text #27
ID : 39
Format : PGS
Muxing mode : zlib
Codec ID : S_HDMV/PGS
Codec ID/Info : Picture based subtitle format used on BDs/HD-DVDs
Duration : 2 h 23 min
Bit rate : 371 b/s
Count of elements : 40
Stream size : 389 KiB (0%)
Title : Polish-FORCED-PGS
Language : Polish
Default : No
Forced : No

Text #28
ID : 40
Format : PGS
Muxing mode : zlib
Codec ID : S_HDMV/PGS
Codec ID/Info : Picture based subtitle format used on BDs/HD-DVDs
Duration : 2 h 23 min
Bit rate : 371 b/s
Count of elements : 48
Stream size : 390 KiB (0%)
Title : Russian-FORCED-PGS
Language : Russian
Default : No
Forced : No

Text #29
ID : 41
Format : PGS
Muxing mode : zlib
Codec ID : S_HDMV/PGS
Codec ID/Info : Picture based subtitle format used on BDs/HD-DVDs
Duration : 2 h 17 min
Bit rate : 296 b/s
Count of elements : 32
Stream size : 299 KiB (0%)
Title : Hungarian-FORCED-PGS
Language : Hungarian
Default : No
Forced : No

Text #30
ID : 42
Format : PGS
Muxing mode : zlib
Codec ID : S_HDMV/PGS
Codec ID/Info : Picture based subtitle format used on BDs/HD-DVDs
Duration : 1 h 56 min
Bit rate : 58 b/s
Count of elements : 6
Stream size : 50.3 KiB (0%)
Title : German-FORCED-PGS
Language : German
Default : No
Forced : No

Text #31
ID : 43
Format : PGS
Muxing mode : zlib
Codec ID : S_HDMV/PGS
Codec ID/Info : Picture based subtitle format used on BDs/HD-DVDs
Duration : 2 h 25 min
Bit rate : 26.4 kb/s
Count of elements : 3749
Stream size : 27.4 MiB (0%)
Title : Japanese-PGS
Language : Japanese
Default : No
Forced : No

Text #32
ID : 44
Format : PGS
Muxing mode : zlib
Codec ID : S_HDMV/PGS
Codec ID/Info : Picture based subtitle format used on BDs/HD-DVDs
Duration : 2 h 19 min
Bit rate : 264 b/s
Count of elements : 44
Stream size : 271 KiB (0%)
Title : Japanese-FORCED-PGS
Language : Japanese
Default : No
Forced : No

Menu
00:00:00.000 : en:Chapter 1
00:06:25.927 : en:Chapter 2
00:10:36.135 : en:Chapter 3
00:13:52.540 : en:Chapter 4
00:17:54.156 : en:Chapter 5
00:21:39.298 : en:Chapter 6
00:26:09.985 : en:Chapter 7
00:29:36.232 : en:Chapter 8
00:31:42.442 : en:Chapter 9
00:37:49.016 : en:Chapter 10
00:43:34.028 : en:Chapter 11
00:46:39.505 : en:Chapter 12
00:48:57.726 : en:Chapter 13
00:53:19.404 : en:Chapter 14
00:57:15.598 : en:Chapter 15
00:59:26.312 : en:Chapter 16
01:03:59.544 : en:Chapter 17
01:08:23.516 : en:Chapter 18
01:10:48.285 : en:Chapter 19
01:14:24.877 : en:Chapter 20
01:18:05.597 : en:Chapter 21
01:22:22.395 : en:Chapter 22
01:24:48.541 : en:Chapter 23
01:30:48.401 : en:Chapter 24
01:34:04.930 : en:Chapter 25
01:39:57.741 : en:Chapter 26
01:42:05.452 : en:Chapter 27
01:44:59.876 : en:Chapter 28
01:47:00.831 : en:Chapter 29
01:51:09.871 : en:Chapter 30
01:54:14.597 : en:Chapter 31
01:57:03.975 : en:Chapter 32
02:00:14.207 : en:Chapter 33
02:03:37.535 : en:Chapter 34
02:09:07.573 : en:Chapter 35
02:12:27.272 : en:Chapter 36
02:15:22.739 : en:Chapter 37
02:19:58.640 : en:Chapter 38
02:24:26.658 : en:Chapter 39

本帖子中包含更多资源

您需要 登录 才可以下载或查看,没有帐号?立即注册

x
回复

使用道具 举报

0

主题

696

帖子

3547

积分

论坛元老

Rank: 8Rank: 8

积分
3547
发表于 2021-4-19 11:10:52 | 显示全部楼层
谢楼主分享
回复

使用道具 举报

0

主题

771

帖子

3886

积分

论坛元老

Rank: 8Rank: 8

积分
3886
发表于 2021-4-19 11:42:26 | 显示全部楼层










回复

使用道具 举报

0

主题

772

帖子

3043

积分

论坛元老

Rank: 8Rank: 8

积分
3043
发表于 2021-4-19 15:53:03 | 显示全部楼层
谢谢楼主分享
回复

使用道具 举报

0

主题

321

帖子

1869

积分

金牌会员

Rank: 6Rank: 6

积分
1869
发表于 2021-4-19 18:22:53 | 显示全部楼层
谢谢楼主分享
回复

使用道具 举报

0

主题

10

帖子

61

积分

注册会员

Rank: 2

积分
61
发表于 2021-4-19 23:40:37 | 显示全部楼层
谢谢楼主分享
回复

使用道具 举报

0

主题

486

帖子

5751

积分

论坛元老

Rank: 8Rank: 8

积分
5751
发表于 2021-4-20 00:37:25 | 显示全部楼层
GOOD JOB
THANKS FOR SHARING
回复

使用道具 举报

0

主题

136

帖子

285

积分

中级会员

Rank: 3Rank: 3

积分
285
发表于 2021-4-20 11:26:10 | 显示全部楼层
楼主辛苦,谢谢分享!
回复

使用道具 举报

0

主题

70

帖子

1082

积分

金牌会员

Rank: 6Rank: 6

积分
1082
发表于 2021-4-20 22:25:06 | 显示全部楼层
Thank you very much!
回复

使用道具 举报

0

主题

772

帖子

3043

积分

论坛元老

Rank: 8Rank: 8

积分
3043
发表于 2021-4-21 12:40:18 | 显示全部楼层
谢谢楼主分享
回复

使用道具 举报

您需要登录后才可以回帖 登录 | 立即注册

本版积分规则

QQ|Archiver|手机版|小黑屋|原盘天堂 好多盘 点击这里给我发消息

GMT+8, 2021-5-11 14:50 , Processed in 0.065969 second(s), 24 queries .

Powered by Discuz! X3.4

Copyright © 2001-2020, Tencent Cloud.

快速回复 返回顶部 返回列表