请选择 进入手机版 | 继续访问电脑版
本站Q群713428235【盘盘多】已满,请新会员加原盘天堂新官方QQ群709708625【好多盘】,验证信息填写您在论坛的会员名,不填会员名的无法入群哈,进群后修改您的群名片名字为您在论坛的会员名,请务必修改,否则群成员多了不知道您是哪个会员。

原盘天堂

 找回密码
 立即注册
京东商城当当华为商城名牌时尚折扣网,一个新型的网上购物平台,我们每周为您精选3~4个国际知名品牌,商品折扣低至2折限时限量售卖,商品囊括时装、护肤品、箱包、皮具、配饰、香水等等,琳琅满目。亿格瑞A10硬盘播放器 苏宁易购
查看: 148|回复: 15

2d蓝光原盘bdmv 威利的游乐园 英语原版 willys.wonderland.2021.1080p.bluray.avc.dts-hd.ma.5.1[22.93 GB]

[复制链接]

5958

主题

6606

帖子

132万

积分

管理员

Rank: 18Rank: 18Rank: 18Rank: 18Rank: 18

积分
1329770
发表于 2021-4-17 13:20:13 | 显示全部楼层 |阅读模式








威利的游乐园 Willy's Wonderland (2021)

导演: 凯文·刘易斯
编剧: G·O·帕森斯
主演: 尼古拉斯·凯奇 / 艾米莉·托斯塔 / 贝丝·格兰特 / 里克·赖茨 / 克里斯·华纳 / 更多...
类型: 动作 / 惊悚 / 恐怖
制片国家/地区: 美国
语言: 英语 / 西班牙语
上映日期: 2021-02-12(美国)
片长: 88分钟
又名: 弑乐园(台) / 沃利的游乐园 / Wally's Wonderland
IMDb链接: tt8114980
资源名称: 威利的游乐园.Willy's.Wonderland.2021.tt8114980

豆瓣评分
5.5
2366人评价
5星 7.5%
4星 12.6%
3星 37.8%
2星 30.6%
1星 11.6%
好于 31% 恐怖片
好于 14% 惊悚片

剧情简介 · · · · · ·
  尼古拉斯·凯奇扮演的看门人被迫在一个扭曲的游乐园里过夜,在那里他陷入了一场恶梦。当动画角色们变得栩栩如生时,看门人必须各个攻破,才能活直到早晨并离开游乐园。

DISC INFO:

Disc Title:     Willys.Wonderland.2021.1080p.BluRay.AVC.DTS-HD.MA.5.1-FGT
Disc Size:      24,621,599,573 bytes
Protection:     AACS
BDInfo:         0.7.5.9 (compatible layout created by DVDFab 12.0.2.2)

PLAYLIST REPORT:

Name:                   00000.MPLS  
Length:                 1:28:37.770 (h:m:s.ms)
Size:                   22,178,070,144 bytes
Total Bitrate:          33.36 Mbps

VIDEO:

Codec                   Bitrate             Description     
-----                   -------             -----------     
MPEG-4 AVC Video        25697 kbps          1080p / 23.976 fps / 16:9 / High Profile 4.1

AUDIO:

Codec                           Language        Bitrate         Description     
-----                           --------        -------         -----------     
DTS-HD Master Audio             English         3557 kbps       5.1 / 48 kHz / 3557 kbps / 24-bit (DTS Core: 5.1 / 48 kHz / 1509 kbps / 24-bit)
LPCM Audio                      English         2304 kbps       2.0 / 48 kHz / 2304 kbps / 24-bit

SUBTITLES:

Codec                           Language        Bitrate         Description     
-----                           --------        -------         -----------     
Presentation Graphics           English         59.566 kbps   

Video
ID : 1
ID in the original source medium : 4113 (0x1011)
Format : AVC
Format/Info : Advanced Video Codec
Format profile : [email protected]
Format settings : CABAC / 4 Ref Frames
Format settings, CABAC : Yes
Format settings, Reference frames : 4 frames
Format settings, GOP : M=3, N=12
Codec ID : V_MPEG4/ISO/AVC
Duration : 1 h 28 min
Bit rate mode : Variable
Bit rate : 25.7 Mb/s
Maximum bit rate : 32.7 Mb/s
Width : 1 920 pixels
Height : 1 080 pixels
Display aspect ratio : 16:9
Frame rate mode : Constant
Frame rate : 23.976 (24000/1001) FPS
Standard : NTSC
Color space : YUV
Chroma subsampling : 4:2:0
Bit depth : 8 bits
Scan type : Progressive
Bits/(Pixel*Frame) : 0.517
Stream size : 15.9 GiB (81%)
Language : English
Default : No
Forced : No
Color range : Limited
Color primaries : BT.709
Transfer characteristics : BT.709
Matrix coefficients : BT.709
Original source medium : Blu-ray

Audio #1
ID : 2
ID in the original source medium : 4352 (0x1100)
Format : DTS XLL
Format/Info : Digital Theater Systems
Commercial name : DTS-HD Master Audio
Codec ID : A_DTS
Duration : 1 h 28 min
Bit rate mode : Variable
Bit rate : 3 557 kb/s
Channel(s) : 6 channels
Channel layout : C L R Ls Rs LFE
Sampling rate : 48.0 kHz
Frame rate : 93.750 FPS (512 SPF)
Bit depth : 24 bits
Compression mode : Lossless
Stream size : 2.20 GiB (11%)
Title : DTS-HD MA 5.1
Language : English
Default : Yes
Forced : No
Original source medium : Blu-ray

Audio #2
ID : 3
ID in the original source medium : 4353 (0x1101)
Format : PCM
Format settings : Little / Signed
Codec ID : A_PCM/INT/LIT
Duration : 1 h 28 min
Bit rate mode : Constant
Bit rate : 2 304 kb/s
Channel(s) : 2 channels
Sampling rate : 48.0 kHz
Frame rate : 30.000 FPS (1600 SPF)
Bit depth : 24 bits
Stream size : 1.43 GiB (7%)
Title : LPCM 2.0
Language : English
Default : No
Forced : No
Original source medium : Blu-ray

Text #1
ID : 4
Format : UTF-8
Codec ID : S_TEXT/UTF8
Codec ID/Info : UTF-8 Plain Text
Duration : 1 h 27 min
Bit rate : 44 b/s
Count of elements : 1054
Stream size : 28.6 KiB (0%)
Title : English-SRT
Language : English
Default : Yes
Forced : No

Text #2
ID : 5
ID in the original source medium : 4608 (0x1200)
Format : PGS
Muxing mode : zlib
Codec ID : S_HDMV/PGS
Codec ID/Info : Picture based subtitle format used on BDs/HD-DVDs
Duration : 1 h 28 min
Bit rate : 60.0 kb/s
Count of elements : 2568
Stream size : 37.8 MiB (0%)
Title : English-PGS
Language : English
Default : No
Forced : No
Original source medium : Blu-ray

Menu
00:00:00.000 : en:Chapter 01
00:07:18.020 : en:Chapter 02
00:14:17.898 : en:Chapter 03
00:22:16.668 : en:Chapter 04
00:29:59.923 : en:Chapter 05
00:37:14.690 : en:Chapter 06
00:45:18.966 : en:Chapter 07
00:52:48.999 : en:Chapter 08
01:00:06.311 : en:Chapter 09
01:10:51.038 : en:Chapter 10
01:16:46.643 : en:Chapter 11
01:23:05.772 : en:Chapter 12

本帖子中包含更多资源

您需要 登录 才可以下载或查看,没有帐号?立即注册

x
回复

使用道具 举报

0

主题

771

帖子

3886

积分

论坛元老

Rank: 8Rank: 8

积分
3886
发表于 2021-4-17 20:01:09 | 显示全部楼层










回复

使用道具 举报

0

主题

1146

帖子

8595

积分

VIP永久

Rank: 12Rank: 12Rank: 12

积分
8595
发表于 2021-4-18 10:26:19 | 显示全部楼层
感谢楼主分享!!!!!!!
回复

使用道具 举报

0

主题

1216

帖子

5137

积分

论坛元老

Rank: 8Rank: 8

积分
5137
发表于 2021-4-18 14:01:14 | 显示全部楼层
感谢楼主分享高清影片
回复

使用道具 举报

0

主题

13

帖子

305

积分

中级会员

Rank: 3Rank: 3

积分
305
发表于 2021-4-18 15:10:36 | 显示全部楼层
难道又不能下载????
回复

使用道具 举报

0

主题

321

帖子

1869

积分

金牌会员

Rank: 6Rank: 6

积分
1869
发表于 2021-4-18 18:49:13 | 显示全部楼层
感谢楼主的分享
回复

使用道具 举报

0

主题

696

帖子

3547

积分

论坛元老

Rank: 8Rank: 8

积分
3547
发表于 2021-4-19 11:16:24 | 显示全部楼层

谢楼主分享
回复

使用道具 举报

0

主题

774

帖子

3045

积分

论坛元老

Rank: 8Rank: 8

积分
3045
发表于 2021-4-19 16:01:18 | 显示全部楼层
谢谢楼主分享
回复

使用道具 举报

0

主题

136

帖子

285

积分

中级会员

Rank: 3Rank: 3

积分
285
发表于 2021-4-20 11:32:55 | 显示全部楼层
楼主辛苦,谢谢分享!
回复

使用道具 举报

0

主题

774

帖子

3045

积分

论坛元老

Rank: 8Rank: 8

积分
3045
发表于 2021-4-20 15:08:40 | 显示全部楼层
谢谢楼主分享
回复

使用道具 举报

您需要登录后才可以回帖 登录 | 立即注册

本版积分规则

QQ|Archiver|手机版|小黑屋|原盘天堂 好多盘 点击这里给我发消息

GMT+8, 2021-5-11 15:42 , Processed in 0.062312 second(s), 25 queries .

Powered by Discuz! X3.4

Copyright © 2001-2020, Tencent Cloud.

快速回复 返回顶部 返回列表