请选择 进入手机版 | 继续访问电脑版
本站Q群713428235【盘盘多】已满,请新会员加原盘天堂新官方QQ群709708625【好多盘】,验证信息填写您在论坛的会员名,不填会员名的无法入群哈,进群后修改您的群名片名字为您在论坛的会员名,请务必修改,否则群成员多了不知道您是哪个会员。

原盘天堂

 找回密码
 立即注册
京东商城当当华为商城名牌时尚折扣网,一个新型的网上购物平台,我们每周为您精选3~4个国际知名品牌,商品折扣低至2折限时限量售卖,商品囊括时装、护肤品、箱包、皮具、配饰、香水等等,琳琅满目。亿格瑞A10硬盘播放器 苏宁易购
查看: 156|回复: 8

2d蓝光原盘bdmv 报复行为 英语原版 acts.of.revenge.2020.1080p.bluray.avc.dts-hd.ma.2.0[21 GB]

[复制链接]

5958

主题

6605

帖子

132万

积分

管理员

Rank: 18Rank: 18Rank: 18Rank: 18Rank: 18

积分
1329765
发表于 2021-4-17 10:57:50 | 显示全部楼层 |阅读模式






报复行为 Acts.of.Revenge  (2020)

导演:卡甘凯伊
编剧:卡甘凯伊
主演:理查德·泰森,马特·辛奎塔,库尔特·辛克莱
类型:  犯罪 | 戏剧 | 神秘 | 惊悚片
国家:美国 | 土耳其 | 意大利 | 印度
语言:英语
发布日期:2020年7月7日(美国)
拍摄地点:美国加利福尼亚州洛杉矶

IMDb评分 4.4/10

剧情简介 · · · · · ·
      当他青春期的儿子大卫被肇事司机撞死时,戈登正面临着每个家长的噩梦。警方追查了一些薄弱的线索,但未能找到凶手。戈登和他的妻子凯莉的生活发生了翻天覆地的变化,失去了他们唯一的孩子。就在这时,戈登遇到了一位前侦探安东尼奥和威廉医生,加入了他们的支持小组,这个小组由来自不同背景的其他人组成,他们遭受着同样类型的亲人的损失。一步一步地,戈登成为了这个组织中值得信赖的成员,并发现了他们秘密议程的可怕线索。最终,戈登必须决定,为了纪念他心爱的儿子和他应得的正义,他可以走多远。

DISC INFO:

Disc Title:     Acts.of.Revenge.2020.1080p.BluRay.AVC.DTS-HD.MA.2.0-FGT
Disc Size:      22,552,712,121 bytes
Protection:     AACS
BDInfo:         0.7.5.9 (compatible layout created by DVDFab 12.0.2.2)

PLAYLIST REPORT:

Name:                   01004.MPLS  
Length:                 1:43:31.663 (h:m:s.ms)
Size:                   22,071,422,976 bytes
Total Bitrate:          28.43 Mbps

VIDEO:

Codec                   Bitrate             Description     
-----                   -------             -----------     
MPEG-4 AVC Video        25296 kbps          1080p / 23.976 fps / 16:9 / High Profile 4.1

AUDIO:

Codec                           Language        Bitrate         Description     
-----                           --------        -------         -----------     
DTS-HD Master Audio             English         1629 kbps       2.0 / 48 kHz / 1629 kbps / 16-bit (DTS Core: 2.0 / 48 kHz / 1509 kbps / 16-bit)


Video
ID : 1
ID in the original source medium : 4113 (0x1011)
Format : AVC
Format/Info : Advanced Video Codec
Format profile : [email protected]
Format settings : CABAC / 3 Ref Frames
Format settings, CABAC : Yes
Format settings, Reference frames : 3 frames
Codec ID : V_MPEG4/ISO/AVC
Duration : 1 h 43 min
Bit rate mode : Variable
Bit rate : 26.0 Mb/s
Maximum bit rate : 40.0 Mb/s
Width : 1 920 pixels
Height : 1 080 pixels
Display aspect ratio : 16:9
Frame rate mode : Constant
Frame rate : 23.976 (24000/1001) FPS
Color space : YUV
Chroma subsampling : 4:2:0
Bit depth : 8 bits
Scan type : Progressive
Bits/(Pixel*Frame) : 0.523
Stream size : 18.3 GiB (94%)
Writing library : x264 core 148 r2694bm 3b70645
Encoding settings : cabac=1 / ref=4 / deblock=1:0:0 / analyse=0x3:0x133 / me=umh / subme=9 / psy=1 / psy_rd=1.00:0.00 / mixed_ref=1 / me_range=16 / chroma_me=1 / trellis=2 / 8x8dct=1 / cqm=0 / deadzone=21,11 / fast_pskip=1 / chroma_qp_offset=-2 / threads=30 / lookahead_threads=2 / sliced_threads=0 / slices=4 / nr=0 / decimate=1 / interlaced=0 / bluray_compat=1 / constrained_intra=0 / bframes=3 / b_pyramid=1 / b_adapt=2 / b_bias=0 / direct=3 / weightb=1 / open_gop=1 / weightp=1 / keyint=24 / keyint_min=1 / scenecut=40 / intra_refresh=0 / rc_lookahead=24 / rc=abr / mbtree=1 / bitrate=26000 / ratetol=1.0 / qcomp=0.60 / qpmin=0 / qpmax=69 / qpstep=4 / vbv_maxrate=40000 / vbv_bufsize=30000 / nal_hrd=vbr / filler=0 / ip_ratio=1.40 / aq=1:1.00
Language : English
Default : No
Forced : No
Color range : Limited
Color primaries : BT.709
Transfer characteristics : BT.709
Matrix coefficients : BT.709
Original source medium : Blu-ray

Audio
ID : 2
ID in the original source medium : 4352 (0x1100)
Format : DTS XLL
Format/Info : Digital Theater Systems
Commercial name : DTS-HD Master Audio
Codec ID : A_DTS
Duration : 1 h 43 min
Bit rate mode : Variable
Bit rate : 1 629 kb/s
Channel(s) : 2 channels
Channel layout : L R
Sampling rate : 48.0 kHz
Frame rate : 93.750 FPS (512 SPF)
Bit depth : 16 bits
Compression mode : Lossless
Stream size : 1.18 GiB (6%)
Title : DTS-HD MA 2.0
Language : English
Default : Yes
Forced : No
Original source medium : Blu-ray

Text
ID : 3
Format : UTF-8
Codec ID : S_TEXT/UTF8
Codec ID/Info : UTF-8 Plain Text
Duration : 1 h 39 min
Bit rate : 45 b/s
Count of elements : 1347
Stream size : 33.4 KiB (0%)
Title : English-SRT
Language : English
Default : Yes
Forced : No

Menu
00:00:00.000 : en:Chapter 01
00:10:03.644 : en:Chapter 02
00:19:46.560 : en:Chapter 03
00:29:00.905 : en:Chapter 04
00:39:57.061 : en:Chapter 05
00:49:37.349 : en:Chapter 06
01:00:03.725 : en:Chapter 07
01:10:05.409 : en:Chapter 08
01:20:04.841 : en:Chapter 09
01:30:07.110 : en:Chapter 10


本帖子中包含更多资源

您需要 登录 才可以下载或查看,没有帐号?立即注册

x
回复

使用道具 举报

0

主题

1146

帖子

8595

积分

VIP永久

Rank: 12Rank: 12Rank: 12

积分
8595
发表于 2021-4-18 10:22:48 | 显示全部楼层
感谢楼主分享!!!!!!!
回复

使用道具 举报

0

主题

1216

帖子

5137

积分

论坛元老

Rank: 8Rank: 8

积分
5137
发表于 2021-4-18 13:59:47 | 显示全部楼层
感谢楼主分享
回复

使用道具 举报

0

主题

696

帖子

3547

积分

论坛元老

Rank: 8Rank: 8

积分
3547
发表于 2021-4-19 11:27:14 | 显示全部楼层



谢楼主分享
回复

使用道具 举报

0

主题

774

帖子

3045

积分

论坛元老

Rank: 8Rank: 8

积分
3045
发表于 2021-4-19 16:07:31 | 显示全部楼层
谢谢楼主分享
回复

使用道具 举报

0

主题

136

帖子

285

积分

中级会员

Rank: 3Rank: 3

积分
285
发表于 2021-4-19 22:28:06 | 显示全部楼层
感谢楼主分享
回复

使用道具 举报

0

主题

136

帖子

285

积分

中级会员

Rank: 3Rank: 3

积分
285
发表于 2021-4-20 11:21:03 | 显示全部楼层
楼主辛苦,谢谢分享!
回复

使用道具 举报

0

主题

136

帖子

285

积分

中级会员

Rank: 3Rank: 3

积分
285
发表于 2021-4-22 10:27:12 | 显示全部楼层
感谢楼主分享!
回复

使用道具 举报

0

主题

268

帖子

2749

积分

VIP永久

Rank: 12Rank: 12Rank: 12

积分
2749
发表于 2021-4-22 11:44:27 | 显示全部楼层
没有字幕啊。
回复

使用道具 举报

您需要登录后才可以回帖 登录 | 立即注册

本版积分规则

QQ|Archiver|手机版|小黑屋|原盘天堂 好多盘 点击这里给我发消息

GMT+8, 2021-5-11 15:37 , Processed in 0.059988 second(s), 25 queries .

Powered by Discuz! X3.4

Copyright © 2001-2020, Tencent Cloud.

快速回复 返回顶部 返回列表