请选择 进入手机版 | 继续访问电脑版
本站Q群713428235【盘盘多】已满,请新会员加原盘天堂新官方QQ群709708625【好多盘】,验证信息填写您在论坛的会员名,不填会员名的无法入群哈,进群后修改您的群名片名字为您在论坛的会员名,请务必修改,否则群成员多了不知道您是哪个会员。

原盘天堂

 找回密码
 立即注册
京东商城当当华为商城名牌时尚折扣网,一个新型的网上购物平台,我们每周为您精选3~4个国际知名品牌,商品折扣低至2折限时限量售卖,商品囊括时装、护肤品、箱包、皮具、配饰、香水等等,琳琅满目。亿格瑞A10硬盘播放器 苏宁易购
查看: 123|回复: 8

2d蓝光原盘remux 深渊来客 英语原版 from.the.depths.2020.1080p.bluray.remux.avc.dts-hd.ma.5.1[15.89 GB]

[复制链接]

5958

主题

6605

帖子

132万

积分

管理员

Rank: 18Rank: 18Rank: 18Rank: 18Rank: 18

积分
1329755
发表于 2021-4-17 10:57:46 | 显示全部楼层 |阅读模式




深渊来客 From the Depths (2020)

导演: Jose Montesinos
编剧: Jose Montesinos
主演: Angelica Briones / Terra Strong / Marissa Godinez / Liz Fenning / Taylor Jorgensen / 更多...
类型: 剧情 / 悬疑 / 恐怖
官方网站: https://www.instagram.com/explore/tags/fromthedepths/
制片国家/地区: 挪威
语言: 英语
上映日期: 2020-11-18(挪威)
片长: 85分钟
IMDb链接: tt11404762
资源名称: 深渊来客.From.the.Depths.2020.tt11404762


深渊来客的剧情简介 · · · · · ·
  一名年轻女子在鲨鱼袭击中幸存下来后,噩梦缠身,梦见自己在黑海中被一个贪婪的食肉动物跟踪,并产生幻觉,梦见自己的姐姐和男友都在袭击中丧生。

Video
ID : 1
ID in the original source medium : 4113 (0x1011)
Format : AVC
Format/Info : Advanced Video Codec
Format profile : [email protected]
Format settings : CABAC / 4 Ref Frames
Format settings, CABAC : Yes
Format settings, Reference frames : 4 frames
Codec ID : V_MPEG4/ISO/AVC
Duration : 1 h 25 min
Bit rate mode : Variable
Bit rate : 25.0 Mb/s
Maximum bit rate : 35.0 Mb/s
Width : 1 920 pixels
Height : 1 080 pixels
Display aspect ratio : 16:9
Frame rate mode : Constant
Frame rate : 23.976 (24000/1001) FPS
Standard : Component
Color space : YUV
Chroma subsampling : 4:2:0
Bit depth : 8 bits
Scan type : Progressive
Bits/(Pixel*Frame) : 0.503
Stream size : 14.8 GiB (93%)
Writing library : x264 core 155
Encoding settings : cabac=1 / ref=4 / deblock=1:0:0 / analyse=0x3:0x133 / me=umh / subme=9 / psy=1 / psy_rd=1.00:0.00 / mixed_ref=1 / me_range=16 / chroma_me=1 / trellis=2 / 8x8dct=1 / cqm=1 / deadzone=21,11 / fast_pskip=1 / chroma_qp_offset=-2 / threads=24 / lookahead_threads=2 / sliced_threads=0 / slices=4 / nr=0 / decimate=1 / interlaced=0 / minigop=1 / stitchable=1 / constrained_intra=0 / bframes=3 / b_pyramid=0 / b_adapt=2 / b_bias=0 / direct=3 / weightb=1 / open_gop=1 / weightp=1 / keyint=24 / keyint_min=1 / scenecut=40 / intra_refresh=0 / rc_lookahead=24 / rc=2pass / mbtree=1 / bitrate=25000 / ratetol=1.0 / qcomp=0.60 / qpmin=3 / qpmax=69 / qpstep=4 / cplxblur=20.0 / qblur=0.5 / vbv_maxrate=35000 / vbv_bufsize=30000 / nal_hrd=vbr / filler=0 / ip_ratio=1.40 / aq=1:1.00
Language : English
Default : No
Forced : No
Color range : Limited
Color primaries : BT.709
Transfer characteristics : BT.709
Matrix coefficients : BT.709
Original source medium : Blu-ray

Audio
ID : 2
ID in the original source medium : 4353 (0x1101)
Format : DTS XLL
Format/Info : Digital Theater Systems
Commercial name : DTS-HD Master Audio
Codec ID : A_DTS
Duration : 1 h 25 min
Bit rate mode : Variable
Bit rate : 1 739 kb/s
Channel(s) : 6 channels
Channel layout : C L R Ls Rs LFE
Sampling rate : 48.0 kHz
Frame rate : 93.750 FPS (512 SPF)
Bit depth : 16 bits
Compression mode : Lossless
Stream size : 1.03 GiB (7%)
Title : DTS-HD MA 5.1
Language : English
Default : Yes
Forced : No
Original source medium : Blu-ray

Text
ID : 3
Format : UTF-8
Codec ID : S_TEXT/UTF8
Codec ID/Info : UTF-8 Plain Text
Duration : 1 h 24 min
Bit rate : 55 b/s
Count of elements : 1405
Stream size : 34.4 KiB (0%)
Title : English-SRT
Language : English
Default : Yes
Forced : No

Menu
00:00:00.000 : de:Chapter 01
00:11:11.629 : de:Chapter 02
00:23:02.881 : de:Chapter 03
00:35:00.098 : de:Chapter 04
00:44:18.322 : de:Chapter 05
00:57:03.753 : de:Chapter 06
01:02:36.377 : de:Chapter 07
01:13:39.581 : de:Chapter 08

本帖子中包含更多资源

您需要 登录 才可以下载或查看,没有帐号?立即注册

x
回复

使用道具 举报

0

主题

771

帖子

3886

积分

论坛元老

Rank: 8Rank: 8

积分
3886
发表于 2021-4-17 19:47:51 | 显示全部楼层










回复

使用道具 举报

0

主题

1146

帖子

8595

积分

VIP永久

Rank: 12Rank: 12Rank: 12

积分
8595
发表于 2021-4-18 10:21:39 | 显示全部楼层
感谢楼主分享!!!!!!!
回复

使用道具 举报

0

主题

1216

帖子

5137

积分

论坛元老

Rank: 8Rank: 8

积分
5137
发表于 2021-4-18 13:57:26 | 显示全部楼层
感谢楼主分享
回复

使用道具 举报

0

主题

696

帖子

3547

积分

论坛元老

Rank: 8Rank: 8

积分
3547
发表于 2021-4-19 11:34:39 | 显示全部楼层
谢楼主分享
回复

使用道具 举报

0

主题

772

帖子

3043

积分

论坛元老

Rank: 8Rank: 8

积分
3043
发表于 2021-4-19 16:22:07 | 显示全部楼层
谢谢楼主分享
回复

使用道具 举报

0

主题

136

帖子

285

积分

中级会员

Rank: 3Rank: 3

积分
285
发表于 2021-4-20 11:31:06 | 显示全部楼层
楼主辛苦,谢谢分享!
回复

使用道具 举报

0

主题

772

帖子

3043

积分

论坛元老

Rank: 8Rank: 8

积分
3043
发表于 2021-4-20 15:06:01 | 显示全部楼层
谢谢楼主分享
回复

使用道具 举报

0

主题

136

帖子

285

积分

中级会员

Rank: 3Rank: 3

积分
285
发表于 2021-4-22 09:40:17 | 显示全部楼层
感谢楼主分享!
回复

使用道具 举报

您需要登录后才可以回帖 登录 | 立即注册

本版积分规则

QQ|Archiver|手机版|小黑屋|原盘天堂 好多盘 点击这里给我发消息

GMT+8, 2021-5-11 14:55 , Processed in 0.065726 second(s), 25 queries .

Powered by Discuz! X3.4

Copyright © 2001-2020, Tencent Cloud.

快速回复 返回顶部 返回列表