请选择 进入手机版 | 继续访问电脑版
本站Q群713428235【盘盘多】已满,请新会员加原盘天堂新官方QQ群709708625【好多盘】,验证信息填写您在论坛的会员名,不填会员名的无法入群哈,进群后修改您的群名片名字为您在论坛的会员名,请务必修改,否则群成员多了不知道您是哪个会员。

原盘天堂

 找回密码
 立即注册
京东商城当当华为商城名牌时尚折扣网,一个新型的网上购物平台,我们每周为您精选3~4个国际知名品牌,商品折扣低至2折限时限量售卖,商品囊括时装、护肤品、箱包、皮具、配饰、香水等等,琳琅满目。亿格瑞A10硬盘播放器 苏宁易购
查看: 135|回复: 6

2d蓝光原盘bdmv 女巫清算 英语原版 the.reckoning.2020.complete.bluray.AVC.DTS-HD.MA.5.1[22.94 GB]

[复制链接]

5958

主题

6605

帖子

132万

积分

管理员

Rank: 18Rank: 18Rank: 18Rank: 18Rank: 18

积分
1329765
发表于 2021-4-15 10:18:33 | 显示全部楼层 |阅读模式








女巫清算 The Reckoning (2020)

导演: 尼尔·马歇尔
编剧: Edward Evers-Swindell / 夏洛特·柯克
主演: 西恩·帕特维 / 夏洛特·柯克 / 史蒂芬·威丁顿 / 乔·安德森 / Suzanne Magowan / 更多...
类型: 恐怖
制片国家/地区: 英国
语言: 英语
上映日期: 2020-08-20(国际幻想影展) / 2021-02-05(美国)
片长: 110分钟
又名: 罪孽
IMDb链接: tt9182964
资源名称: 女巫清算.The.Reckoning.2020.tt9182964

豆瓣评分 引用
5.3
373人评价
5星 6.1%
4星 7.7%
3星 42.1%
2星 35.4%
1星 8.7%

剧情简介 · · · · · ·
  Co-written by lead Charlotte Kirk and Edward Evers-Swindell, the 1665 New England set horror film stars Kirk as Evelyn Haverstock, whose husband (Anderson) commits suicide, finding herself falsely accused of witchcraft after rejecting the advances of her landlord.

      由夏洛特·柯克和爱德华·埃弗斯-斯温埃尔共同编剧,1665年新英格兰的恐怖片明星柯克饰演伊芙琳·哈弗斯托克,他的丈夫(安德森)自杀,在拒绝房东的帮助后发现自己被错误地指控为巫术。

DISC INFO:

Disc Title:     The.Reckoning.2020.COMPLETE.BLURAY-iNTEGRUM
Disc Size:      24,630,091,130 bytes
Protection:     AACS
BDInfo:         0.7.5.9 (compatible layout created by DVDFab 12.0.2.2)

PLAYLIST REPORT:

Name:                   00020.MPLS  
Length:                 1:50:56.775 (h:m:s.ms)
Size:                   21,926,240,256 bytes
Total Bitrate:          26.35 Mbps

VIDEO:

Codec                   Bitrate             Description     
-----                   -------             -----------     
MPEG-4 AVC Video        20987 kbps          1080p / 23.976 fps / 16:9 / High Profile 4.1

AUDIO:

Codec                           Language        Bitrate         Description     
-----                           --------        -------         -----------     
DTS-HD Master Audio             English         3910 kbps       5.1 / 48 kHz / 3910 kbps / 24-bit (DTS Core: 5.1 / 48 kHz / 1509 kbps / 24-bit)

SUBTITLES:

Codec                           Language        Bitrate         Description     
-----                           --------        -------         -----------     
Presentation Graphics           English         17.555 kbps                     
Presentation Graphics           French          17.069 kbps                     
Presentation Graphics           Spanish         16.527 kbps  

Video
ID : 1
ID in the original source medium : 4113 (0x1011)
Format : AVC
Format/Info : Advanced Video Codec
Format profile : [email protected]
Format settings : CABAC / 4 Ref Frames
Format settings, CABAC : Yes
Format settings, Reference frames : 4 frames
Codec ID : V_MPEG4/ISO/AVC
Duration : 1 h 50 min
Bit rate mode : Variable
Bit rate : 20.8 Mb/s
Maximum bit rate : 36.0 Mb/s
Width : 1 920 pixels
Height : 1 080 pixels
Display aspect ratio : 16:9
Frame rate mode : Constant
Frame rate : 23.976 (24000/1001) FPS
Color space : YUV
Chroma subsampling : 4:2:0
Bit depth : 8 bits
Scan type : Progressive
Bits/(Pixel*Frame) : 0.419
Stream size : 16.1 GiB (84%)
Language : English
Default : No
Forced : No
Original source medium : Blu-ray

Audio
ID : 2
ID in the original source medium : 4352 (0x1100)
Format : DTS XLL
Format/Info : Digital Theater Systems
Commercial name : DTS-HD Master Audio
Codec ID : A_DTS
Duration : 1 h 50 min
Bit rate mode : Variable
Bit rate : 3 910 kb/s
Channel(s) : 6 channels
Channel layout : C L R Ls Rs LFE
Sampling rate : 48.0 kHz
Frame rate : 93.750 FPS (512 SPF)
Bit depth : 24 bits
Compression mode : Lossless
Stream size : 3.03 GiB (16%)
Title : DTS-HD MA 5.1
Language : English
Default : Yes
Forced : No
Original source medium : Blu-ray

Text #1
ID : 3
Format : UTF-8
Codec ID : S_TEXT/UTF8
Codec ID/Info : UTF-8 Plain Text
Duration : 1 h 40 min
Bit rate : 40 b/s
Count of elements : 1063
Stream size : 29.9 KiB (0%)
Title : English-SRT
Language : English
Default : Yes
Forced : No

Text #2
ID : 4
ID in the original source medium : 4608 (0x1200)
Format : PGS
Muxing mode : zlib
Codec ID : S_HDMV/PGS
Codec ID/Info : Picture based subtitle format used on BDs/HD-DVDs
Duration : 1 h 44 min
Bit rate : 18.6 kb/s
Count of elements : 2486
Stream size : 13.9 MiB (0%)
Title : English-PGS
Language : English
Default : No
Forced : No
Original source medium : Blu-ray

Text #3
ID : 5
ID in the original source medium : 4609 (0x1201)
Format : PGS
Muxing mode : zlib
Codec ID : S_HDMV/PGS
Codec ID/Info : Picture based subtitle format used on BDs/HD-DVDs
Duration : 1 h 45 min
Bit rate : 18.0 kb/s
Count of elements : 2244
Stream size : 13.5 MiB (0%)
Title : French-PGS
Language : French
Default : No
Forced : No
Original source medium : Blu-ray

Text #4
ID : 6
ID in the original source medium : 4610 (0x1202)
Format : PGS
Muxing mode : zlib
Codec ID : S_HDMV/PGS
Codec ID/Info : Picture based subtitle format used on BDs/HD-DVDs
Duration : 1 h 45 min
Bit rate : 17.4 kb/s
Count of elements : 2240
Stream size : 13.1 MiB (0%)
Title : Spanish-PGS
Language : Spanish
Default : No
Forced : No
Original source medium : Blu-ray

Menu
00:00:00.000 : en:Chapter 01
00:09:22.395 : en:Chapter 02
00:21:25.409 : en:Chapter 03
00:36:21.971 : en:Chapter 04
00:46:47.679 : en:Chapter 05
00:57:44.836 : en:Chapter 06
01:14:35.512 : en:Chapter 07
01:46:29.132 : en:Chapter 08

本帖子中包含更多资源

您需要 登录 才可以下载或查看,没有帐号?立即注册

x
回复

使用道具 举报

0

主题

1146

帖子

8595

积分

VIP永久

Rank: 12Rank: 12Rank: 12

积分
8595
发表于 2021-4-15 11:13:13 | 显示全部楼层
感谢楼主分享!!!!!!!
回复

使用道具 举报

0

主题

771

帖子

3886

积分

论坛元老

Rank: 8Rank: 8

积分
3886
发表于 2021-4-16 09:47:06 | 显示全部楼层










回复

使用道具 举报

0

主题

774

帖子

3045

积分

论坛元老

Rank: 8Rank: 8

积分
3045
发表于 2021-4-16 15:04:00 | 显示全部楼层
感谢楼主分享
回复

使用道具 举报

0

主题

145

帖子

465

积分

中级会员

Rank: 3Rank: 3

积分
465
发表于 2021-4-18 13:28:50 | 显示全部楼层
谢谢分享,谢谢楼主
回复

使用道具 举报

0

主题

774

帖子

3045

积分

论坛元老

Rank: 8Rank: 8

积分
3045
发表于 2021-4-20 14:55:32 | 显示全部楼层
谢谢楼主分享
回复

使用道具 举报

0

主题

136

帖子

285

积分

中级会员

Rank: 3Rank: 3

积分
285
发表于 2021-4-22 09:21:15 | 显示全部楼层
感谢楼主分享!
回复

使用道具 举报

您需要登录后才可以回帖 登录 | 立即注册

本版积分规则

QQ|Archiver|手机版|小黑屋|原盘天堂 好多盘 点击这里给我发消息

GMT+8, 2021-5-11 15:36 , Processed in 0.058315 second(s), 25 queries .

Powered by Discuz! X3.4

Copyright © 2001-2020, Tencent Cloud.

快速回复 返回顶部 返回列表