请选择 进入手机版 | 继续访问电脑版
本站Q群713428235【盘盘多】已满,请新会员加原盘天堂新官方QQ群709708625【好多盘】,验证信息填写您在论坛的会员名,不填会员名的无法入群哈,进群后修改您的群名片名字为您在论坛的会员名,请务必修改,否则群成员多了不知道您是哪个会员。

原盘天堂

 找回密码
 立即注册
京东商城当当华为商城名牌时尚折扣网,一个新型的网上购物平台,我们每周为您精选3~4个国际知名品牌,商品折扣低至2折限时限量售卖,商品囊括时装、护肤品、箱包、皮具、配饰、香水等等,琳琅满目。亿格瑞A10硬盘播放器 苏宁易购
查看: 273|回复: 27

4k蓝光原盘bdmv 野兽之日 英语原版 the.day.of.the.beast.1995.spanish.2160p.bluray.hevc.dts-hd.ma.5.1[51.07 GB]

[复制链接]

5958

主题

6606

帖子

132万

积分

管理员

Rank: 18Rank: 18Rank: 18Rank: 18Rank: 18

积分
1329770
发表于 2021-4-9 14:04:39 | 显示全部楼层 |阅读模式








野兽之日 El día de la bestia (1995)

导演: 艾利克斯·德·拉·伊格莱希亚
编剧: 艾利克斯·德·拉·伊格莱希亚 / Jorge Guerricaechevarría
主演: 亚历克斯·安克吕罗 / 特雷勒·帕维斯 / 娜塔丽·塞瑟尼亚 / 安东尼奥·德·拉·托雷
类型: 喜剧 / 惊悚 / 恐怖 / 犯罪
制片国家/地区: 西班牙 / 意大利
语言: 西班牙语
上映日期: 1995-09-15
片长: 103 分钟 / USA: 99 分钟
又名: 魔鬼之日 / 野兽日 / 魔鬼今晚诞生 / The Day of the Beast
IMDb链接: tt0112922
资源名称: 野兽之日.El.día.de.la.bestia.1995.tt0112922

豆瓣评分
7.1
379人评价
5星 12.0%
4星 43.8%
3星 34.9%
2星 7.8%
1星 1.6%

剧情简介 · · · · · ·
  影片开头一段,神父安格尔不断犯罪,笨拙但又顺利地成了一个“恶棍”,这些情节既令人好笑又能引发悬念。直到神父向书店老板解释,我们才知道原来他这样做是为了和撒旦联系,以便制止世界末日的到来。 在神学上造诣颇深的神父安格尔研究神学多年发现了一个天大的秘密,那就是基督的敌人将在1995年12月25日的马德里出现,而那一天将是世界末日。 将近圣诞节了,神父来到正在到处被暴力“清洗”的混乱的马德里,他从一个快被烧死的人身上偷了钱包和身份证,顺手偷了一个箱子,又来到音像店,要看店的大汉琼斯给他找几张重金属唱片。琼斯和他颇为投缘,不仅送给他一个名叫“撒旦”地下乐队的小样,而且还给了乐队演唱的场所“地狱”和他自己母亲开的旅馆的地址。 安格尔来到旅馆住了下来,然后去了书店,神父找到一个当红的预知未来的电视节目“黑暗地带”的主持人卡文出的一本书,要把它偷走。在书店管理者面前,他宣布了世界末日的到来,并告诉对方自己就是要做个恶棍,以便能和撒旦取得联系,然后在仪式上杀死它。然后,神父打昏要给精神病院打电话的老板,逃了出来。 安格尔要琼斯帮忙寻找魔鬼,两个人跟踪卡文,闯进他的住处,然后要这个电视上的先知告诉他如何投靠魔鬼。安格尔不惜使用暴力,卡文无奈只能胡乱招供,要他去找处女之血。安格尔用安眠药从琼斯女友身上得到处女之血,又打昏了琼斯的母亲,才回到卡文的住处。一番仪式过后,什么结果都没有,卡文承认自己刚才是胡乱说的,而就在这时,一只“神圣”的蟑螂出现,接着就是代表魔鬼的怪兽出现又离开。 深信了神父观点的卡文也决定和他们一起寻找魔鬼,突然有人疯狂撞门,三个人从窗户逃了出去,卡文不慎摔在灯箱上,神父和琼斯逃走了。卡文被救下来之后,连忙赶到电视台,要求停播圣诞节目,播出自己的特别节目,就在他和制片人争吵的时候,突然发现了自己书中记载的魔鬼的签名。 安格尔独自找到“地狱”,却被人误会打昏,琼斯把他救了出来。两人看到卡文的特别节目,打通了卡文的热线电话,狂热的卡文在电视上宣布了世界末日的到来。卡文找到两人,把自己的发现告诉他们,带他们来到“魔鬼的教堂”——一所还没完全盖好的大厦。 在大厦里,他们果然听到婴儿的哭声,但暴力“清洗”马德里的暴徒出现,打倒了卡文,把安格尔和琼斯逼上了楼顶。琼斯要安格尔藏起来,安格尔看到了暴徒幻化成魔鬼,把琼斯从楼上丢下去。安格尔逃回楼下,看到卡文正要被焚烧,他用捡来的手枪击毙了暴徒,救出了卡文。安格尔看到了一旁已经被枪杀的一对穷人和新出生的婴儿,又回身击毙了扑上来的暴徒-魔鬼。 九个月后,“黑暗地带”换了一个主持人恢复播出,远方的卡文却向安格尔感叹着自己拯救世界却没有人知道。 用这样短的篇幅去描述这样一部影片,几乎是不太可能的,影片中复杂的情节转折只能被忽略掉。这是一部现代感很强的影片,剧情复杂节奏紧凑,但同时这也是一部有着西班牙传统的影片,色调明快,人物个性极度鲜明,而且主角安格尔的身上显然就是唐·吉诃德的影子,而力大无脑的琼斯,当然就是桑丘。两个人再加上卡文,三个人陷入一种迷幻的激情之中,荒谬地试图拯救世界。影片并没有在这个情节的现实性上作太多文章,也许这是一个荒诞的“神学”故事,也许是安格尔的狂热和卡文的迷幻剂在作怪,反正我们看到了一部精彩的影片,谁还会管那么多。 影片导演伊格莱西亚,是西班牙新近崛起的年轻导演,我们从这部影片中就可以看到他丰富的想象力,和操控复杂故事的叙事能力。影片获得西班牙戈雅奖最佳导演奖,从此开辟了伊格莱西亚的电影道路。但伊格莱西亚似乎有些底气不足,在下一部影片《狂野双辣》中没有更进一步展开他丰富的想象,而是陷入了以情节和视觉效果取胜的心态之中。

DISC INFO:

Disc Title:     The.Day.of.the.Beast.1995.SPANISH.2160p.BluRay.HEVC.DTS-HD.MA.5.1-TAiSHi
Disc Size:      54,831,465,135 bytes
Protection:     AACS2
Extras:         Ultra HD
BDInfo:         0.7.5.9 (compatible layout created by DVDFab 12.0.2.2)

PLAYLIST REPORT:

Name:                   00002.MPLS  
Length:                 1:43:51.683 (h:m:s.ms)
Size:                   54,578,325,504 bytes
Total Bitrate:          70.07 Mbps

VIDEO:

Codec                   Bitrate             Description     
-----                   -------             -----------     
MPEG-H HEVC Video       58642 kbps          2160p / 23.976 fps / 16:9 / Main 10 @ Level 5.1 @ High / 4:2:0 / 10 bits / 2000nits / HDR10 / BT.2020

AUDIO:

Codec                           Language        Bitrate         Description     
-----                           --------        -------         -----------     
DTS-HD Master Audio             Spanish         1987 kbps       2.0 / 48 kHz / 1987 kbps / 24-bit (DTS Core: 2.0 / 48 kHz / 1509 kbps / 24-bit)
DTS-HD Master Audio             Spanish         4024 kbps       5.1 / 48 kHz / 4024 kbps / 24-bit (DTS Core: 5.1 / 48 kHz / 1509 kbps / 24-bit)
DTS-HD Master Audio             English         1733 kbps       2.0 / 48 kHz / 1733 kbps / 16-bit (DTS Core: 2.0 / 48 kHz / 1509 kbps / 16-bit)

SUBTITLES:

Codec                           Language        Bitrate         Description     
-----                           --------        -------         -----------     
Presentation Graphics           English         28.707 kbps     

Video
ID : 1
ID in the original source medium : 4113 (0x1011)
Format : HEVC
Format/Info : High Efficiency Video Coding
Format profile : Main [email protected]@High
HDR format : SMPTE ST 2086, HDR10 compatible
Codec ID : V_MPEGH/ISO/HEVC
Duration : 1 h 43 min
Bit rate : 58.6 Mb/s
Width : 3 840 pixels
Height : 2 160 pixels
Display aspect ratio : 16:9
Frame rate mode : Constant
Frame rate : 23.976 (24000/1001) FPS
Color space : YUV
Chroma subsampling : 4:2:0 (Type 2)
Bit depth : 10 bits
Bits/(Pixel*Frame) : 0.295
Stream size : 42.5 GiB (87%)
Writing library : x265 2.3+18-88fd9082764c:[Windows][GCC 5.3.1][64 bit] 10bit
Encoding settings : cpuid=1050111 / frame-threads=8 / numa-pools=20,20 / wpp / no-pmode / no-pme / no-psnr / no-ssim / log-level=2 / input-csp=1 / input-res=3840x2160 / interlace=0 / total-frames=0 / level-idc=51 / high-tier=1 / uhd-bd=1 / ref=3 / no-allow-non-conformance / repeat-headers / annexb / aud / hrd / info / hash=0 / no-temporal-layers / no-open-gop / min-keyint=1 / keyint=24 / bframes=4 / b-adapt=2 / b-pyramid / bframe-bias=0 / rc-lookahead=20 / lookahead-slices=8 / scenecut=40 / no-intra-refresh / ctu=64 / min-cu-size=8 / no-rect / no-amp / max-tu-size=32 / tu-inter-depth=1 / tu-intra-depth=1 / limit-tu=0 / rdoq-level=0 / dynamic-rd=0.00 / signhide / no-tskip / nr-intra=0 / nr-inter=0 / no-constrained-intra / strong-intra-smoothing / max-merge=2 / limit-refs=3 / no-limit-modes / me=1 / subme=2 / merange=57 / temporal-mvp / weightp / no-weightb / no-analyze-src-pics / deblock=0:0 / sao / no-sao-non-deblock / rd=3 / no-early-skip / rskip / no-fast-intra / no-tskip-fast / no-cu-lossless / no-b-intra / rdpenalty=0 / psy-rd=2.00 / psy-rdoq=0.00 / no-rd-refine / analysis-mode=0 / no-lossless / cbqpoffs=0 / crqpoffs=0 / rc=abr / bitrate=60000 / qcomp=0.60 / qpstep=4 / stats-write=0 / stats-read=0 / vbv-maxrate=70000 / vbv-bufsize=60000 / vbv-init=0.9 / ipratio=1.40 / pbratio=1.30 / aq-mode=1 / aq-strength=1.00 / cutree / zone-count=0 / no-strict-cbr / qg-size=32 / no-rc-grain / qpmax=69 / qpmin=0 / sar=1 / overscan=0 / videoformat=5 / range=0 / colorprim=9 / transfer=16 / colormatrix=9 / chromaloc=1 / chromaloc-top=2 / chromaloc-bottom=2 / display-window=0 / master-display=G(13200,34500)B(7500,3000)R(34000,16000)WP(15635,16500)L(20000000,2) / max-cll=10000,400 / min-luma=0 / max-luma=1023 / log2-max-poc-lsb=8 / vui-timing-info / vui-hrd-info / slices=1 / opt-qp-pps / opt-ref-list-length-pps / no-multi-pass-opt-rps / scenecut-bias=0.05 / no-opt-cu-delta-qp / no-aq-motion / hdr / no-hdr-opt / refine-level=5
Language : English
Default : No
Forced : No
Color range : Limited
Color primaries : BT.2020
Transfer characteristics : PQ
Matrix coefficients : BT.2020 non-constant
Mastering display color primaries : R: x=0.680000 y=0.320000, G: x=0.264000 y=0.690000, B: x=0.150000 y=0.060000, White point: x=0.312700 y=0.330000
Mastering display luminance : min: 0.0002 cd/m2, max: 2000 cd/m2
Maximum Content Light Level : 10000 cd/m2
Maximum Frame-Average Light Level : 400 cd/m2
Original source medium : Blu-ray

Audio #1
ID : 2
ID in the original source medium : 4353 (0x1101)
Format : DTS XLL
Format/Info : Digital Theater Systems
Commercial name : DTS-HD Master Audio
Codec ID : A_DTS
Duration : 1 h 43 min
Bit rate mode : Variable
Bit rate : 4 024 kb/s
Channel(s) : 6 channels
Channel layout : C L R Ls Rs LFE
Sampling rate : 48.0 kHz
Frame rate : 93.750 FPS (512 SPF)
Bit depth : 24 bits
Compression mode : Lossless
Stream size : 2.92 GiB (6%)
Title : DTS-HD MA 5.1
Language : Spanish
Default : Yes
Forced : No
Original source medium : Blu-ray

Audio #2
ID : 3
Format : AC-3
Format/Info : Audio Coding 3
Commercial name : Dolby Digital
Codec ID : A_AC3
Duration : 1 h 43 min
Bit rate mode : Constant
Bit rate : 640 kb/s
Channel(s) : 6 channels
Channel layout : L R C LFE Ls Rs
Sampling rate : 48.0 kHz
Frame rate : 31.250 FPS (1536 SPF)
Compression mode : Lossy
Stream size : 476 MiB (1%)
Title : DD 5.1
Language : Spanish
Service kind : Complete Main
Default : No
Forced : No

Audio #3
ID : 4
ID in the original source medium : 4352 (0x1100)
Format : DTS XLL
Format/Info : Digital Theater Systems
Commercial name : DTS-HD Master Audio
Codec ID : A_DTS
Duration : 1 h 43 min
Bit rate mode : Variable
Bit rate : 1 987 kb/s
Channel(s) : 2 channels
Channel layout : L R
Sampling rate : 48.0 kHz
Frame rate : 93.750 FPS (512 SPF)
Bit depth : 24 bits
Compression mode : Lossless
Stream size : 1.44 GiB (3%)
Title : DTS-HD MA 2.0
Language : Spanish
Default : No
Forced : No
Original source medium : Blu-ray

Audio #4
ID : 5
ID in the original source medium : 4354 (0x1102)
Format : DTS XLL
Format/Info : Digital Theater Systems
Commercial name : DTS-HD Master Audio
Codec ID : A_DTS
Duration : 1 h 43 min
Bit rate mode : Variable
Bit rate : 1 733 kb/s
Channel(s) : 2 channels
Channel layout : L R
Sampling rate : 48.0 kHz
Frame rate : 93.750 FPS (512 SPF)
Bit depth : 16 bits
Compression mode : Lossless
Stream size : 1.26 GiB (3%)
Title : DTS-HD MA 2.0
Language : English
Default : No
Forced : No
Original source medium : Blu-ray

Text #1
ID : 6
Format : UTF-8
Codec ID : S_TEXT/UTF8
Codec ID/Info : UTF-8 Plain Text
Duration : 1 h 39 min
Bit rate : 50 b/s
Count of elements : 1288
Stream size : 36.9 KiB (0%)
Title : English-SRT
Language : English
Default : Yes
Forced : No

Text #2
ID : 7
ID in the original source medium : 4768 (0x12A0)
Format : PGS
Muxing mode : zlib
Codec ID : S_HDMV/PGS
Codec ID/Info : Picture based subtitle format used on BDs/HD-DVDs
Duration : 1 h 39 min
Bit rate : 30.0 kb/s
Count of elements : 2511
Stream size : 21.3 MiB (0%)
Title : English-PGS
Language : English
Default : No
Forced : No
Original source medium : Blu-ray

Menu
00:00:00.000 : en:Chapter 01
00:08:01.564 : en:Chapter 02
00:21:22.155 : en:Chapter 03
00:32:59.352 : en:Chapter 04
00:43:30.232 : en:Chapter 05
01:00:13.234 : en:Chapter 06
01:17:01.325 : en:Chapter 07
01:31:40.995 : en:Chapter 08

本帖子中包含更多资源

您需要 登录 才可以下载或查看,没有帐号?立即注册

x
回复

使用道具 举报

0

主题

696

帖子

3547

积分

论坛元老

Rank: 8Rank: 8

积分
3547
发表于 2021-4-9 15:21:35 | 显示全部楼层
谢楼主的分享
回复

使用道具 举报

0

主题

251

帖子

2455

积分

金牌会员

Rank: 6Rank: 6

积分
2455
发表于 2021-4-9 15:29:57 | 显示全部楼层

谢谢楼主分享
回复

使用道具 举报

0

主题

771

帖子

3886

积分

论坛元老

Rank: 8Rank: 8

积分
3886
发表于 2021-4-10 11:10:23 | 显示全部楼层










回复

使用道具 举报

0

主题

312

帖子

1564

积分

金牌会员

Rank: 6Rank: 6

积分
1564
发表于 2021-4-10 16:51:43 | 显示全部楼层
这个西班牙导演老出宗教神片
回复

使用道具 举报

0

主题

23

帖子

88

积分

注册会员

Rank: 2

积分
88
发表于 2021-4-10 19:15:42 | 显示全部楼层
谢谢楼主分享
回复

使用道具 举报

0

主题

321

帖子

1869

积分

金牌会员

Rank: 6Rank: 6

积分
1869
发表于 2021-4-10 19:36:54 | 显示全部楼层
谢谢楼主分享好资源,非常感谢
回复

使用道具 举报

0

主题

774

帖子

3045

积分

论坛元老

Rank: 8Rank: 8

积分
3045
发表于 2021-4-10 21:25:22 | 显示全部楼层
谢谢楼主分享
回复

使用道具 举报

0

主题

7

帖子

64

积分

注册会员

Rank: 2

积分
64
发表于 2021-4-11 09:20:30 | 显示全部楼层
辛苦楼主  比如我现在  不让我下载 反反复复烦烦烦
回复

使用道具 举报

0

主题

307

帖子

1436

积分

金牌会员

Rank: 6Rank: 6

积分
1436
发表于 2021-4-11 14:20:23 | 显示全部楼层
谢谢楼主分享
回复

使用道具 举报

您需要登录后才可以回帖 登录 | 立即注册

本版积分规则

QQ|Archiver|手机版|小黑屋|原盘天堂 好多盘 点击这里给我发消息

GMT+8, 2021-5-11 16:20 , Processed in 0.066309 second(s), 24 queries .

Powered by Discuz! X3.4

Copyright © 2001-2020, Tencent Cloud.

快速回复 返回顶部 返回列表