请选择 进入手机版 | 继续访问电脑版
本站Q群713428235【盘盘多】已满,请新会员加原盘天堂新官方QQ群709708625【好多盘】,验证信息填写您在论坛的会员名,不填会员名的无法入群哈,进群后修改您的群名片名字为您在论坛的会员名,请务必修改,否则群成员多了不知道您是哪个会员。

原盘天堂

 找回密码
 立即注册
京东商城当当华为商城名牌时尚折扣网,一个新型的网上购物平台,我们每周为您精选3~4个国际知名品牌,商品折扣低至2折限时限量售卖,商品囊括时装、护肤品、箱包、皮具、配饰、香水等等,琳琅满目。亿格瑞A10硬盘播放器 苏宁易购
查看: 280|回复: 20

4k蓝光原盘bdmv 最终幻想15:王者之剑 中文字幕 kingsglaive.final.fantasy.xv.2016.2160p.bluray.hevc.dts-hd.ma.5.1[46.44 GB]

[复制链接]

5958

主题

6606

帖子

132万

积分

管理员

Rank: 18Rank: 18Rank: 18Rank: 18Rank: 18

积分
1329770
发表于 2021-4-9 13:29:36 | 显示全部楼层 |阅读模式






最终幻想15:王者之剑 Kingsglaive Final Fantasy XV (2016)

导演: 野末武志
编剧: 长谷川隆 / 坂口博信
主演: 亚伦·保尔 / 肖恩·宾 / 琳娜·海蒂 / 戴维·甘特 / 达林·德·保罗 / 更多...
类型: 剧情 / 科幻 / 动画 / 奇幻 / 冒险
官方网站: kingsglaive-jp.com
制片国家/地区: 日本
语言: 英语 / 日语
上映日期: 2017-03-10(中国大陆) / 2016-07-09(日本) / 2016-08-19(美国)
片长: 116分钟(中国大陆) / 115分钟
又名: FF15 / キングスグレイブ ファイナルファンタジーXV
IMDb链接: tt5595168
资源名称: 最终幻想15.Kingsglaive.Final.Fantasy.2016.tt5595168

豆瓣评分
7.2
33777人评价
5星 16.6%
4星 38.9%
3星 36.2%
2星 7.0%
1星 1.3%
好于 39% 动画片
好于 69% 科幻片

剧情简介 · · · · · ·
  影片基于2016年电子角色扮演游戏《最终幻想XV》的世界观,构成新的水晶故事子系列的一部分。本片由野末武志执导,他曾是最终幻想CGI电影《最终幻想VII 降临之子》(2005)的联合导演。《最终幻想XV》总监田畑端担任电影监制,长谷川隆任编剧,约翰·R·格雷厄姆负责作曲。

最终幻想15:王者之剑 Kingsglaive Final Fantasy XV 获奖情况
第4届豆瓣电影年度榜单  (2017)
3月最受关注电影(提名)

DISC INFO:

Disc Title:     Kingsglaive.Final.Fantasy.XV.2016.MULTi.COMPLETE.UHD-SharpHD
Disc Size:      49,865,909,795 bytes
Protection:     AACS2
Extras:         Ultra HD, BD-Java
BDInfo:         0.7.5.9 (compatible layout created by DVDFab 12.0.2.2)

PLAYLIST REPORT:

Name:                   00001.MPLS  
Length:                 1:55:21.914 (h:m:s.ms)
Size:                   49,402,693,632 bytes
Total Bitrate:          57.10 Mbps

VIDEO:

Codec                   Bitrate             Description     
-----                   -------             -----------     
MPEG-H HEVC Video       38840 kbps          2160p / 23.976 fps / 16:9 / Main 10 @ Level 5.1 @ High / 4:2:0 / 10 bits / 4000nits / HDR10 / BT.2020

AUDIO:

Codec                           Language        Bitrate         Description     
-----                           --------        -------         -----------     
DTS-HD Master Audio             English         2319 kbps       5.1 / 48 kHz / 2319 kbps / 16-bit (DTS Core: 5.1 / 48 kHz / 1509 kbps / 16-bit)
DTS-HD Master Audio             French          2254 kbps       5.1 / 48 kHz / 2254 kbps / 16-bit (DTS Core: 5.1 / 48 kHz / 1509 kbps / 16-bit)
DTS-HD Master Audio             German          2351 kbps       5.1 / 48 kHz / 2351 kbps / 16-bit (DTS Core: 5.1 / 48 kHz / 1509 kbps / 16-bit)
Dolby Digital Audio             Hungarian       640 kbps        5.1 / 48 kHz / 640 kbps
Dolby Digital Audio             Italian         640 kbps        5.1 / 48 kHz / 640 kbps
DTS-HD Master Audio             Japanese        2311 kbps       5.1 / 48 kHz / 2311 kbps / 16-bit (DTS Core: 5.1 / 48 kHz / 1509 kbps / 16-bit)
Dolby Digital Audio             Polish          640 kbps        5.1 / 48 kHz / 640 kbps
Dolby Digital Audio             Portuguese      640 kbps        5.1 / 48 kHz / 640 kbps
Dolby Digital Audio             Spanish         640 kbps        5.1 / 48 kHz / 640 kbps
Dolby Digital Audio             Spanish         640 kbps        5.1 / 48 kHz / 640 kbps
Dolby Digital Audio             Thai            640 kbps        5.1 / 48 kHz / 640 kbps

SUBTITLES:

Codec                           Language        Bitrate         Description     
-----                           --------        -------         -----------     
Presentation Graphics           English         27.564 kbps                     
Presentation Graphics           English         24.821 kbps                     
Presentation Graphics           English         27.58 kbps                     
Presentation Graphics           English         24.835 kbps                     
Presentation Graphics           Arabic          13.651 kbps                     
Presentation Graphics           Chinese         22.427 kbps                     
Presentation Graphics           Chinese         24.186 kbps                     
Presentation Graphics           Chinese         22.705 kbps                     
Presentation Graphics           Czech           23.374 kbps                     
Presentation Graphics           Danish          21.779 kbps                     
Presentation Graphics           Dutch           24.773 kbps                     
Presentation Graphics           Estonian        25.465 kbps                     
Presentation Graphics           Finnish         25.869 kbps                     
Presentation Graphics           French          20.668 kbps                     
Presentation Graphics           German          29.756 kbps                     
Presentation Graphics           Greek           26.043 kbps                     
Presentation Graphics           Hungarian       24.177 kbps                     
Presentation Graphics           Italian         26.14 kbps                     
Presentation Graphics           Korean          19.723 kbps                     
Presentation Graphics           Latvian         23 kbps                        
Presentation Graphics           Lithuanian      22.152 kbps                     
Presentation Graphics           Norwegian       23.996 kbps                     
Presentation Graphics           Polish          25.509 kbps                     
Presentation Graphics           Portuguese      25.686 kbps                     
Presentation Graphics           Romanian        23.856 kbps                     
Presentation Graphics           Russian         25.529 kbps                     
Presentation Graphics           Spanish         24.982 kbps                     
Presentation Graphics           Spanish         25.085 kbps                     
Presentation Graphics           Swedish         25.23 kbps                     
Presentation Graphics           Thai            23.276 kbps                     
Presentation Graphics           Turkish         23.636 kbps                     
Presentation Graphics           Japanese        0.127 kbps

Video
ID : 1
ID in the original source medium : 4113 (0x1011)
Format : HEVC
Format/Info : High Efficiency Video Coding
Format profile : Main [email protected]@High
HDR format : SMPTE ST 2086, HDR10 compatible
Codec ID : V_MPEGH/ISO/HEVC
Duration : 1 h 55 min
Bit rate : 38.8 Mb/s
Width : 3 840 pixels
Height : 2 160 pixels
Display aspect ratio : 16:9
Frame rate mode : Constant
Frame rate : 23.976 (24000/1001) FPS
Color space : YUV
Chroma subsampling : 4:2:0 (Type 2)
Bit depth : 10 bits
Bits/(Pixel*Frame) : 0.195
Stream size : 31.3 GiB (73%)
Language : English
Default : No
Forced : No
Color range : Limited
Color primaries : BT.2020
Transfer characteristics : PQ
Matrix coefficients : BT.2020 non-constant
Mastering display color primaries : Display P3
Mastering display luminance : min: 0.0050 cd/m2, max: 4000 cd/m2
Maximum Content Light Level : 2387 cd/m2
Maximum Frame-Average Light Level : 345 cd/m2
Original source medium : Blu-ray

Audio #1
ID : 2
ID in the original source medium : 4352 (0x1100)
Format : DTS XLL
Format/Info : Digital Theater Systems
Commercial name : DTS-HD Master Audio
Codec ID : A_DTS
Duration : 1 h 55 min
Bit rate mode : Variable
Bit rate : 2 319 kb/s
Channel(s) : 6 channels
Channel layout : C L R Ls Rs LFE
Sampling rate : 48.0 kHz
Frame rate : 93.750 FPS (512 SPF)
Bit depth : 16 bits
Compression mode : Lossless
Stream size : 1.87 GiB (4%)
Title : DTS-HD MA 5.1
Language : English
Default : Yes
Forced : No
Original source medium : Blu-ray

Audio #2
ID : 3
Format : AC-3
Format/Info : Audio Coding 3
Commercial name : Dolby Digital
Codec ID : A_AC3
Duration : 1 h 55 min
Bit rate mode : Constant
Bit rate : 640 kb/s
Channel(s) : 6 channels
Channel layout : L R C LFE Ls Rs
Sampling rate : 48.0 kHz
Frame rate : 31.250 FPS (1536 SPF)
Compression mode : Lossy
Stream size : 528 MiB (1%)
Title : DD 5.1
Language : English
Service kind : Complete Main
Default : No
Forced : No

Audio #3
ID : 4
ID in the original source medium : 4353 (0x1101)
Format : DTS XLL
Format/Info : Digital Theater Systems
Commercial name : DTS-HD Master Audio
Codec ID : A_DTS
Duration : 1 h 55 min
Bit rate mode : Variable
Bit rate : 2 254 kb/s
Channel(s) : 6 channels
Channel layout : C L R Ls Rs LFE
Sampling rate : 48.0 kHz
Frame rate : 93.750 FPS (512 SPF)
Bit depth : 16 bits
Compression mode : Lossless
Stream size : 1.82 GiB (4%)
Title : DTS-HD MA 5.1
Language : French
Default : No
Forced : No
Original source medium : Blu-ray

Audio #4
ID : 5
ID in the original source medium : 4354 (0x1102)
Format : DTS XLL
Format/Info : Digital Theater Systems
Commercial name : DTS-HD Master Audio
Codec ID : A_DTS
Duration : 1 h 55 min
Bit rate mode : Variable
Bit rate : 2 351 kb/s
Channel(s) : 6 channels
Channel layout : C L R Ls Rs LFE
Sampling rate : 48.0 kHz
Frame rate : 93.750 FPS (512 SPF)
Bit depth : 16 bits
Compression mode : Lossless
Stream size : 1.89 GiB (4%)
Title : DTS-HD MA 5.1
Language : German
Default : No
Forced : No
Original source medium : Blu-ray

Audio #5
ID : 6
ID in the original source medium : 4355 (0x1103)
Format : AC-3
Format/Info : Audio Coding 3
Commercial name : Dolby Digital
Codec ID : A_AC3
Duration : 1 h 55 min
Bit rate mode : Constant
Bit rate : 640 kb/s
Channel(s) : 6 channels
Channel layout : L R C LFE Ls Rs
Sampling rate : 48.0 kHz
Frame rate : 31.250 FPS (1536 SPF)
Compression mode : Lossy
Stream size : 528 MiB (1%)
Title : DD 5.1
Language : Hungarian
Service kind : Complete Main
Default : No
Forced : No
Original source medium : Blu-ray

Audio #6
ID : 7
ID in the original source medium : 4356 (0x1104)
Format : AC-3
Format/Info : Audio Coding 3
Commercial name : Dolby Digital
Codec ID : A_AC3
Duration : 1 h 55 min
Bit rate mode : Constant
Bit rate : 640 kb/s
Channel(s) : 6 channels
Channel layout : L R C LFE Ls Rs
Sampling rate : 48.0 kHz
Frame rate : 31.250 FPS (1536 SPF)
Compression mode : Lossy
Stream size : 528 MiB (1%)
Title : DD 5.1
Language : Italian
Service kind : Complete Main
Default : No
Forced : No
Original source medium : Blu-ray

Audio #7
ID : 8
ID in the original source medium : 4357 (0x1105)
Format : DTS XLL
Format/Info : Digital Theater Systems
Commercial name : DTS-HD Master Audio
Codec ID : A_DTS
Duration : 1 h 55 min
Bit rate mode : Variable
Bit rate : 2 311 kb/s
Channel(s) : 6 channels
Channel layout : C L R Ls Rs LFE
Sampling rate : 48.0 kHz
Frame rate : 93.750 FPS (512 SPF)
Bit depth : 16 bits
Compression mode : Lossless
Stream size : 1.86 GiB (4%)
Title : DTS-HD MA 5.1
Language : Japanese
Default : No
Forced : No
Original source medium : Blu-ray

Audio #8
ID : 9
ID in the original source medium : 4358 (0x1106)
Format : AC-3
Format/Info : Audio Coding 3
Commercial name : Dolby Digital
Codec ID : A_AC3
Duration : 1 h 55 min
Bit rate mode : Constant
Bit rate : 640 kb/s
Channel(s) : 6 channels
Channel layout : L R C LFE Ls Rs
Sampling rate : 48.0 kHz
Frame rate : 31.250 FPS (1536 SPF)
Compression mode : Lossy
Stream size : 528 MiB (1%)
Title : DD 5.1
Language : Polish
Service kind : Complete Main
Default : No
Forced : No
Original source medium : Blu-ray

Audio #9
ID : 10
ID in the original source medium : 4359 (0x1107)
Format : AC-3
Format/Info : Audio Coding 3
Commercial name : Dolby Digital
Codec ID : A_AC3
Duration : 1 h 55 min
Bit rate mode : Constant
Bit rate : 640 kb/s
Channel(s) : 6 channels
Channel layout : L R C LFE Ls Rs
Sampling rate : 48.0 kHz
Frame rate : 31.250 FPS (1536 SPF)
Compression mode : Lossy
Stream size : 528 MiB (1%)
Title : DD 5.1
Language : Portuguese
Service kind : Complete Main
Default : No
Forced : No
Original source medium : Blu-ray

Audio #10
ID : 11
ID in the original source medium : 4360 (0x1108)
Format : AC-3
Format/Info : Audio Coding 3
Commercial name : Dolby Digital
Codec ID : A_AC3
Duration : 1 h 55 min
Bit rate mode : Constant
Bit rate : 640 kb/s
Channel(s) : 6 channels
Channel layout : L R C LFE Ls Rs
Sampling rate : 48.0 kHz
Frame rate : 31.250 FPS (1536 SPF)
Compression mode : Lossy
Stream size : 528 MiB (1%)
Title : DD 5.1
Language : Spanish
Service kind : Complete Main
Default : No
Forced : No
Original source medium : Blu-ray

Audio #11
ID : 12
ID in the original source medium : 4361 (0x1109)
Format : AC-3
Format/Info : Audio Coding 3
Commercial name : Dolby Digital
Codec ID : A_AC3
Duration : 1 h 55 min
Bit rate mode : Constant
Bit rate : 640 kb/s
Channel(s) : 6 channels
Channel layout : L R C LFE Ls Rs
Sampling rate : 48.0 kHz
Frame rate : 31.250 FPS (1536 SPF)
Compression mode : Lossy
Stream size : 528 MiB (1%)
Title : DD 5.1
Language : Spanish
Service kind : Complete Main
Default : No
Forced : No
Original source medium : Blu-ray

Audio #12
ID : 13
ID in the original source medium : 4362 (0x110A)
Format : AC-3
Format/Info : Audio Coding 3
Commercial name : Dolby Digital
Codec ID : A_AC3
Duration : 1 h 55 min
Bit rate mode : Constant
Bit rate : 640 kb/s
Channel(s) : 6 channels
Channel layout : L R C LFE Ls Rs
Sampling rate : 48.0 kHz
Frame rate : 31.250 FPS (1536 SPF)
Compression mode : Lossy
Stream size : 528 MiB (1%)
Title : DD 5.1
Language : Thai
Service kind : Complete Main
Default : No
Forced : No
Original source medium : Blu-ray

Text #1
ID : 14
Format : UTF-8
Codec ID : S_TEXT/UTF8
Codec ID/Info : UTF-8 Plain Text
Duration : 1 h 55 min
Bit rate : 42 b/s
Count of elements : 1075
Stream size : 35.5 KiB (0%)
Title : English-SRT
Language : English
Default : Yes
Forced : No

Text #2
ID : 15
ID in the original source medium : 4768 (0x12A0)
Format : PGS
Muxing mode : zlib
Codec ID : S_HDMV/PGS
Codec ID/Info : Picture based subtitle format used on BDs/HD-DVDs
Duration : 1 h 55 min
Bit rate : 27.6 kb/s
Count of elements : 2493
Stream size : 22.7 MiB (0%)
Title : English-SDH-PGS
Language : English
Default : No
Forced : No
Original source medium : Blu-ray

Text #3
ID : 16
ID in the original source medium : 4769 (0x12A1)
Format : PGS
Muxing mode : zlib
Codec ID : S_HDMV/PGS
Codec ID/Info : Picture based subtitle format used on BDs/HD-DVDs
Duration : 1 h 55 min
Bit rate : 24.9 kb/s
Count of elements : 2154
Stream size : 20.5 MiB (0%)
Title : English-PGS
Language : English
Default : No
Forced : No
Original source medium : Blu-ray

Text #4
ID : 17
ID in the original source medium : 4770 (0x12A2)
Format : PGS
Muxing mode : zlib
Codec ID : S_HDMV/PGS
Codec ID/Info : Picture based subtitle format used on BDs/HD-DVDs
Duration : 1 h 55 min
Bit rate : 27.6 kb/s
Count of elements : 2491
Stream size : 22.8 MiB (0%)
Title : English-SDH-PGS
Language : English
Default : No
Forced : No
Original source medium : Blu-ray

Text #5
ID : 18
ID in the original source medium : 4771 (0x12A3)
Format : PGS
Muxing mode : zlib
Codec ID : S_HDMV/PGS
Codec ID/Info : Picture based subtitle format used on BDs/HD-DVDs
Duration : 1 h 55 min
Bit rate : 24.9 kb/s
Count of elements : 2154
Stream size : 20.5 MiB (0%)
Title : English-PGS
Language : English
Default : No
Forced : No
Original source medium : Blu-ray

Text #6
ID : 19
ID in the original source medium : 4772 (0x12A4)
Format : PGS
Muxing mode : zlib
Codec ID : S_HDMV/PGS
Codec ID/Info : Picture based subtitle format used on BDs/HD-DVDs
Duration : 1 h 55 min
Bit rate : 13.7 kb/s
Count of elements : 2166
Stream size : 11.3 MiB (0%)
Title : Arabic-PGS
Language : Arabic
Default : No
Forced : No
Original source medium : Blu-ray

Text #7
ID : 20
ID in the original source medium : 4773 (0x12A5)
Format : PGS
Muxing mode : zlib
Codec ID : S_HDMV/PGS
Codec ID/Info : Picture based subtitle format used on BDs/HD-DVDs
Duration : 1 h 55 min
Bit rate : 22.5 kb/s
Count of elements : 2168
Stream size : 18.5 MiB (0%)
Title : Chinese-PGS
Language : Chinese
Default : No
Forced : No
Original source medium : Blu-ray

Text #8
ID : 21
ID in the original source medium : 4774 (0x12A6)
Format : PGS
Muxing mode : zlib
Codec ID : S_HDMV/PGS
Codec ID/Info : Picture based subtitle format used on BDs/HD-DVDs
Duration : 1 h 55 min
Bit rate : 24.2 kb/s
Count of elements : 2168
Stream size : 20.0 MiB (0%)
Title : Chinese-PGS
Language : Chinese
Default : No
Forced : No
Original source medium : Blu-ray

Text #9
ID : 22
ID in the original source medium : 4775 (0x12A7)
Format : PGS
Muxing mode : zlib
Codec ID : S_HDMV/PGS
Codec ID/Info : Picture based subtitle format used on BDs/HD-DVDs
Duration : 1 h 55 min
Bit rate : 22.7 kb/s
Count of elements : 2168
Stream size : 18.7 MiB (0%)
Title : Chinese-PGS
Language : Chinese
Default : No
Forced : No
Original source medium : Blu-ray

Text #10
ID : 23
ID in the original source medium : 4776 (0x12A8)
Format : PGS
Muxing mode : zlib
Codec ID : S_HDMV/PGS
Codec ID/Info : Picture based subtitle format used on BDs/HD-DVDs
Duration : 1 h 55 min
Bit rate : 23.4 kb/s
Count of elements : 2168
Stream size : 19.3 MiB (0%)
Title : Czech-PGS
Language : Czech
Default : No
Forced : No
Original source medium : Blu-ray

Text #11
ID : 24
ID in the original source medium : 4777 (0x12A9)
Format : PGS
Muxing mode : zlib
Codec ID : S_HDMV/PGS
Codec ID/Info : Picture based subtitle format used on BDs/HD-DVDs
Duration : 1 h 55 min
Bit rate : 21.8 kb/s
Count of elements : 2162
Stream size : 18.0 MiB (0%)
Title : Danish-PGS
Language : Danish
Default : No
Forced : No
Original source medium : Blu-ray

Text #12
ID : 25
ID in the original source medium : 4778 (0x12AA)
Format : PGS
Muxing mode : zlib
Codec ID : S_HDMV/PGS
Codec ID/Info : Picture based subtitle format used on BDs/HD-DVDs
Duration : 1 h 55 min
Bit rate : 24.8 kb/s
Count of elements : 2058
Stream size : 20.4 MiB (0%)
Title : Dutch-PGS
Language : Dutch
Default : No
Forced : No
Original source medium : Blu-ray

Text #13
ID : 26
ID in the original source medium : 4779 (0x12AB)
Format : PGS
Muxing mode : zlib
Codec ID : S_HDMV/PGS
Codec ID/Info : Picture based subtitle format used on BDs/HD-DVDs
Duration : 1 h 55 min
Bit rate : 25.5 kb/s
Count of elements : 2172
Stream size : 21.0 MiB (0%)
Title : Estonian-PGS
Language : Estonian
Default : No
Forced : No
Original source medium : Blu-ray

Text #14
ID : 27
ID in the original source medium : 4780 (0x12AC)
Format : PGS
Muxing mode : zlib
Codec ID : S_HDMV/PGS
Codec ID/Info : Picture based subtitle format used on BDs/HD-DVDs
Duration : 1 h 55 min
Bit rate : 25.9 kb/s
Count of elements : 2090
Stream size : 21.3 MiB (0%)
Title : Finnish-PGS
Language : Finnish
Default : No
Forced : No
Original source medium : Blu-ray

Text #15
ID : 28
ID in the original source medium : 4781 (0x12AD)
Format : PGS
Muxing mode : zlib
Codec ID : S_HDMV/PGS
Codec ID/Info : Picture based subtitle format used on BDs/HD-DVDs
Duration : 1 h 55 min
Bit rate : 20.7 kb/s
Count of elements : 2170
Stream size : 17.1 MiB (0%)
Title : French-PGS
Language : French
Default : No
Forced : No
Original source medium : Blu-ray

Text #16
ID : 29
ID in the original source medium : 4781 (0x12AD)
Format : PGS
Muxing mode : zlib
Codec ID : S_HDMV/PGS
Codec ID/Info : Picture based subtitle format used on BDs/HD-DVDs
Duration : 42 min 55 s
Bit rate : 532 b/s
Count of elements : 18
Stream size : 167 KiB (0%)
Title : French-FORCED-PGS
Language : French
Default : No
Forced : No
Original source medium : Blu-ray

Text #17
ID : 30
ID in the original source medium : 4782 (0x12AE)
Format : PGS
Muxing mode : zlib
Codec ID : S_HDMV/PGS
Codec ID/Info : Picture based subtitle format used on BDs/HD-DVDs
Duration : 1 h 55 min
Bit rate : 29.8 kb/s
Count of elements : 2242
Stream size : 24.6 MiB (0%)
Title : German-PGS
Language : German
Default : No
Forced : No
Original source medium : Blu-ray

Text #18
ID : 31
ID in the original source medium : 4782 (0x12AE)
Format : PGS
Muxing mode : zlib
Codec ID : S_HDMV/PGS
Codec ID/Info : Picture based subtitle format used on BDs/HD-DVDs
Duration : 42 min 55 s
Bit rate : 612 b/s
Count of elements : 16
Stream size : 193 KiB (0%)
Title : German-FORCED-PGS
Language : German
Default : No
Forced : No
Original source medium : Blu-ray

Text #19
ID : 32
ID in the original source medium : 4783 (0x12AF)
Format : PGS
Muxing mode : zlib
Codec ID : S_HDMV/PGS
Codec ID/Info : Picture based subtitle format used on BDs/HD-DVDs
Duration : 1 h 55 min
Bit rate : 26.1 kb/s
Count of elements : 2168
Stream size : 21.5 MiB (0%)
Title : Greek-PGS
Language : Greek
Default : No
Forced : No
Original source medium : Blu-ray

Text #20
ID : 33
ID in the original source medium : 4784 (0x12B0)
Format : PGS
Muxing mode : zlib
Codec ID : S_HDMV/PGS
Codec ID/Info : Picture based subtitle format used on BDs/HD-DVDs
Duration : 1 h 55 min
Bit rate : 24.2 kb/s
Count of elements : 2168
Stream size : 19.9 MiB (0%)
Title : Hungarian-PGS
Language : Hungarian
Default : No
Forced : No
Original source medium : Blu-ray

Text #21
ID : 34
ID in the original source medium : 4784 (0x12B0)
Format : PGS
Muxing mode : zlib
Codec ID : S_HDMV/PGS
Codec ID/Info : Picture based subtitle format used on BDs/HD-DVDs
Duration : 42 min 55 s
Bit rate : 548 b/s
Count of elements : 16
Stream size : 172 KiB (0%)
Title : Hungarian-FORCED-PGS
Language : Hungarian
Default : No
Forced : No
Original source medium : Blu-ray

Text #22
ID : 35
ID in the original source medium : 4785 (0x12B1)
Format : PGS
Muxing mode : zlib
Codec ID : S_HDMV/PGS
Codec ID/Info : Picture based subtitle format used on BDs/HD-DVDs
Duration : 1 h 55 min
Bit rate : 26.2 kb/s
Count of elements : 2176
Stream size : 21.6 MiB (0%)
Title : Italian-PGS
Language : Italian
Default : No
Forced : No
Original source medium : Blu-ray

Text #23
ID : 36
ID in the original source medium : 4785 (0x12B1)
Format : PGS
Muxing mode : zlib
Codec ID : S_HDMV/PGS
Codec ID/Info : Picture based subtitle format used on BDs/HD-DVDs
Duration : 42 min 55 s
Bit rate : 473 b/s
Count of elements : 16
Stream size : 149 KiB (0%)
Title : Italian-FORCED-PGS
Language : Italian
Default : No
Forced : No
Original source medium : Blu-ray

Text #24
ID : 37
ID in the original source medium : 4786 (0x12B2)
Format : PGS
Muxing mode : zlib
Codec ID : S_HDMV/PGS
Codec ID/Info : Picture based subtitle format used on BDs/HD-DVDs
Duration : 1 h 55 min
Bit rate : 19.8 kb/s
Count of elements : 2170
Stream size : 16.3 MiB (0%)
Title : Korean-PGS
Language : Korean
Default : No
Forced : No
Original source medium : Blu-ray

Text #25
ID : 38
ID in the original source medium : 4787 (0x12B3)
Format : PGS
Muxing mode : zlib
Codec ID : S_HDMV/PGS
Codec ID/Info : Picture based subtitle format used on BDs/HD-DVDs
Duration : 1 h 55 min
Bit rate : 23.0 kb/s
Count of elements : 2168
Stream size : 19.0 MiB (0%)
Title : Latvian-PGS
Language : Latvian
Default : No
Forced : No
Original source medium : Blu-ray

Text #26
ID : 39
ID in the original source medium : 4788 (0x12B4)
Format : PGS
Muxing mode : zlib
Codec ID : S_HDMV/PGS
Codec ID/Info : Picture based subtitle format used on BDs/HD-DVDs
Duration : 1 h 55 min
Bit rate : 22.2 kb/s
Count of elements : 2162
Stream size : 18.3 MiB (0%)
Title : Lithuanian-PGS
Language : Lithuanian
Default : No
Forced : No
Original source medium : Blu-ray

Text #27
ID : 40
ID in the original source medium : 4789 (0x12B5)
Format : PGS
Muxing mode : zlib
Codec ID : S_HDMV/PGS
Codec ID/Info : Picture based subtitle format used on BDs/HD-DVDs
Duration : 1 h 55 min
Bit rate : 24.0 kb/s
Count of elements : 2080
Stream size : 19.8 MiB (0%)
Title : Norwegian-PGS
Language : Norwegian
Default : No
Forced : No
Original source medium : Blu-ray

Text #28
ID : 41
ID in the original source medium : 4790 (0x12B6)
Format : PGS
Muxing mode : zlib
Codec ID : S_HDMV/PGS
Codec ID/Info : Picture based subtitle format used on BDs/HD-DVDs
Duration : 1 h 55 min
Bit rate : 25.5 kb/s
Count of elements : 2168
Stream size : 21.0 MiB (0%)
Title : Polish-PGS
Language : Polish
Default : No
Forced : No
Original source medium : Blu-ray

Text #29
ID : 42
ID in the original source medium : 4790 (0x12B6)
Format : PGS
Muxing mode : zlib
Codec ID : S_HDMV/PGS
Codec ID/Info : Picture based subtitle format used on BDs/HD-DVDs
Duration : 1 s 63 ms
Bit rate : 102 kb/s
Count of elements : 2
Stream size : 13.3 KiB (0%)
Title : Polish-FORCED-PGS
Language : Polish
Default : No
Forced : No
Original source medium : Blu-ray

Text #30
ID : 43
ID in the original source medium : 4791 (0x12B7)
Format : PGS
Muxing mode : zlib
Codec ID : S_HDMV/PGS
Codec ID/Info : Picture based subtitle format used on BDs/HD-DVDs
Duration : 1 h 55 min
Bit rate : 25.7 kb/s
Count of elements : 2166
Stream size : 21.2 MiB (0%)
Title : Portuguese-PGS
Language : Portuguese
Default : No
Forced : No
Original source medium : Blu-ray

Text #31
ID : 44
ID in the original source medium : 4791 (0x12B7)
Format : PGS
Muxing mode : zlib
Codec ID : S_HDMV/PGS
Codec ID/Info : Picture based subtitle format used on BDs/HD-DVDs
Duration : 1 s 63 ms
Bit rate : 65.3 kb/s
Count of elements : 2
Stream size : 8.48 KiB (0%)
Title : Portuguese-FORCED-PGS
Language : Portuguese
Default : No
Forced : No
Original source medium : Blu-ray

Text #32
ID : 45
ID in the original source medium : 4792 (0x12B8)
Format : PGS
Muxing mode : zlib
Codec ID : S_HDMV/PGS
Codec ID/Info : Picture based subtitle format used on BDs/HD-DVDs
Duration : 1 h 55 min
Bit rate : 23.9 kb/s
Count of elements : 2144
Stream size : 19.7 MiB (0%)
Title : Romanian-PGS
Language : Romanian
Default : No
Forced : No
Original source medium : Blu-ray

Text #33
ID : 46
ID in the original source medium : 4793 (0x12B9)
Format : PGS
Muxing mode : zlib
Codec ID : S_HDMV/PGS
Codec ID/Info : Picture based subtitle format used on BDs/HD-DVDs
Duration : 1 h 55 min
Bit rate : 25.6 kb/s
Count of elements : 2184
Stream size : 21.1 MiB (0%)
Title : Russian-PGS
Language : Russian
Default : No
Forced : No
Original source medium : Blu-ray

Text #34
ID : 47
ID in the original source medium : 4794 (0x12BA)
Format : PGS
Muxing mode : zlib
Codec ID : S_HDMV/PGS
Codec ID/Info : Picture based subtitle format used on BDs/HD-DVDs
Duration : 1 h 55 min
Bit rate : 25.0 kb/s
Count of elements : 2178
Stream size : 20.6 MiB (0%)
Title : Spanish-PGS
Language : Spanish
Default : No
Forced : No
Original source medium : Blu-ray

Text #35
ID : 48
ID in the original source medium : 4794 (0x12BA)
Format : PGS
Muxing mode : zlib
Codec ID : S_HDMV/PGS
Codec ID/Info : Picture based subtitle format used on BDs/HD-DVDs
Duration : 42 min 55 s
Bit rate : 537 b/s
Count of elements : 18
Stream size : 169 KiB (0%)
Title : Spanish-FORCED-PGS
Language : Spanish
Default : No
Forced : No
Original source medium : Blu-ray

Text #36
ID : 49
ID in the original source medium : 4795 (0x12BB)
Format : PGS
Muxing mode : zlib
Codec ID : S_HDMV/PGS
Codec ID/Info : Picture based subtitle format used on BDs/HD-DVDs
Duration : 1 h 55 min
Bit rate : 25.1 kb/s
Count of elements : 2184
Stream size : 20.7 MiB (0%)
Title : Spanish-PGS
Language : Spanish
Default : No
Forced : No
Original source medium : Blu-ray

Text #37
ID : 50
ID in the original source medium : 4795 (0x12BB)
Format : PGS
Muxing mode : zlib
Codec ID : S_HDMV/PGS
Codec ID/Info : Picture based subtitle format used on BDs/HD-DVDs
Duration : 3 s 233 ms
Bit rate : 48.8 kb/s
Count of elements : 2
Stream size : 19.2 KiB (0%)
Title : Spanish-FORCED-PGS
Language : Spanish
Default : No
Forced : No
Original source medium : Blu-ray

Text #38
ID : 51
ID in the original source medium : 4796 (0x12BC)
Format : PGS
Muxing mode : zlib
Codec ID : S_HDMV/PGS
Codec ID/Info : Picture based subtitle format used on BDs/HD-DVDs
Duration : 1 h 55 min
Bit rate : 25.3 kb/s
Count of elements : 2170
Stream size : 20.8 MiB (0%)
Title : Swedish-PGS
Language : Swedish
Default : No
Forced : No
Original source medium : Blu-ray

Text #39
ID : 52
ID in the original source medium : 4797 (0x12BD)
Format : PGS
Muxing mode : zlib
Codec ID : S_HDMV/PGS
Codec ID/Info : Picture based subtitle format used on BDs/HD-DVDs
Duration : 1 h 55 min
Bit rate : 23.3 kb/s
Count of elements : 2168
Stream size : 19.2 MiB (0%)
Title : Thai-PGS
Language : Thai
Default : No
Forced : No
Original source medium : Blu-ray

Text #40
ID : 53
ID in the original source medium : 4798 (0x12BE)
Format : PGS
Muxing mode : zlib
Codec ID : S_HDMV/PGS
Codec ID/Info : Picture based subtitle format used on BDs/HD-DVDs
Duration : 1 h 55 min
Bit rate : 23.7 kb/s
Count of elements : 2172
Stream size : 19.5 MiB (0%)
Title : Turkish-PGS
Language : Turkish
Default : No
Forced : No
Original source medium : Blu-ray

Text #41
ID : 54
ID in the original source medium : 4799 (0x12BF)
Format : PGS
Muxing mode : zlib
Codec ID : S_HDMV/PGS
Codec ID/Info : Picture based subtitle format used on BDs/HD-DVDs
Duration : 40 min 15 s
Bit rate : 364 b/s
Count of elements : 14
Stream size : 107 KiB (0%)
Title : Japanese-FORCED-PGS
Language : Japanese
Default : No
Forced : No
Original source medium : Blu-ray

Menu
00:00:00.000 : en:Chapter 01
00:11:54.714 : en:Chapter 02
00:15:36.644 : en:Chapter 03
00:20:12.294 : en:Chapter 04
00:25:29.903 : en:Chapter 05
00:32:02.795 : en:Chapter 06
00:38:50.119 : en:Chapter 07
00:43:33.152 : en:Chapter 08
00:49:54.032 : en:Chapter 09
00:54:47.158 : en:Chapter 10
01:02:01.509 : en:Chapter 11
01:12:43.567 : en:Chapter 12
01:20:48.301 : en:Chapter 13
01:26:12.876 : en:Chapter 14
01:37:06.445 : en:Chapter 15
01:41:45.140 : en:Chapter 16

本帖子中包含更多资源

您需要 登录 才可以下载或查看,没有帐号?立即注册

x
回复

使用道具 举报

0

主题

771

帖子

3886

积分

论坛元老

Rank: 8Rank: 8

积分
3886
发表于 2021-4-10 11:22:12 | 显示全部楼层










回复

使用道具 举报

0

主题

307

帖子

1436

积分

金牌会员

Rank: 6Rank: 6

积分
1436
发表于 2021-4-10 17:30:12 | 显示全部楼层
谢谢楼主分享 楼主辛苦了
回复

使用道具 举报

0

主题

23

帖子

88

积分

注册会员

Rank: 2

积分
88
发表于 2021-4-10 18:59:27 | 显示全部楼层
感谢楼主分享
回复

使用道具 举报

0

主题

23

帖子

88

积分

注册会员

Rank: 2

积分
88
发表于 2021-4-10 19:21:40 | 显示全部楼层
谢谢楼主分享
回复

使用道具 举报

0

主题

167

帖子

1618

积分

VIP月

Rank: 9Rank: 9Rank: 9

积分
1618
发表于 2021-4-10 21:18:24 | 显示全部楼层
非常珍贵的资源!
回复

使用道具 举报

0

主题

774

帖子

3045

积分

论坛元老

Rank: 8Rank: 8

积分
3045
发表于 2021-4-10 21:36:32 | 显示全部楼层
谢谢楼主分享
回复

使用道具 举报

0

主题

307

帖子

1436

积分

金牌会员

Rank: 6Rank: 6

积分
1436
发表于 2021-4-11 13:47:29 | 显示全部楼层
谢谢楼主分享 楼主辛苦了
回复

使用道具 举报

0

主题

307

帖子

1436

积分

金牌会员

Rank: 6Rank: 6

积分
1436
发表于 2021-4-12 13:10:53 | 显示全部楼层
谢谢楼主分享 楼主辛苦了
回复

使用道具 举报

0

主题

5

帖子

53

积分

注册会员

Rank: 2

积分
53
发表于 2021-4-12 14:33:46 | 显示全部楼层
谢谢楼主分享 楼主辛苦了
回复

使用道具 举报

您需要登录后才可以回帖 登录 | 立即注册

本版积分规则

QQ|Archiver|手机版|小黑屋|原盘天堂 好多盘 点击这里给我发消息

GMT+8, 2021-5-11 16:14 , Processed in 0.061792 second(s), 24 queries .

Powered by Discuz! X3.4

Copyright © 2001-2020, Tencent Cloud.

快速回复 返回顶部 返回列表