请选择 进入手机版 | 继续访问电脑版
本站Q群713428235【盘盘多】已满,请新会员加原盘天堂新官方QQ群709708625【好多盘】,验证信息填写您在论坛的会员名,不填会员名的无法入群哈,进群后修改您的群名片名字为您在论坛的会员名,请务必修改,否则群成员多了不知道您是哪个会员。

原盘天堂

 找回密码
 立即注册
京东商城当当华为商城名牌时尚折扣网,一个新型的网上购物平台,我们每周为您精选3~4个国际知名品牌,商品折扣低至2折限时限量售卖,商品囊括时装、护肤品、箱包、皮具、配饰、香水等等,琳琅满目。亿格瑞A10硬盘播放器 苏宁易购
查看: 154|回复: 24

4k蓝光原盘bdmv 先知游戏 英语原版 the.prophets.game.2000.2160p.bluray.hevc.dts-hd.ma.5.1[48.27 GB]

[复制链接]

5851

主题

6475

帖子

132万

积分

管理员

Rank: 18Rank: 18Rank: 18Rank: 18Rank: 18

积分
1327882
发表于 2021-4-5 22:49:55 | 显示全部楼层 |阅读模式






先知游戏 The Prophet's Game (1999)

导演: David Worth
编剧: Carol Chrest
主演: 丹尼斯·霍珀 / 斯蒂芬尼·齐姆巴丽斯特 / 桑德拉·洛克 / 香侬·惠利
类型: 惊悚
制片国家/地区: 美国
语言: 英语
上映日期: 2000-06-06
片长: 106 分钟 / Japan: 110 分钟
IMDb链接: tt0199974
资源名称: 先知游戏.The.Prophet's.Game.1999.tt0199974
豆瓣评分
暂无评分

DISC INFO:

Disc Title:     The.Prophets.Game.2000.COMPLETE.UHD.BLURAY-UNTOUCHED
Disc Size:      51,827,937,758 bytes
Protection:     AACS2
Extras:         Ultra HD, BD-Java
BDInfo:         0.7.5.9 (compatible layout created by DVDFab 12.0.2.2)

PLAYLIST REPORT:

Name:                   01000.MPLS  
Length:                 1:48:10.609 (h:m:s.ms)
Size:                   49,819,564,032 bytes
Total Bitrate:          61.41 Mbps

VIDEO:

Codec                   Bitrate             Description     
-----                   -------             -----------     
MPEG-H HEVC Video       54391 kbps          2160p / 23.976 fps / 16:9 / Main 10 @ Level 5.1 @ High / 4:2:0 / 10 bits / SDR / BT.709

AUDIO:

Codec                           Language        Bitrate         Description     
-----                           --------        -------         -----------     
DTS-HD Master Audio             German          1939 kbps       5.1 / 48 kHz / 1939 kbps / 16-bit (DTS Core: 5.1 / 48 kHz / 1152 kbps / 16-bit)
DTS-HD Master Audio             English         1968 kbps       5.1 / 48 kHz / 1968 kbps / 16-bit (DTS Core: 5.1 / 48 kHz / 1152 kbps / 16-bit)

SUBTITLES:

Codec                           Language        Bitrate         Description     
-----                           --------        -------         -----------     
Presentation Graphics           German          32.361 kbps                     
Presentation Graphics           German          35.764 kbps                     
Presentation Graphics           English         26.955 kbps                     
Presentation Graphics           English         30.515 kbps                     
Presentation Graphics           German          0.17 kbps      

Video
ID : 1
ID in the original source medium : 4113 (0x1011)
Format : HEVC
Format/Info : High Efficiency Video Coding
Format profile : Main [email protected]@High
Codec ID : V_MPEGH/ISO/HEVC
Duration : 1 h 48 min
Bit rate : 54.4 Mb/s
Width : 3 840 pixels
Height : 2 160 pixels
Display aspect ratio : 16:9
Frame rate mode : Constant
Frame rate : 23.976 (24000/1001) FPS
Color space : YUV
Chroma subsampling : 4:2:0
Bit depth : 10 bits
Bits/(Pixel*Frame) : 0.274
Stream size : 41.1 GiB (92%)
Writing library : x265 2.7+20-3440a56acc78:[Windows][GCC 6.3.0][64 bit] 10bit
Encoding settings : cpuid=1173503 / frame-threads=6 / numa-pools=32 / wpp / no-pmode / no-pme / no-psnr / no-ssim / log-level=2 / input-csp=1 / input-res=3840x2160 / interlace=0 / total-frames=0 / level-idc=51 / high-tier=1 / uhd-bd=1 / ref=3 / no-allow-non-conformance / repeat-headers / annexb / aud / hrd / info / hash=0 / no-temporal-layers / no-open-gop / min-keyint=1 / keyint=23 / gop-lookahead=0 / bframes=4 / b-adapt=2 / no-b-pyramid / bframe-bias=0 / rc-lookahead=20 / lookahead-slices=8 / scenecut=40 / radl=0 / no-intra-refresh / ctu=64 / min-cu-size=8 / no-rect / no-amp / max-tu-size=32 / tu-inter-depth=1 / tu-intra-depth=1 / limit-tu=0 / rdoq-level=0 / dynamic-rd=0.00 / no-ssim-rd / signhide / no-tskip / nr-intra=0 / nr-inter=0 / no-constrained-intra / strong-intra-smoothing / max-merge=2 / limit-refs=3 / no-limit-modes / me=1 / subme=2 / merange=57 / temporal-mvp / weightp / no-weightb / no-analyze-src-pics / deblock=0:0 / sao / no-sao-non-deblock / rd=1 / no-early-skip / rskip / no-fast-intra / no-tskip-fast / no-cu-lossless / no-b-intra / no-splitrd-skip / rdpenalty=0 / psy-rd=0.00 / psy-rdoq=0.00 / no-rd-refine / no-lossless / cbqpoffs=0 / crqpoffs=0 / rc=abr / bitrate=55000 / qcomp=0.60 / qpstep=4 / stats-write=0 / stats-read=0 / vbv-maxrate=75000 / vbv-bufsize=55000 / vbv-init=0.9 / ipratio=1.40 / pbratio=1.30 / aq-mode=1 / aq-strength=1.00 / cutree / zone-count=0 / no-strict-cbr / qg-size=32 / no-rc-grain / qpmax=69 / qpmin=0 / no-const-vbv / sar=1 / overscan=0 / videoformat=5 / range=0 / colorprim=1 / transfer=1 / colormatrix=1 / chromaloc=0 / display-window=0 / max-cll=0,0 / min-luma=0 / max-luma=1023 / log2-max-poc-lsb=8 / vui-timing-info / vui-hrd-info / slices=1 / no-opt-qp-pps / no-opt-ref-list-length-pps / no-multi-pass-opt-rps / scenecut-bias=0.05 / no-opt-cu-delta-qp / no-aq-motion / no-hdr / no-hdr-opt / no-dhdr10-opt / no-idr-recovery-sei / analysis-reuse-level=5 / scale-factor=0 / refine-intra=0 / refine-inter=0 / refine-mv=0 / no-limit-sao / ctu-info=0 / no-lowpass-dct / refine-mv-type=0 / copy-pic=1 / max-ausize-factor=1.0 / no-dynamic-refine
Language : English
Default : No
Forced : No
Color range : Limited
Color primaries : BT.709
Transfer characteristics : BT.709
Matrix coefficients : BT.709
Original source medium : Blu-ray

Audio #1
ID : 2
ID in the original source medium : 4353 (0x1101)
Format : DTS XLL
Format/Info : Digital Theater Systems
Commercial name : DTS-HD Master Audio
Codec ID : A_DTS
Duration : 1 h 48 min
Bit rate mode : Variable
Bit rate : 1 968 kb/s
Channel(s) : 6 channels
Channel layout : C L R Ls Rs LFE
Sampling rate : 48.0 kHz
Frame rate : 93.750 FPS (512 SPF)
Bit depth : 16 bits
Compression mode : Lossless
Stream size : 1.49 GiB (3%)
Title : DTS-HD MA 5.1
Language : English
Default : Yes
Forced : No
Original source medium : Blu-ray

Audio #2
ID : 3
Format : AC-3
Format/Info : Audio Coding 3
Commercial name : Dolby Digital
Codec ID : A_AC3
Duration : 1 h 48 min
Bit rate mode : Constant
Bit rate : 640 kb/s
Channel(s) : 6 channels
Channel layout : L R C LFE Ls Rs
Sampling rate : 48.0 kHz
Frame rate : 31.250 FPS (1536 SPF)
Compression mode : Lossy
Stream size : 495 MiB (1%)
Title : DD 5.1
Language : English
Service kind : Complete Main
Default : No
Forced : No

Audio #3
ID : 4
ID in the original source medium : 4352 (0x1100)
Format : DTS XLL
Format/Info : Digital Theater Systems
Commercial name : DTS-HD Master Audio
Codec ID : A_DTS
Duration : 1 h 48 min
Bit rate mode : Variable
Bit rate : 1 939 kb/s
Channel(s) : 6 channels
Channel layout : C L R Ls Rs LFE
Sampling rate : 48.0 kHz
Frame rate : 93.750 FPS (512 SPF)
Bit depth : 16 bits
Compression mode : Lossless
Stream size : 1.47 GiB (3%)
Title : DTS-HD MA 5.1
Language : German
Default : No
Forced : No
Original source medium : Blu-ray

Text #1
ID : 5
Format : UTF-8
Codec ID : S_TEXT/UTF8
Codec ID/Info : UTF-8 Plain Text
Duration : 1 h 43 min
Bit rate : 63 b/s
Count of elements : 1884
Stream size : 47.9 KiB (0%)
Title : English-SRT
Language : English
Default : Yes
Forced : No

Text #2
ID : 6
ID in the original source medium : 4610 (0x1202)
Format : PGS
Muxing mode : zlib
Codec ID : S_HDMV/PGS
Codec ID/Info : Picture based subtitle format used on BDs/HD-DVDs
Duration : 1 h 43 min
Bit rate : 28.1 kb/s
Count of elements : 2352
Stream size : 20.9 MiB (0%)
Title : English-PGS
Language : English
Default : No
Forced : No
Original source medium : Blu-ray

Text #3
ID : 7
ID in the original source medium : 4611 (0x1203)
Format : PGS
Muxing mode : zlib
Codec ID : S_HDMV/PGS
Codec ID/Info : Picture based subtitle format used on BDs/HD-DVDs
Duration : 1 h 45 min
Bit rate : 31.4 kb/s
Count of elements : 2662
Stream size : 23.6 MiB (0%)
Title : English-SDH-PGS
Language : English
Default : No
Forced : No
Original source medium : Blu-ray

Text #4
ID : 8
ID in the original source medium : 4608 (0x1200)
Format : PGS
Muxing mode : zlib
Codec ID : S_HDMV/PGS
Codec ID/Info : Picture based subtitle format used on BDs/HD-DVDs
Duration : 1 h 43 min
Bit rate : 33.8 kb/s
Count of elements : 2305
Stream size : 25.0 MiB (0%)
Title : German-PGS
Language : German
Default : No
Forced : No
Original source medium : Blu-ray

Text #5
ID : 9
ID in the original source medium : 4609 (0x1201)
Format : PGS
Muxing mode : zlib
Codec ID : S_HDMV/PGS
Codec ID/Info : Picture based subtitle format used on BDs/HD-DVDs
Duration : 1 h 45 min
Bit rate : 36.8 kb/s
Count of elements : 2613
Stream size : 27.7 MiB (0%)
Title : German-SDH-PGS
Language : German
Default : No
Forced : No
Original source medium : Blu-ray

Text #6
ID : 10
ID in the original source medium : 4612 (0x1204)
Format : PGS
Muxing mode : zlib
Codec ID : S_HDMV/PGS
Codec ID/Info : Picture based subtitle format used on BDs/HD-DVDs
Duration : 1 h 23 min
Bit rate : 219 b/s
Count of elements : 15
Stream size : 134 KiB (0%)
Title : German-FORCED-PGS
Language : German
Default : No
Forced : No
Original source medium : Blu-ray

Menu
00:00:00.000 : en:Chapter 01
00:09:51.090 : en:Chapter 02
00:18:43.914 : en:Chapter 03
00:26:32.841 : en:Chapter 04
00:36:43.868 : en:Chapter 05
00:44:11.690 : en:Chapter 06
00:52:53.003 : en:Chapter 07
01:02:44.260 : en:Chapter 08
01:11:58.522 : en:Chapter 09
01:20:32.953 : en:Chapter 10
01:30:26.129 : en:Chapter 11
01:38:50.758 : en:Chapter 12

本帖子中包含更多资源

您需要 登录 才可以下载或查看,没有帐号?立即注册

x
回复

使用道具 举报

0

主题

523

帖子

2570

积分

金牌会员

Rank: 6Rank: 6

积分
2570
发表于 2021-4-5 23:13:33 | 显示全部楼层
谢谢楼主分享
回复

使用道具 举报

0

主题

697

帖子

3513

积分

论坛元老

Rank: 8Rank: 8

积分
3513
发表于 2021-4-6 09:39:38 | 显示全部楼层
谢谢楼主分享 楼主辛苦了
回复

使用道具 举报

0

主题

3

帖子

188

积分

VIP永久

Rank: 12Rank: 12Rank: 12

积分
188
发表于 2021-4-6 10:38:10 | 显示全部楼层
沒字幕怎麼辦
回复

使用道具 举报

0

主题

637

帖子

3347

积分

论坛元老

Rank: 8Rank: 8

积分
3347
发表于 2021-4-6 11:09:17 | 显示全部楼层

谢楼主分享
回复

使用道具 举报

0

主题

250

帖子

1191

积分

金牌会员

Rank: 6Rank: 6

积分
1191
发表于 2021-4-6 15:01:36 | 显示全部楼层
谢谢楼主分享
回复

使用道具 举报

0

主题

250

帖子

1191

积分

金牌会员

Rank: 6Rank: 6

积分
1191
发表于 2021-4-6 15:18:00 | 显示全部楼层
ganxielouzhufenxiang
回复

使用道具 举报

0

主题

142

帖子

951

积分

VIP月

Rank: 9Rank: 9Rank: 9

积分
951
发表于 2021-4-7 08:36:15 | 显示全部楼层
谢谢楼主分享
回复

使用道具 举报

0

主题

637

帖子

3347

积分

论坛元老

Rank: 8Rank: 8

积分
3347
发表于 2021-4-7 09:44:35 | 显示全部楼层
谢楼主分享
回复

使用道具 举报

0

主题

523

帖子

2570

积分

金牌会员

Rank: 6Rank: 6

积分
2570
发表于 2021-4-7 10:18:30 | 显示全部楼层
谢谢楼主分享 楼主辛苦了
回复

使用道具 举报

您需要登录后才可以回帖 登录 | 立即注册

本版积分规则

QQ|Archiver|手机版|小黑屋|原盘天堂 好多盘 点击这里给我发消息

GMT+8, 2021-4-16 02:17 , Processed in 0.065348 second(s), 24 queries .

Powered by Discuz! X3.4

Copyright © 2001-2020, Tencent Cloud.

快速回复 返回顶部 返回列表