请选择 进入手机版 | 继续访问电脑版
本站Q群713428235【盘盘多】已满,请新会员加原盘天堂新官方QQ群709708625【好多盘】,验证信息填写您在论坛的会员名,不填会员名的无法入群哈,进群后修改您的群名片名字为您在论坛的会员名,请务必修改,否则群成员多了不知道您是哪个会员。

原盘天堂

 找回密码
 立即注册
京东商城当当华为商城名牌时尚折扣网,一个新型的网上购物平台,我们每周为您精选3~4个国际知名品牌,商品折扣低至2折限时限量售卖,商品囊括时装、护肤品、箱包、皮具、配饰、香水等等,琳琅满目。亿格瑞A10硬盘播放器 苏宁易购
查看: 124|回复: 13

2d蓝光原盘bdmv 诡巫 英语原版 the.widow.2020.russian.1080p.bluray.avc.dts-hd.ma.5.1[27.79 GB]

[复制链接]

5851

主题

6475

帖子

132万

积分

管理员

Rank: 18Rank: 18Rank: 18Rank: 18Rank: 18

积分
1327882
发表于 2021-4-4 08:42:57 | 显示全部楼层 |阅读模式






诡巫 Вдова (2020)

导演: Ivan Minin
编剧: Svyatoslav Podgaevskiy / 纳塔莉亚·杜波瓦亚 / Ivan Minin
主演: Victoria Potemina / Oleg Chugunov / Konstantin Nesterenko / Ilya Agapov / Margarita Bychkova / 更多...
类型: 悬疑 / 惊悚 / 恐怖
制片国家/地区: 俄罗斯
语言: 俄语
上映日期: 2020-10-29(俄罗斯)
片长: 86分钟
又名: 寡妇 / The Widow / Vdova
IMDb链接: tt12057234
资源名称: 诡巫.The.Widow.2020.tt12057234

豆瓣评分
4.2
77人评价
5星 4.6%
4星 3.1%
3星 18.5%
2星 47.7%
1星 26.2%

剧情简介 · · · · · ·
  During the exercise, the search and rescue squad receives a message about the child lost in the forest. While conducting a search operation, rescuers encounter an ominous entity: according to tradition, this is the restless spirit of a witch who died here long ago, which locals call Lame Widow. They believe that meeting Widow brings death.

      在演习中,搜救队收到一条关于在森林中失踪的孩子的消息。在进行搜索行动时,救援人员遇到了一个不祥的实体:根据传统,这是一个很久以前就死在这里的女巫的不安的灵魂,当地人称之为“跛足寡妇”。他们相信见到寡妇会带来死亡。

DISC INFO:

Disc Title:     The.Widow.2020.RUSSIAN.1080p.BluRay.AVC.DTS-HD.MA.5.1-FGT
Disc Size:      29,834,222,596 bytes
Protection:     AACS
Extras:         BD-Java
BDInfo:         0.7.5.9 (compatible layout created by DVDFab 12.0.2.2)

PLAYLIST REPORT:

Name:                   01002.MPLS  
Length:                 1:26:16.212 (h:m:s.ms)
Size:                   29,245,040,640 bytes
Total Bitrate:          45.20 Mbps

VIDEO:

Codec                   Bitrate             Description     
-----                   -------             -----------     
MPEG-4 AVC Video        32000 kbps          1080p / 23.976 fps / 16:9 / High Profile 4.1

AUDIO:

Codec                           Language        Bitrate         Description     
-----                           --------        -------         -----------     
DTS-HD Master Audio             English         3340 kbps       5.1 / 48 kHz / 3340 kbps / 24-bit (DTS Core: 5.1 / 48 kHz / 1509 kbps / 24-bit)
DTS-HD Master Audio             English         1764 kbps       2.0 / 48 kHz / 1764 kbps / 24-bit (DTS Core: 2.0 / 48 kHz / 1509 kbps / 24-bit)
DTS-HD Master Audio             Russian         3369 kbps       5.1 / 48 kHz / 3369 kbps / 24-bit (DTS Core: 5.1 / 48 kHz / 1509 kbps / 24-bit)
DTS-HD Master Audio             Russian         1767 kbps       2.0 / 48 kHz / 1767 kbps / 24-bit (DTS Core: 2.0 / 48 kHz / 1509 kbps / 24-bit)

SUBTITLES:

Codec                           Language        Bitrate         Description     
-----                           --------        -------         -----------     
Presentation Graphics           English         39.651 kbps                     
Presentation Graphics           English         25.646 kbps  

Video
ID : 1
ID in the original source medium : 4113 (0x1011)
Format : AVC
Format/Info : Advanced Video Codec
Format profile : [email protected]
Format settings : CABAC / 4 Ref Frames
Format settings, CABAC : Yes
Format settings, Reference frames : 4 frames
Format settings, GOP : M=1, N=12
Codec ID : V_MPEG4/ISO/AVC
Duration : 1 h 26 min
Bit rate mode : Constant
Bit rate : 29.6 Mb/s
Nominal bit rate : 32.0 Mb/s
Width : 1 920 pixels
Height : 1 080 pixels
Display aspect ratio : 16:9
Frame rate mode : Constant
Frame rate : 23.976 (24000/1001) FPS
Color space : YUV
Chroma subsampling : 4:2:0
Bit depth : 8 bits
Scan type : Progressive
Bits/(Pixel*Frame) : 0.595
Stream size : 17.8 GiB (74%)
Language : English
Default : No
Forced : No
Original source medium : Blu-ray

Audio #1
ID : 2
ID in the original source medium : 4354 (0x1102)
Format : DTS XLL
Format/Info : Digital Theater Systems
Commercial name : DTS-HD Master Audio
Codec ID : A_DTS
Duration : 1 h 26 min
Bit rate mode : Variable
Bit rate : 3 369 kb/s
Channel(s) : 6 channels
Channel layout : C L R Ls Rs LFE
Sampling rate : 48.0 kHz
Frame rate : 93.750 FPS (512 SPF)
Bit depth : 24 bits
Compression mode : Lossless
Stream size : 2.03 GiB (8%)
Title : DTS-HD MA 5.1
Language : Russian
Default : Yes
Forced : No
Original source medium : Blu-ray

Audio #2
ID : 3
ID in the original source medium : 4352 (0x1100)
Format : DTS XLL
Format/Info : Digital Theater Systems
Commercial name : DTS-HD Master Audio
Codec ID : A_DTS
Duration : 1 h 26 min
Bit rate mode : Variable
Bit rate : 3 340 kb/s
Channel(s) : 6 channels
Channel layout : C L R Ls Rs LFE
Sampling rate : 48.0 kHz
Frame rate : 93.750 FPS (512 SPF)
Bit depth : 24 bits
Compression mode : Lossless
Stream size : 2.01 GiB (8%)
Title : DTS-HD MA 5.1
Language : English
Default : No
Forced : No
Original source medium : Blu-ray

Audio #3
ID : 4
ID in the original source medium : 4353 (0x1101)
Format : DTS XLL
Format/Info : Digital Theater Systems
Commercial name : DTS-HD Master Audio
Codec ID : A_DTS
Duration : 1 h 26 min
Bit rate mode : Variable
Bit rate : 1 764 kb/s
Channel(s) : 2 channels
Channel layout : L R
Sampling rate : 48.0 kHz
Frame rate : 93.750 FPS (512 SPF)
Bit depth : 24 bits
Compression mode : Lossless
Stream size : 1.06 GiB (4%)
Title : DTS-HD MA 2.0
Language : English
Default : No
Forced : No
Original source medium : Blu-ray

Audio #4
ID : 5
ID in the original source medium : 4355 (0x1103)
Format : DTS XLL
Format/Info : Digital Theater Systems
Commercial name : DTS-HD Master Audio
Codec ID : A_DTS
Duration : 1 h 26 min
Bit rate mode : Variable
Bit rate : 1 767 kb/s
Channel(s) : 2 channels
Channel layout : L R
Sampling rate : 48.0 kHz
Frame rate : 93.750 FPS (512 SPF)
Bit depth : 24 bits
Compression mode : Lossless
Stream size : 1.07 GiB (4%)
Title : DTS-HD MA 2.0
Language : Russian
Default : No
Forced : No
Original source medium : Blu-ray

Text #1
ID : 6
Format : UTF-8
Codec ID : S_TEXT/UTF8
Codec ID/Info : UTF-8 Plain Text
Duration : 1 h 22 min
Bit rate : 52 b/s
Count of elements : 1234
Stream size : 31.6 KiB (0%)
Title : English-SRT
Language : English
Default : Yes
Forced : No

Text #2
ID : 7
ID in the original source medium : 4608 (0x1200)
Format : PGS
Muxing mode : zlib
Codec ID : S_HDMV/PGS
Codec ID/Info : Picture based subtitle format used on BDs/HD-DVDs
Duration : 1 h 25 min
Bit rate : 39.9 kb/s
Count of elements : 3114
Stream size : 24.5 MiB (0%)
Title : English-PGS
Language : English
Default : No
Forced : No
Original source medium : Blu-ray

Text #3
ID : 8
ID in the original source medium : 4609 (0x1201)
Format : PGS
Muxing mode : zlib
Codec ID : S_HDMV/PGS
Codec ID/Info : Picture based subtitle format used on BDs/HD-DVDs
Duration : 1 h 22 min
Bit rate : 26.8 kb/s
Count of elements : 1745
Stream size : 15.8 MiB (0%)
Title : English-PGS
Language : English
Default : No
Forced : No
Original source medium : Blu-ray

Menu
00:00:00.000 : en:Chapter 01
00:07:21.065 : en:Chapter 02
00:13:21.175 : en:Chapter 03
00:22:35.687 : en:Chapter 04
00:27:40.575 : en:Chapter 05
00:36:01.075 : en:Chapter 06
00:42:28.629 : en:Chapter 07
00:49:29.132 : en:Chapter 08
00:58:12.363 : en:Chapter 09
01:07:04.103 : en:Chapter 10
01:16:57.654 : en:Chapter 11
01:23:07.857 : en:Chapter 12
01:26:15.086 : en:Chapter 13

本帖子中包含更多资源

您需要 登录 才可以下载或查看,没有帐号?立即注册

x
回复

使用道具 举报

0

主题

523

帖子

2570

积分

金牌会员

Rank: 6Rank: 6

积分
2570
发表于 2021-4-4 16:54:52 | 显示全部楼层
谢谢楼主分享 楼主辛苦了
回复

使用道具 举报

0

主题

1123

帖子

8440

积分

VIP永久

Rank: 12Rank: 12Rank: 12

积分
8440
发表于 2021-4-4 20:37:37 | 显示全部楼层
谢谢楼主分享!!!!!
回复

使用道具 举报

0

主题

250

帖子

1191

积分

金牌会员

Rank: 6Rank: 6

积分
1191
发表于 2021-4-5 00:41:34 | 显示全部楼层
感谢楼主分享!
回复

使用道具 举报

0

主题

697

帖子

3513

积分

论坛元老

Rank: 8Rank: 8

积分
3513
发表于 2021-4-5 10:02:08 | 显示全部楼层
谢谢楼主分享 楼主辛苦了
回复

使用道具 举报

0

主题

523

帖子

2570

积分

金牌会员

Rank: 6Rank: 6

积分
2570
发表于 2021-4-5 23:16:31 | 显示全部楼层
谢谢楼主分享
回复

使用道具 举报

0

主题

637

帖子

3347

积分

论坛元老

Rank: 8Rank: 8

积分
3347
发表于 2021-4-6 11:34:11 | 显示全部楼层
谢楼主分享
回复

使用道具 举报

0

主题

523

帖子

2570

积分

金牌会员

Rank: 6Rank: 6

积分
2570
发表于 2021-4-7 10:21:46 | 显示全部楼层
谢谢楼主分享 楼主辛苦了
回复

使用道具 举报

0

主题

523

帖子

2570

积分

金牌会员

Rank: 6Rank: 6

积分
2570
发表于 2021-4-8 08:20:27 | 显示全部楼层
谢谢楼主分享 楼主辛苦了
回复

使用道具 举报

0

主题

637

帖子

3347

积分

论坛元老

Rank: 8Rank: 8

积分
3347
发表于 7 天前 | 显示全部楼层
谢谢分享!
回复

使用道具 举报

您需要登录后才可以回帖 登录 | 立即注册

本版积分规则

QQ|Archiver|手机版|小黑屋|原盘天堂 好多盘 点击这里给我发消息

GMT+8, 2021-4-16 02:07 , Processed in 0.066464 second(s), 25 queries .

Powered by Discuz! X3.4

Copyright © 2001-2020, Tencent Cloud.

快速回复 返回顶部 返回列表