请选择 进入手机版 | 继续访问电脑版
本站Q群713428235【盘盘多】已满,请新会员加原盘天堂新官方QQ群709708625【好多盘】,验证信息填写您在论坛的会员名,不填会员名的无法入群哈,进群后修改您的群名片名字为您在论坛的会员名,请务必修改,否则群成员多了不知道您是哪个会员。

原盘天堂

 找回密码
 立即注册
京东商城当当华为商城名牌时尚折扣网,一个新型的网上购物平台,我们每周为您精选3~4个国际知名品牌,商品折扣低至2折限时限量售卖,商品囊括时装、护肤品、箱包、皮具、配饰、香水等等,琳琅满目。亿格瑞A10硬盘播放器 苏宁易购
查看: 98|回复: 9

2d蓝光原盘bdmv 阿雅与魔女 英语原版 earwig.and.the.witch.2020.japanese.1080p.bluray.avc.dts-hd.ma.5.1[43.08 GB]

[复制链接]

5851

主题

6475

帖子

132万

积分

管理员

Rank: 18Rank: 18Rank: 18Rank: 18Rank: 18

积分
1327882
发表于 2021-4-3 21:50:20 | 显示全部楼层 |阅读模式








阿雅与魔女 アーヤと魔女 (2020)

导演: 宫崎吾朗
编剧: 黛安娜·温恩·琼斯 / 丹羽圭子 / Emi Gunji / 宫崎骏
主演: 平泽宏宏路 / 寺岛忍 / 丰川悦司 / 滨田岳
类型: 动画 / 奇幻
制片国家/地区: 日本
语言: 日语
上映日期: 2020-10-18(卢米埃尔电影节) / 2020-12-30(日本) / 2021-02-03(美国) / 2021-02-05(美国网络)
片长: 82分钟
又名: 安雅与魔女 / Aya to Majo / Earwig and the Witch
IMDb链接: tt12441478
资源名称: 阿雅与魔女.Aya.to.Majo.2020.tt12441478

豆瓣评分 引用
5.4
978人评价
5星 6.4%
4星 12.5%
3星 36.9%
2星 34.8%
1星 9.4%

剧情简介 · · · · · ·
  《阿雅与魔女》是改编自戴安娜·韦恩·琼斯的同名奇幻小说,故事描述不知道自己是魔女小孩的阿雅,在某一天被奇妙的家庭所收养,并且与坏心的魔女共同展开了生活,属于阿雅的奇幻故事就此展开。

阿雅与魔女 アーヤと魔女 获奖情况
第73届戛纳电影节  (2020)
动画片(提名)

DISC INFO:

Disc Title:     Earwig.and.the.Witch.2020.JAPANESE.1080p.BluRay.AVC.DTS-HD.MA.5.1-FGT
Disc Size:      46,257,159,802 bytes
Protection:     AACS
Extras:         BD-Java
BDInfo:         0.7.5.9 (compatible layout created by DVDFab 12.0.2.2)

PLAYLIST REPORT:

Name:                   00200.MPLS  
Length:                 1:22:47.003 (h:m:s.ms)
Size:                   25,403,326,464 bytes
Total Bitrate:          40.92 Mbps

Angle 1 Length:         0:09:58.931 (h:m:s.ms) / 1:22:47.003 (h:m:s.ms)
Angle 1 Size:           3,081,400,320 bytes / 25,403,314,176 bytes
Angle 1 Total Bitrate:  41.16 Mbps / 40.92 Mbps

All Angles Length:      1:32:45.935 (h:m:s.ms)
All Angles Size:        28,484,726,784 bytes
All Angles Bitrate:     40.94 Mbps

VIDEO:

Codec                   Bitrate             Description     
-----                   -------             -----------     
MPEG-4 AVC Video        30000 kbps          1080p / 23.976 fps / 16:9 / High Profile 4.1
MPEG-4 AVC Video (1)    3617 (30000) kbps   1080p / 23.976 fps / 16:9 / High Profile 4.1

AUDIO:

Codec                           Language        Bitrate         Description     
-----                           --------        -------         -----------     
DTS-HD Master Audio             English         3959 kbps       5.1 / 48 kHz / 3959 kbps / 24-bit (DTS Core: 5.1 / 48 kHz / 1509 kbps / 24-bit)
DTS-HD Master Audio             Japanese        4209 kbps       5.1 / 48 kHz / 4209 kbps / 24-bit (DTS Core: 5.1 / 48 kHz / 1509 kbps / 24-bit)
Dolby Digital Audio             English         448 kbps        5.1 / 48 kHz / 448 kbps

SUBTITLES:

Codec                           Language        Bitrate         Description     
-----                           --------        -------         -----------     
Presentation Graphics           English         31.941 kbps                     
Presentation Graphics           English         18.119 kbps  

Video
ID : 1
ID in the original source medium : 4113 (0x1011)
Format : AVC
Format/Info : Advanced Video Codec
Format profile : [email protected]
Format settings : CABAC / 4 Ref Frames
Format settings, CABAC : Yes
Format settings, Reference frames : 4 frames
Codec ID : V_MPEG4/ISO/AVC
Duration : 1 h 22 min
Bit rate mode : Constant
Bit rate : 30.0 Mb/s
Width : 1 920 pixels
Height : 1 080 pixels
Display aspect ratio : 16:9
Frame rate mode : Constant
Frame rate : 23.976 (24000/1001) FPS
Color space : YUV
Chroma subsampling : 4:2:0
Bit depth : 8 bits
Scan type : Progressive
Bits/(Pixel*Frame) : 0.603
Stream size : 16.8 GiB (77%)
Language : English
Default : No
Forced : No
Original source medium : Blu-ray

Audio #1
ID : 2
ID in the original source medium : 4353 (0x1101)
Format : DTS XLL
Format/Info : Digital Theater Systems
Commercial name : DTS-HD Master Audio
Codec ID : A_DTS
Duration : 1 h 22 min
Bit rate mode : Variable
Bit rate : 4 209 kb/s
Channel(s) : 6 channels
Channel layout : C L R Ls Rs LFE
Sampling rate : 48.0 kHz
Frame rate : 93.750 FPS (512 SPF)
Bit depth : 24 bits
Compression mode : Lossless
Stream size : 2.43 GiB (11%)
Title : DTS-HD MA 5.1
Language : Japanese
Default : Yes
Forced : No
Original source medium : Blu-ray

Audio #2
ID : 3
ID in the original source medium : 4352 (0x1100)
Format : DTS XLL
Format/Info : Digital Theater Systems
Commercial name : DTS-HD Master Audio
Codec ID : A_DTS
Duration : 1 h 22 min
Bit rate mode : Variable
Bit rate : 3 959 kb/s
Channel(s) : 6 channels
Channel layout : C L R Ls Rs LFE
Sampling rate : 48.0 kHz
Frame rate : 93.750 FPS (512 SPF)
Bit depth : 24 bits
Compression mode : Lossless
Stream size : 2.29 GiB (11%)
Title : DTS-HD MA 5.1
Language : English
Default : No
Forced : No
Original source medium : Blu-ray

Audio #3
ID : 4
ID in the original source medium : 4354 (0x1102)
Format : AC-3
Format/Info : Audio Coding 3
Commercial name : Dolby Digital
Codec ID : A_AC3
Duration : 1 h 22 min
Bit rate mode : Constant
Bit rate : 448 kb/s
Channel(s) : 6 channels
Channel layout : L R C LFE Ls Rs
Sampling rate : 48.0 kHz
Frame rate : 31.250 FPS (1536 SPF)
Compression mode : Lossy
Stream size : 265 MiB (1%)
Title : DD 5.1
Language : English
Service kind : Complete Main
Default : No
Forced : No
Original source medium : Blu-ray

Text #1
ID : 5
Format : UTF-8
Codec ID : S_TEXT/UTF8
Codec ID/Info : UTF-8 Plain Text
Duration : 1 h 21 min
Bit rate : 54 b/s
Count of elements : 1109
Stream size : 32.9 KiB (0%)
Title : English-SRT
Language : English
Default : Yes
Forced : No

Text #2
ID : 6
ID in the original source medium : 4608 (0x1200)
Format : PGS
Muxing mode : zlib
Codec ID : S_HDMV/PGS
Codec ID/Info : Picture based subtitle format used on BDs/HD-DVDs
Duration : 1 h 22 min
Bit rate : 32.1 kb/s
Count of elements : 2860
Stream size : 18.9 MiB (0%)
Title : English-PGS
Language : English
Default : No
Forced : No
Original source medium : Blu-ray

Text #3
ID : 7
ID in the original source medium : 4609 (0x1201)
Format : PGS
Muxing mode : zlib
Codec ID : S_HDMV/PGS
Codec ID/Info : Picture based subtitle format used on BDs/HD-DVDs
Duration : 1 h 22 min
Bit rate : 18.2 kb/s
Count of elements : 1508
Stream size : 10.7 MiB (0%)
Title : English-PGS
Language : English
Default : No
Forced : No
Original source medium : Blu-ray

Menu
00:00:00.000 : en:Chapter 01
00:05:54.395 : en:Chapter 02
00:11:10.711 : en:Chapter 03
00:14:51.932 : en:Chapter 04
00:19:32.212 : en:Chapter 05
00:22:15.375 : en:Chapter 06
00:27:29.689 : en:Chapter 07
00:32:21.981 : en:Chapter 08
00:37:39.298 : en:Chapter 09
00:43:01.620 : en:Chapter 10
00:49:55.033 : en:Chapter 11
00:57:27.485 : en:Chapter 12
01:00:35.673 : en:Chapter 13
01:07:31.088 : en:Chapter 14
01:12:43.400 : en:Chapter 15
01:18:42.467 : en:Chapter 16

本帖子中包含更多资源

您需要 登录 才可以下载或查看,没有帐号?立即注册

x
回复

使用道具 举报

0

主题

697

帖子

3513

积分

论坛元老

Rank: 8Rank: 8

积分
3513
发表于 2021-4-3 21:52:51 | 显示全部楼层
谢谢楼主分享
回复

使用道具 举报

0

主题

523

帖子

2570

积分

金牌会员

Rank: 6Rank: 6

积分
2570
发表于 2021-4-4 16:57:11 | 显示全部楼层
谢谢楼主分享 楼主辛苦了
回复

使用道具 举报

0

主题

523

帖子

2570

积分

金牌会员

Rank: 6Rank: 6

积分
2570
发表于 2021-4-5 23:21:30 | 显示全部楼层
谢谢楼主分享
回复

使用道具 举报

0

主题

77

帖子

835

积分

高级会员

Rank: 4

积分
835
发表于 2021-4-5 23:40:30 | 显示全部楼层
谢谢楼主分享
回复

使用道具 举报

0

主题

523

帖子

2570

积分

金牌会员

Rank: 6Rank: 6

积分
2570
发表于 2021-4-8 08:18:17 | 显示全部楼层
谢谢楼主分享 楼主辛苦了
回复

使用道具 举报

0

主题

142

帖子

951

积分

VIP月

Rank: 9Rank: 9Rank: 9

积分
951
发表于 2021-4-8 08:20:26 | 显示全部楼层
谢谢楼主分享
回复

使用道具 举报

0

主题

23

帖子

88

积分

注册会员

Rank: 2

积分
88
发表于 6 天前 | 显示全部楼层
感谢楼主分享
回复

使用道具 举报

0

主题

697

帖子

3513

积分

论坛元老

Rank: 8Rank: 8

积分
3513
发表于 3 天前 | 显示全部楼层










回复

使用道具 举报

0

主题

255

帖子

1311

积分

金牌会员

Rank: 6Rank: 6

积分
1311
发表于 前天 22:04 | 显示全部楼层
谢楼主分享
回复

使用道具 举报

您需要登录后才可以回帖 登录 | 立即注册

本版积分规则

QQ|Archiver|手机版|小黑屋|原盘天堂 好多盘 点击这里给我发消息

GMT+8, 2021-4-16 02:00 , Processed in 0.063774 second(s), 25 queries .

Powered by Discuz! X3.4

Copyright © 2001-2020, Tencent Cloud.

快速回复 返回顶部 返回列表