请选择 进入手机版 | 继续访问电脑版
本站Q群713428235【盘盘多】已满,请新会员加原盘天堂新官方QQ群709708625【好多盘】,验证信息填写您在论坛的会员名,不填会员名的无法入群哈,进群后修改您的群名片名字为您在论坛的会员名,请务必修改,否则群成员多了不知道您是哪个会员。

原盘天堂

 找回密码
 立即注册
京东商城当当华为商城名牌时尚折扣网,一个新型的网上购物平台,我们每周为您精选3~4个国际知名品牌,商品折扣低至2折限时限量售卖,商品囊括时装、护肤品、箱包、皮具、配饰、香水等等,琳琅满目。亿格瑞A10硬盘播放器 苏宁易购
查看: 161|回复: 15

2d蓝光原盘bdmv 少年侦探 英语原版 the.kid.detective.2020.1080p.bluray.avc.dts-hd.ma.5.1[17.05 GB]

[复制链接]

5851

主题

6475

帖子

132万

积分

管理员

Rank: 18Rank: 18Rank: 18Rank: 18Rank: 18

积分
1327882
发表于 2021-4-1 12:27:14 | 显示全部楼层 |阅读模式








导演: 埃文·摩根
编剧: 埃文·摩根
主演: 亚当·布罗迪 / 苏菲·奈丽丝 / 莎拉·萨瑟兰 / 杰西·诺亚·格鲁曼 / 温迪·古逊 / 更多...
类型: 剧情 / 喜剧
制片国家/地区: 加拿大
语言: 英语
上映日期: 2020-10-16(美国)
片长: 97分钟

瓣评分
7.1
1575人评价
5星 10.4%
4星 40.0%
3星 43.6%
2星 5.0%
1星 1.0%
好于 54% 喜剧片

剧情简介 · · · · · ·
  曾经享誉盛名的儿童侦探(现年32岁)继续解决宿醉和顾影自怜之间的琐碎谜团。 直到一个天真的客户将他的第一个“成人”案带给他——找出谁残酷地谋杀了她的男朋友。

DISC INFO:

Disc Title:     The.Kid.Detective.2020.1080p.BluRay.AVC.DTS-HD.MA.5.1-FGT
Disc Size:      18,304,472,421 bytes
Protection:     AACS
BDInfo:         0.7.5.9 (compatible layout created by DVDFab 12.0.2.2)

PLAYLIST REPORT:

Name:                   00004.MPLS  
Length:                 1:39:55.864 (h:m:s.ms)
Size:                   16,591,411,200 bytes
Total Bitrate:          22.14 Mbps

VIDEO:

Codec                   Bitrate             Description     
-----                   -------             -----------     
MPEG-4 AVC Video        17756 kbps          1080p / 23.976 fps / 16:9 / High Profile 4.1

AUDIO:

Codec                           Language        Bitrate         Description     
-----                           --------        -------         -----------     
DTS-HD Master Audio             English         3111 kbps       5.1 / 48 kHz / 3111 kbps / 24-bit (DTS Core: 5.1 / 48 kHz / 1509 kbps / 24-bit)

SUBTITLES:

Codec                           Language        Bitrate         Description     
-----                           --------        -------         -----------     
Presentation Graphics           English         24.199 kbps                     
Presentation Graphics           English         27.634 kbps  

Video
ID : 1
ID in the original source medium : 4113 (0x1011)
Format : AVC
Format/Info : Advanced Video Codec
Format profile : [email protected]
Format settings : CABAC / 2 Ref Frames
Format settings, CABAC : Yes
Format settings, Reference frames : 2 frames
Codec ID : V_MPEG4/ISO/AVC
Duration : 1 h 39 min
Bit rate mode : Variable
Bit rate : 17.8 Mb/s
Maximum bit rate : 38.2 Mb/s
Width : 1 920 pixels
Height : 1 080 pixels
Display aspect ratio : 16:9
Frame rate mode : Constant
Frame rate : 23.976 (24000/1001) FPS
Color space : YUV
Chroma subsampling : 4:2:0
Bit depth : 8 bits
Scan type : Progressive
Bits/(Pixel*Frame) : 0.358
Stream size : 12.4 GiB (85%)
Language : English
Default : No
Forced : No
Original source medium : Blu-ray

Audio
ID : 2
ID in the original source medium : 4352 (0x1100)
Format : DTS XLL
Format/Info : Digital Theater Systems
Commercial name : DTS-HD Master Audio
Codec ID : A_DTS
Duration : 1 h 39 min
Bit rate mode : Variable
Bit rate : 3 111 kb/s
Channel(s) : 6 channels
Channel layout : C L R Ls Rs LFE
Sampling rate : 48.0 kHz
Frame rate : 93.750 FPS (512 SPF)
Bit depth : 24 bits
Compression mode : Lossless
Stream size : 2.17 GiB (15%)
Title : DTS-HD MA 5.1
Language : English
Default : Yes
Forced : No
Original source medium : Blu-ray

Text #1
ID : 3
Format : UTF-8
Codec ID : S_TEXT/UTF8
Codec ID/Info : UTF-8 Plain Text
Duration : 1 h 32 min
Bit rate : 47 b/s
Count of elements : 969
Stream size : 32.0 KiB (0%)
Title : English-SRT
Language : English
Default : Yes
Forced : No

Text #2
ID : 4
ID in the original source medium : 4608 (0x1200)
Format : PGS
Muxing mode : zlib
Codec ID : S_HDMV/PGS
Codec ID/Info : Picture based subtitle format used on BDs/HD-DVDs
Duration : 1 h 32 min
Bit rate : 26.0 kb/s
Count of elements : 1940
Stream size : 17.3 MiB (0%)
Title : English-PGS
Language : English
Default : No
Forced : No
Original source medium : Blu-ray

Text #3
ID : 5
ID in the original source medium : 4609 (0x1201)
Format : PGS
Muxing mode : zlib
Codec ID : S_HDMV/PGS
Codec ID/Info : Picture based subtitle format used on BDs/HD-DVDs
Duration : 1 h 35 min
Bit rate : 28.7 kb/s
Count of elements : 2304
Stream size : 19.7 MiB (0%)
Title : English-SDH-PGS
Language : English
Default : No
Forced : No
Original source medium : Blu-ray

Menu
00:00:00.000 : en:Chapter 01
00:09:05.294 : en:Chapter 02
00:13:43.572 : en:Chapter 03
00:21:12.062 : en:Chapter 04
00:25:50.090 : en:Chapter 05
00:32:44.462 : en:Chapter 06
00:41:05.796 : en:Chapter 07
00:51:01.892 : en:Chapter 08
00:56:21.044 : en:Chapter 09
01:01:43.991 : en:Chapter 10
01:04:43.588 : en:Chapter 11
01:08:18.928 : en:Chapter 12
01:13:31.615 : en:Chapter 13
01:18:15.357 : en:Chapter 14
01:27:03.801 : en:Chapter 15
01:29:50.301 : en:Chapter 16
01:35:06.283 : en:Chapter 17

本帖子中包含更多资源

您需要 登录 才可以下载或查看,没有帐号?立即注册

x
回复

使用道具 举报

0

主题

697

帖子

3513

积分

论坛元老

Rank: 8Rank: 8

积分
3513
发表于 2021-4-1 13:19:31 | 显示全部楼层
谢谢楼主分享 楼主辛苦了
回复

使用道具 举报

0

主题

1159

帖子

5008

积分

论坛元老

Rank: 8Rank: 8

积分
5008
发表于 2021-4-1 14:28:24 | 显示全部楼层
感谢楼主分享高清影片
回复

使用道具 举报

0

主题

523

帖子

2570

积分

金牌会员

Rank: 6Rank: 6

积分
2570
发表于 2021-4-1 15:17:16 | 显示全部楼层
谢谢楼主分享 楼主辛苦了
回复

使用道具 举报

0

主题

1123

帖子

8440

积分

VIP永久

Rank: 12Rank: 12Rank: 12

积分
8440
发表于 2021-4-1 19:29:01 | 显示全部楼层
谢谢楼主分享!!!
回复

使用道具 举报

0

主题

25

帖子

232

积分

中级会员

Rank: 3Rank: 3

积分
232
发表于 2021-4-2 07:52:48 | 显示全部楼层
下载看看。。。。。。。。。。。。。。。。
回复

使用道具 举报

0

主题

523

帖子

2570

积分

金牌会员

Rank: 6Rank: 6

积分
2570
发表于 2021-4-2 15:51:09 | 显示全部楼层
谢谢楼主分享
回复

使用道具 举报

0

主题

255

帖子

1311

积分

金牌会员

Rank: 6Rank: 6

积分
1311
发表于 2021-4-3 15:18:44 | 显示全部楼层
谢谢楼主分享
回复

使用道具 举报

0

主题

255

帖子

1311

积分

金牌会员

Rank: 6Rank: 6

积分
1311
发表于 2021-4-3 15:19:54 | 显示全部楼层
谢谢楼主分享
回复

使用道具 举报

0

主题

250

帖子

1191

积分

金牌会员

Rank: 6Rank: 6

积分
1191
发表于 2021-4-3 21:17:37 | 显示全部楼层
xiexiefenxiang
回复

使用道具 举报

您需要登录后才可以回帖 登录 | 立即注册

本版积分规则

QQ|Archiver|手机版|小黑屋|原盘天堂 好多盘 点击这里给我发消息

GMT+8, 2021-4-16 01:05 , Processed in 0.070716 second(s), 25 queries .

Powered by Discuz! X3.4

Copyright © 2001-2020, Tencent Cloud.

快速回复 返回顶部 返回列表