请选择 进入手机版 | 继续访问电脑版
本站Q群713428235【盘盘多】已满,请新会员加原盘天堂新官方QQ群709708625【好多盘】,验证信息填写您在论坛的会员名,不填会员名的无法入群哈,进群后修改您的群名片名字为您在论坛的会员名,请务必修改,否则群成员多了不知道您是哪个会员。

原盘天堂

 找回密码
 立即注册
京东商城当当华为商城名牌时尚折扣网,一个新型的网上购物平台,我们每周为您精选3~4个国际知名品牌,商品折扣低至2折限时限量售卖,商品囊括时装、护肤品、箱包、皮具、配饰、香水等等,琳琅满目。亿格瑞A10硬盘播放器 苏宁易购
查看: 130|回复: 11

2d蓝光原盘bdmv 送终人 英语原版 the.toll.2020.1080p.bluray.avc.dts-hd.ma.5.1[22.17 GB]

[复制链接]

5851

主题

6475

帖子

132万

积分

管理员

Rank: 18Rank: 18Rank: 18Rank: 18Rank: 18

积分
1327882
发表于 2021-4-1 09:32:35 | 显示全部楼层 |阅读模式








送终人 The Toll (2020)

导演: 迈克尔·纳德
编剧: 迈克尔·纳德
主演: 约旦·海耶斯 / 马克斯·托普林 / 詹姆斯·麦克格温 / 萝丝玛丽·邓斯莫尔 / Jess Brown / 更多...
类型: 惊悚
制片国家/地区: 加拿大
语言: 英语
上映日期: 2020-03(西南偏南电影节)
又名: 阴森(中国台湾) / 丧钟 / 通行费


豆瓣评分
5.1
236人评价
5星 2.0%
4星 7.7%
3星 46.9%
2星 31.1%
1星 12.2%

剧情简介 · · · · · ·
  When a young woman and her rideshare driver break down on a dark forest road, each sees the other as a threat. A strange phenomena begin occurring around them, they gradually realize they’ve become trapped in the world of a terrifying supernatural being: The Toll Man.

      当一位年轻女子和她的搭便车司机在一条黑暗的森林道路上抛锚时,双方都认为对方是一种威胁。一个奇怪的现象开始在他们周围发生,他们逐渐意识到他们被困在一个可怕的超自然生物的世界:托勒人。

DISC INFO:

Disc Title:     The.Toll.2020.1080p.BluRay.AVC.DTS-HD.MA.5.1-FGT
Disc Size:      23,805,389,493 bytes
Protection:     AACS
Extras:         BD-Java
BDInfo:         0.7.5.9 (compatible layout created by DVDFab 12.0.2.2)

PLAYLIST REPORT:

Name:                   00664.MPLS  
Length:                 1:20:51.888 (h:m:s.ms)
Size:                   20,568,078,336 bytes
Total Bitrate:          33.91 Mbps

VIDEO:

Codec                   Bitrate             Description     
-----                   -------             -----------     
MPEG-4 AVC Video        28771 kbps          1080p / 23.976 fps / 16:9 / High Profile 4.1

AUDIO:

Codec                           Language        Bitrate         Description     
-----                           --------        -------         -----------     
DTS-HD Master Audio             English         3370 kbps       5.1 / 48 kHz / 3370 kbps / 24-bit (DTS Core: 5.1 / 48 kHz / 1509 kbps / 24-bit)

SUBTITLES:

Codec                           Language        Bitrate         Description     
-----                           --------        -------         -----------     
Presentation Graphics           English         32.29 kbps                     
Presentation Graphics           Spanish         24.222 kbps     

Video
ID : 1
ID in the original source medium : 4113 (0x1011)
Format : AVC
Format/Info : Advanced Video Codec
Format profile : [email protected]
Format settings : CABAC / 4 Ref Frames
Format settings, CABAC : Yes
Format settings, Reference frames : 4 frames
Codec ID : V_MPEG4/ISO/AVC
Duration : 1 h 20 min
Bit rate mode : Variable
Bit rate : 28.3 Mb/s
Maximum bit rate : 37.0 Mb/s
Width : 1 920 pixels
Height : 1 080 pixels
Display aspect ratio : 16:9
Frame rate mode : Constant
Frame rate : 23.976 (24000/1001) FPS
Color space : YUV
Chroma subsampling : 4:2:0
Bit depth : 8 bits
Scan type : Progressive
Bits/(Pixel*Frame) : 0.570
Stream size : 16.0 GiB (89%)
Language : English
Default : No
Forced : No
Original source medium : Blu-ray

Audio
ID : 2
ID in the original source medium : 4352 (0x1100)
Format : DTS XLL
Format/Info : Digital Theater Systems
Commercial name : DTS-HD Master Audio
Codec ID : A_DTS
Duration : 1 h 20 min
Bit rate mode : Variable
Bit rate : 3 370 kb/s
Channel(s) : 6 channels
Channel layout : C L R Ls Rs LFE
Sampling rate : 48.0 kHz
Frame rate : 93.750 FPS (512 SPF)
Bit depth : 24 bits
Compression mode : Lossless
Stream size : 1.90 GiB (11%)
Title : DTS-HD MA 5.1
Language : English
Default : Yes
Forced : No
Original source medium : Blu-ray

Text #1
ID : 3
Format : UTF-8
Codec ID : S_TEXT/UTF8
Codec ID/Info : UTF-8 Plain Text
Duration : 1 h 18 min
Bit rate : 46 b/s
Count of elements : 907
Stream size : 26.7 KiB (0%)
Title : English-SRT
Language : English
Default : Yes
Forced : No

Text #2
ID : 4
ID in the original source medium : 4608 (0x1200)
Format : PGS
Muxing mode : zlib
Codec ID : S_HDMV/PGS
Codec ID/Info : Picture based subtitle format used on BDs/HD-DVDs
Duration : 1 h 19 min
Bit rate : 32.7 kb/s
Count of elements : 2202
Stream size : 18.7 MiB (0%)
Title : English-PGS
Language : English
Default : No
Forced : No
Original source medium : Blu-ray

Text #3
ID : 5
ID in the original source medium : 4609 (0x1201)
Format : PGS
Muxing mode : zlib
Codec ID : S_HDMV/PGS
Codec ID/Info : Picture based subtitle format used on BDs/HD-DVDs
Duration : 1 h 18 min
Bit rate : 24.9 kb/s
Count of elements : 1506
Stream size : 14.0 MiB (0%)
Title : Spanish-PGS
Language : Spanish
Default : No
Forced : No
Original source medium : Blu-ray

Menu
00:00:00.000 : en:Chapter 01
00:04:13.544 : en:Chapter 02
00:07:35.371 : en:Chapter 03
00:12:34.545 : en:Chapter 04
00:17:01.603 : en:Chapter 05
00:20:47.788 : en:Chapter 06
00:26:08.900 : en:Chapter 07
00:29:02.907 : en:Chapter 08
00:36:34.650 : en:Chapter 09
00:41:29.236 : en:Chapter 10
00:44:46.183 : en:Chapter 11
00:49:15.243 : en:Chapter 12
00:54:55.292 : en:Chapter 13
01:00:15.612 : en:Chapter 14
01:05:43.940 : en:Chapter 15
01:13:30.531 : en:Chapter 16

本帖子中包含更多资源

您需要 登录 才可以下载或查看,没有帐号?立即注册

x
回复

使用道具 举报

0

主题

697

帖子

3513

积分

论坛元老

Rank: 8Rank: 8

积分
3513
发表于 2021-4-1 13:22:02 | 显示全部楼层
谢谢楼主分享 楼主辛苦了
回复

使用道具 举报

0

主题

255

帖子

1311

积分

金牌会员

Rank: 6Rank: 6

积分
1311
发表于 2021-4-1 13:28:20 | 显示全部楼层
沙发  谢楼主分享
回复

使用道具 举报

0

主题

1159

帖子

5008

积分

论坛元老

Rank: 8Rank: 8

积分
5008
发表于 2021-4-1 14:27:16 | 显示全部楼层
感谢楼主分享高清影片
回复

使用道具 举报

0

主题

523

帖子

2570

积分

金牌会员

Rank: 6Rank: 6

积分
2570
发表于 2021-4-1 15:18:28 | 显示全部楼层
谢谢楼主分享 楼主辛苦了
回复

使用道具 举报

0

主题

637

帖子

3347

积分

论坛元老

Rank: 8Rank: 8

积分
3347
发表于 2021-4-2 10:58:36 | 显示全部楼层
谢楼主分享
回复

使用道具 举报

0

主题

523

帖子

2570

积分

金牌会员

Rank: 6Rank: 6

积分
2570
发表于 2021-4-2 15:53:16 | 显示全部楼层
谢谢楼主分享
回复

使用道具 举报

0

主题

255

帖子

1311

积分

金牌会员

Rank: 6Rank: 6

积分
1311
发表于 2021-4-3 13:32:41 | 显示全部楼层
magnet:?xt=urn:btih:724388BC7E6891F7A163B27254F75E8879176009
回复

使用道具 举报

0

主题

250

帖子

1191

积分

金牌会员

Rank: 6Rank: 6

积分
1191
发表于 2021-4-3 21:18:51 | 显示全部楼层
xiexiefenxiang
回复

使用道具 举报

0

主题

523

帖子

2570

积分

金牌会员

Rank: 6Rank: 6

积分
2570
发表于 2021-4-3 22:42:10 | 显示全部楼层
谢谢楼主分享
回复

使用道具 举报

您需要登录后才可以回帖 登录 | 立即注册

本版积分规则

QQ|Archiver|手机版|小黑屋|原盘天堂 好多盘 点击这里给我发消息

GMT+8, 2021-4-16 01:58 , Processed in 0.067815 second(s), 25 queries .

Powered by Discuz! X3.4

Copyright © 2001-2020, Tencent Cloud.

快速回复 返回顶部 返回列表