请选择 进入手机版 | 继续访问电脑版
本站Q群713428235【盘盘多】已满,请新会员加原盘天堂新官方QQ群709708625【好多盘】,验证信息填写您在论坛的会员名,不填会员名的无法入群哈,进群后修改您的群名片名字为您在论坛的会员名,请务必修改,否则群成员多了不知道您是哪个会员。

原盘天堂

 找回密码
 立即注册
京东商城当当华为商城名牌时尚折扣网,一个新型的网上购物平台,我们每周为您精选3~4个国际知名品牌,商品折扣低至2折限时限量售卖,商品囊括时装、护肤品、箱包、皮具、配饰、香水等等,琳琅满目。亿格瑞A10硬盘播放器 苏宁易购
查看: 135|回复: 13

2d蓝光原盘bdmv 重聚 英语原版 reunion.2020.1080p.bluray.avc.dts-hd.ma.5.1[22.98 GB]

[复制链接]

5851

主题

6475

帖子

132万

积分

管理员

Rank: 18Rank: 18Rank: 18Rank: 18Rank: 18

积分
1327882
发表于 2021-3-27 17:37:53 | 显示全部楼层 |阅读模式






重聚 Reunion (2020)

导演: 杰克·马哈菲
编剧: 杰克·马哈菲
主演: 朱莉娅·奥蒙德
类型: 剧情
制片国家/地区: 新西兰
语言: 英语
上映日期: 2020-10-17(美国)
片长: 95分钟

情简介 · · · · · ·
  朱莉娅·奥蒙德将主演杰克·马哈菲执导([神迹男孩])惊悚片[重聚](Reunion,暂译)。影片讲述了一对母女打包出售老房子的故事,随着超自然现象发生,女儿必须面对她的家系带来的创伤。本片目前已在惠灵顿开拍。


DISC INFO:

Disc Title:     Reunion.2020.1080p.BluRay.AVC.DTS-HD.MA.5.1-FGT
Disc Size:      24,670,162,128 bytes
Protection:     AACS
BDInfo:         0.7.5.9 (compatible layout created by DVDFab 12.0.2.0)

PLAYLIST REPORT:

Name:                   00007.MPLS  
Length:                 1:34:56.565 (h:m:s.ms)
Size:                   21,592,639,488 bytes
Total Bitrate:          30.32 Mbps

VIDEO:

Codec                   Bitrate             Description     
-----                   -------             -----------     
MPEG-4 AVC Video        24986 kbps          1080p / 23.976 fps / 16:9 / High Profile 4.1

AUDIO:

Codec                           Language        Bitrate         Description     
-----                           --------        -------         -----------     
DTS-HD Master Audio             English         1968 kbps       5.1 / 48 kHz / 1968 kbps / 16-bit (DTS Core: 5.1 / 48 kHz / 1509 kbps / 16-bit)
LPCM Audio                      English         1536 kbps       2.0 / 48 kHz / 1536 kbps / 16-bit

SUBTITLES:

Codec                           Language        Bitrate         Description     
-----                           --------        -------         -----------     
Presentation Graphics           English         36.067 kbps

Video
ID : 1
ID in the original source medium : 4113 (0x1011)
Format : AVC
Format/Info : Advanced Video Codec
Format profile : [email protected]
Format settings : CABAC / 4 Ref Frames
Format settings, CABAC : Yes
Format settings, Reference frames : 4 frames
Codec ID : V_MPEG4/ISO/AVC
Duration : 1 h 34 min
Bit rate mode : Variable
Bit rate : 24.9 Mb/s
Maximum bit rate : 37.5 Mb/s
Width : 1 920 pixels
Height : 1 080 pixels
Display aspect ratio : 16:9
Frame rate mode : Constant
Frame rate : 23.976 (24000/1001) FPS
Color space : YUV
Chroma subsampling : 4:2:0
Bit depth : 8 bits
Scan type : Progressive
Bits/(Pixel*Frame) : 0.502
Stream size : 16.5 GiB (88%)
Language : English
Default : No
Forced : No
Color range : Limited
Color primaries : BT.709
Transfer characteristics : BT.709
Matrix coefficients : BT.709
Original source medium : Blu-ray

Audio #1
ID : 2
ID in the original source medium : 4352 (0x1100)
Format : DTS XLL
Format/Info : Digital Theater Systems
Commercial name : DTS-HD Master Audio
Codec ID : A_DTS
Duration : 1 h 34 min
Bit rate mode : Variable
Bit rate : 1 968 kb/s
Channel(s) : 6 channels
Channel layout : C L R Ls Rs LFE
Sampling rate : 48.0 kHz
Frame rate : 93.750 FPS (512 SPF)
Bit depth : 16 bits
Compression mode : Lossless
Stream size : 1.30 GiB (7%)
Title : DTS-HD MA 5.1
Language : English
Default : Yes
Forced : No
Original source medium : Blu-ray

Audio #2
ID : 3
ID in the original source medium : 4353 (0x1101)
Format : PCM
Format settings : Little / Signed
Codec ID : A_PCM/INT/LIT
Duration : 1 h 34 min
Bit rate mode : Constant
Bit rate : 1 536 kb/s
Channel(s) : 2 channels
Sampling rate : 48.0 kHz
Frame rate : 30.000 FPS (1600 SPF)
Bit depth : 16 bits
Stream size : 1.02 GiB (5%)
Title : LPCM 2.0
Language : English
Default : No
Forced : No
Original source medium : Blu-ray

Text #1
ID : 4
Format : UTF-8
Codec ID : S_TEXT/UTF8
Codec ID/Info : UTF-8 Plain Text
Duration : 1 h 27 min
Bit rate : 45 b/s
Count of elements : 1013
Stream size : 29.0 KiB (0%)
Title : SRT
Language : English
Default : Yes
Forced : No

Text #2
ID : 5
ID in the original source medium : 4608 (0x1200)
Format : PGS
Muxing mode : zlib
Codec ID : S_HDMV/PGS
Codec ID/Info : Picture based subtitle format used on BDs/HD-DVDs
Duration : 1 h 29 min
Bit rate : 38.2 kb/s
Count of elements : 2508
Stream size : 24.5 MiB (0%)
Language : English
Default : No
Forced : No
Original source medium : Blu-ray

Menu
00:00:00.000 : en:Chapter 01
00:04:14.587 : en:Chapter 02
00:08:09.822 : en:Chapter 03
00:13:06.994 : en:Chapter 04
00:17:04.982 : en:Chapter 05
00:22:16.585 : en:Chapter 06
00:26:44.144 : en:Chapter 07
00:29:47.243 : en:Chapter 08
00:33:46.024 : en:Chapter 09
00:38:19.547 : en:Chapter 10
00:42:01.560 : en:Chapter 11
00:46:57.356 : en:Chapter 12
00:53:01.136 : en:Chapter 13
00:57:38.079 : en:Chapter 14
01:02:54.854 : en:Chapter 15
01:06:52.383 : en:Chapter 16
01:11:23.654 : en:Chapter 17
01:15:23.602 : en:Chapter 18
01:18:39.297 : en:Chapter 19
01:21:53.658 : en:Chapter 20
01:28:13.871 : en:Chapter 21
01:30:09.821 : en:Chapter 22

本帖子中包含更多资源

您需要 登录 才可以下载或查看,没有帐号?立即注册

x
回复

使用道具 举报

0

主题

697

帖子

3513

积分

论坛元老

Rank: 8Rank: 8

积分
3513
发表于 2021-3-27 19:10:42 | 显示全部楼层
谢谢楼主分享 楼主辛苦了
回复

使用道具 举报

0

主题

523

帖子

2570

积分

金牌会员

Rank: 6Rank: 6

积分
2570
发表于 2021-3-27 20:45:17 | 显示全部楼层
谢谢楼主分享 楼主辛苦了
回复

使用道具 举报

0

主题

250

帖子

1191

积分

金牌会员

Rank: 6Rank: 6

积分
1191
发表于 2021-3-27 23:03:12 | 显示全部楼层
xiexielouzhufenxiang
回复

使用道具 举报

0

主题

173

帖子

1221

积分

金牌会员

Rank: 6Rank: 6

积分
1221
发表于 2021-3-28 07:04:25 | 显示全部楼层
谢谢楼主分享 楼主辛苦了
回复

使用道具 举报

0

主题

337

帖子

1787

积分

金牌会员

Rank: 6Rank: 6

积分
1787
发表于 2021-3-28 07:12:36 | 显示全部楼层
好资源,感谢分享。
回复

使用道具 举报

0

主题

1123

帖子

8440

积分

VIP永久

Rank: 12Rank: 12Rank: 12

积分
8440
发表于 2021-3-28 12:21:18 | 显示全部楼层
谢谢楼主分享!!!!
回复

使用道具 举报

0

主题

255

帖子

1311

积分

金牌会员

Rank: 6Rank: 6

积分
1311
发表于 2021-3-28 14:46:05 | 显示全部楼层
6666666666666666666
回复

使用道具 举报

0

主题

637

帖子

3347

积分

论坛元老

Rank: 8Rank: 8

积分
3347
发表于 2021-3-29 10:12:45 | 显示全部楼层
谢楼主分享
回复

使用道具 举报

0

主题

523

帖子

2570

积分

金牌会员

Rank: 6Rank: 6

积分
2570
发表于 2021-3-29 16:23:42 | 显示全部楼层
  谢谢楼主分享 楼主辛苦了
回复

使用道具 举报

您需要登录后才可以回帖 登录 | 立即注册

本版积分规则

QQ|Archiver|手机版|小黑屋|原盘天堂 好多盘 点击这里给我发消息

GMT+8, 2021-4-16 00:47 , Processed in 0.064179 second(s), 25 queries .

Powered by Discuz! X3.4

Copyright © 2001-2020, Tencent Cloud.

快速回复 返回顶部 返回列表