请选择 进入手机版 | 继续访问电脑版
本站Q群713428235【盘盘多】已满,请新会员加原盘天堂新官方QQ群709708625【好多盘】,验证信息填写您在论坛的会员名,不填会员名的无法入群哈,进群后修改您的群名片名字为您在论坛的会员名,请务必修改,否则群成员多了不知道您是哪个会员。

原盘天堂

 找回密码
 立即注册
京东商城当当华为商城名牌时尚折扣网,一个新型的网上购物平台,我们每周为您精选3~4个国际知名品牌,商品折扣低至2折限时限量售卖,商品囊括时装、护肤品、箱包、皮具、配饰、香水等等,琳琅满目。亿格瑞A10硬盘播放器 苏宁易购
查看: 212|回复: 16

2d蓝光原盘bdmv 黑钱飞机 英语原版 money.plane.2020.1080p.bluray.avc.dd5.1[16.49 GB]

[复制链接]

5851

主题

6475

帖子

132万

积分

管理员

Rank: 18Rank: 18Rank: 18Rank: 18Rank: 18

积分
1327882
发表于 2021-3-27 08:27:20 | 显示全部楼层 |阅读模式








黑钱飞机 Money Plane (2020)

导演: 安德鲁·劳伦斯
编剧: 安德鲁·劳伦斯 / 泰勒·科尼
主演: 丹妮丝·理查兹 / 托马斯·简 / 马修·劳伦斯 / 凯尔希·格兰莫 Kelsey Grammer / 约瑟夫·劳伦斯 / 更多...
类型: 动作
制片国家/地区: 美国
语言: 英语
上映日期: 2020-07-10(美国)
片长: 82分钟。。

豆瓣评分
3.7
100人评价
5星 2.5%
4星 1.2%
3星 21.0%
2星 30.9%
1星 44.4%

剧情简介 · · · · · ·
  A professional thief with $40 million in debt and his family's life on the line must commit one final heist - rob a futuristic airborne casino filled with the world's most dangerous criminals.

      一个背负着4000万美元债务的职业窃贼和他的家人必须进行最后一次抢劫--抢劫一个充满世界上最危险罪犯的未来主义的空中赌场。

DISC INFO:

Disc Title:     Money.Plane.2020.1080p.BluRay.AVC.DD.5.1-FGT
Disc Size:      17,707,789,184 bytes
Protection:     AACS
BDInfo:         0.7.5.9 (compatible layout created by DVDFab 12.0.2.0)

PLAYLIST REPORT:

Name:                   00007.MPLS  
Length:                 1:22:01.917 (h:m:s.ms)
Size:                   16,929,521,664 bytes
Total Bitrate:          27.52 Mbps

VIDEO:

Codec                   Bitrate             Description     
-----                   -------             -----------     
MPEG-4 AVC Video        25810 kbps          1080p / 23.976 fps / 16:9 / High Profile 4.1

AUDIO:

Codec                           Language        Bitrate         Description     
-----                           --------        -------         -----------     
Dolby Digital Audio             English         448 kbps        5.1 / 48 kHz / 448 kbps

SUBTITLES:

Codec                           Language        Bitrate         Description     
-----                           --------        -------         -----------     
Presentation Graphics           English         28.467 kbps      

Video
ID : 1
ID in the original source medium : 4113 (0x1011)
Format : AVC
Format/Info : Advanced Video Codec
Format profile : [email protected]
Format settings : CABAC / 3 Ref Frames
Format settings, CABAC : Yes
Format settings, Reference frames : 3 frames
Format settings, GOP : M=3, N=12
Codec ID : V_MPEG4/ISO/AVC
Duration : 1 h 22 min
Bit rate mode : Variable
Bit rate : 25.8 Mb/s
Maximum bit rate : 35.0 Mb/s
Width : 1 920 pixels
Height : 1 080 pixels
Display aspect ratio : 16:9
Frame rate mode : Constant
Frame rate : 23.976 (24000/1001) FPS
Standard : NTSC
Color space : YUV
Chroma subsampling : 4:2:0
Bit depth : 8 bits
Scan type : Progressive
Bits/(Pixel*Frame) : 0.519
Stream size : 14.8 GiB (98%)
Language : English
Default : No
Forced : No
Color range : Limited
Color primaries : BT.709
Transfer characteristics : BT.709
Matrix coefficients : BT.709
Original source medium : Blu-ray

Audio
ID : 2
ID in the original source medium : 4352 (0x1100)
Format : AC-3
Format/Info : Audio Coding 3
Commercial name : Dolby Digital
Codec ID : A_AC3
Duration : 1 h 22 min
Bit rate mode : Constant
Bit rate : 448 kb/s
Channel(s) : 6 channels
Channel layout : L R C LFE Ls Rs
Sampling rate : 48.0 kHz
Frame rate : 31.250 FPS (1536 SPF)
Compression mode : Lossy
Stream size : 263 MiB (2%)
Title : DD 5.1
Language : English
Service kind : Complete Main
Default : Yes
Forced : No
Original source medium : Blu-ray

Text #1
ID : 3
Format : UTF-8
Codec ID : S_TEXT/UTF8
Codec ID/Info : UTF-8 Plain Text
Duration : 1 h 19 min
Bit rate : 51 b/s
Count of elements : 1005
Stream size : 30.2 KiB (0%)
Title : SRT
Language : English
Default : Yes
Forced : No

Text #2
ID : 4
ID in the original source medium : 4608 (0x1200)
Format : PGS
Muxing mode : zlib
Codec ID : S_HDMV/PGS
Codec ID/Info : Picture based subtitle format used on BDs/HD-DVDs
Duration : 1 h 20 min
Bit rate : 28.9 kb/s
Count of elements : 2445
Stream size : 16.7 MiB (0%)
Language : English
Default : No
Forced : No
Original source medium : Blu-ray

Menu
00:00:00.000 : en:Chapter 01
00:04:41.364 : en:Chapter 02
00:10:59.867 : en:Chapter 03
00:16:12.805 : en:Chapter 04
00:20:46.828 : en:Chapter 05
00:24:28.967 : en:Chapter 06
00:30:19.067 : en:Chapter 07
00:35:18.991 : en:Chapter 08
00:40:27.550 : en:Chapter 09
00:44:51.438 : en:Chapter 10
00:49:54.282 : en:Chapter 11
00:54:47.325 : en:Chapter 12
01:00:00.930 : en:Chapter 13
01:05:41.270 : en:Chapter 14
01:11:09.556 : en:Chapter 15
01:17:47.579 : en:Chapter 16

本帖子中包含更多资源

您需要 登录 才可以下载或查看,没有帐号?立即注册

x
回复

使用道具 举报

0

主题

255

帖子

1311

积分

金牌会员

Rank: 6Rank: 6

积分
1311
发表于 2021-3-27 09:03:23 | 显示全部楼层
沙发  沙发  沙发  沙发
回复

使用道具 举报

0

主题

53

帖子

472

积分

中级会员

Rank: 3Rank: 3

积分
472
发表于 2021-3-27 11:29:01 | 显示全部楼层
好东西!
回复

使用道具 举报

0

主题

25

帖子

232

积分

中级会员

Rank: 3Rank: 3

积分
232
发表于 2021-3-27 17:49:58 | 显示全部楼层
看看
回复

使用道具 举报

0

主题

697

帖子

3513

积分

论坛元老

Rank: 8Rank: 8

积分
3513
发表于 2021-3-27 19:12:07 | 显示全部楼层

谢谢楼主分享 楼主辛苦了
回复

使用道具 举报

0

主题

523

帖子

2570

积分

金牌会员

Rank: 6Rank: 6

积分
2570
发表于 2021-3-27 20:46:39 | 显示全部楼层
谢谢楼主分享 楼主辛苦了
回复

使用道具 举报

0

主题

250

帖子

1191

积分

金牌会员

Rank: 6Rank: 6

积分
1191
发表于 2021-3-27 23:04:19 | 显示全部楼层
xiexielouzhufenxiang
回复

使用道具 举报

0

主题

173

帖子

1221

积分

金牌会员

Rank: 6Rank: 6

积分
1221
发表于 2021-3-28 07:05:31 | 显示全部楼层
谢谢楼主分享 楼主辛苦了
回复

使用道具 举报

0

主题

337

帖子

1787

积分

金牌会员

Rank: 6Rank: 6

积分
1787
发表于 2021-3-28 07:14:01 | 显示全部楼层
版主辛苦,感谢分享。
回复

使用道具 举报

0

主题

1123

帖子

8440

积分

VIP永久

Rank: 12Rank: 12Rank: 12

积分
8440
发表于 2021-3-28 12:19:46 | 显示全部楼层
谢谢楼主分享!!!!
回复

使用道具 举报

您需要登录后才可以回帖 登录 | 立即注册

本版积分规则

QQ|Archiver|手机版|小黑屋|原盘天堂 好多盘 点击这里给我发消息

GMT+8, 2021-4-16 01:42 , Processed in 0.065421 second(s), 25 queries .

Powered by Discuz! X3.4

Copyright © 2001-2020, Tencent Cloud.

快速回复 返回顶部 返回列表