请选择 进入手机版 | 继续访问电脑版
本站Q群713428235【盘盘多】已满,请新会员加原盘天堂新官方QQ群709708625【好多盘】,验证信息填写您在论坛的会员名,不填会员名的无法入群哈,进群后修改您的群名片名字为您在论坛的会员名,请务必修改,否则群成员多了不知道您是哪个会员。

原盘天堂

 找回密码
 立即注册
京东商城当当华为商城名牌时尚折扣网,一个新型的网上购物平台,我们每周为您精选3~4个国际知名品牌,商品折扣低至2折限时限量售卖,商品囊括时装、护肤品、箱包、皮具、配饰、香水等等,琳琅满目。亿格瑞A10硬盘播放器 苏宁易购
查看: 190|回复: 11

2d蓝光原盘bdmv 堡内怪胎 英语原版 castle.freak.2020.1080p.bluray.avc.dts-hd.ma.5.1[17.44 GB]

[复制链接]

5851

主题

6475

帖子

132万

积分

管理员

Rank: 18Rank: 18Rank: 18Rank: 18Rank: 18

积分
1327882
发表于 2021-3-26 21:55:50 | 显示全部楼层 |阅读模式






堡内怪胎 Castle Freak (2020)

导演: 泰特·施泰因西克
编剧: Kathy Charles
主演: 克里斯·加卢斯特 / 艾米丽·斯威特 / 基卡·马加良斯
类型: 恐怖
制片国家/地区: 美国
语言: 英语
上映日期: 2020-01-20(DVD premiere) / 2020-12-04(internet)
片长: 106分钟

豆瓣评分
4.6
148人评价
5星 4.1%
4星 7.3%
3星 30.1%
2星 30.1%
1星 28.5%

剧情简介 · · · · · ·
  Cinestate's Castle Freak reboot based on H.P. Lovecraft's story The Outsider.

DISC INFO:

Disc Title:     Castle.Freak.2020.1080p.BluRay.AVC.DTS-HD.MA.5.1-FGT
Disc Size:      18,721,526,169 bytes
Protection:     AACS
BDInfo:         0.7.5.9 (compatible layout created by DVDFab 12.0.2.0)

PLAYLIST REPORT:

Name:                   00005.MPLS  
Length:                 1:45:39.374 (h:m:s.ms)
Size:                   18,405,758,976 bytes
Total Bitrate:          23.23 Mbps

VIDEO:

Codec                   Bitrate             Description     
-----                   -------             -----------     
MPEG-4 AVC Video        20001 kbps          1080p / 23.976 fps / 16:9 / High Profile 4.1

AUDIO:

Codec                           Language        Bitrate         Description     
-----                           --------        -------         -----------     
DTS-HD Master Audio             English         1864 kbps       5.1 / 48 kHz / 1864 kbps / 16-bit (DTS Core: 5.1 / 48 kHz / 1509 kbps / 16-bit)

SUBTITLES:

Codec                           Language        Bitrate         Description     
-----                           --------        -------         -----------     
Presentation Graphics           English         35.144 kbps                     
Presentation Graphics           Spanish         26.532 kbps                     
Presentation Graphics           French          27.987 kbps     

Video
ID : 1
ID in the original source medium : 4113 (0x1011)
Format : AVC
Format/Info : Advanced Video Codec
Format profile : [email protected]
Format settings : CABAC / 4 Ref Frames
Format settings, CABAC : Yes
Format settings, Reference frames : 4 frames
Codec ID : V_MPEG4/ISO/AVC
Duration : 1 h 45 min
Bit rate mode : Variable
Bit rate : 20.0 Mb/s
Maximum bit rate : 35.0 Mb/s
Width : 1 920 pixels
Height : 1 080 pixels
Display aspect ratio : 16:9
Frame rate mode : Constant
Frame rate : 23.976 (24000/1001) FPS
Standard : NTSC
Color space : YUV
Chroma subsampling : 4:2:0
Bit depth : 8 bits
Scan type : Progressive
Bits/(Pixel*Frame) : 0.402
Stream size : 14.8 GiB (91%)
Language : English
Default : No
Forced : No
Color range : Limited
Color primaries : BT.709
Transfer characteristics : BT.709
Matrix coefficients : BT.709
Original source medium : Blu-ray

Audio
ID : 2
ID in the original source medium : 4352 (0x1100)
Format : DTS XLL
Format/Info : Digital Theater Systems
Commercial name : DTS-HD Master Audio
Codec ID : A_DTS
Duration : 1 h 45 min
Bit rate mode : Variable
Bit rate : 1 864 kb/s
Channel(s) : 6 channels
Channel layout : C L R Ls Rs LFE
Sampling rate : 48.0 kHz
Frame rate : 93.750 FPS (512 SPF)
Bit depth : 16 bits
Compression mode : Lossless
Stream size : 1.38 GiB (9%)
Title : DTS-HD MA 5.1
Language : English
Default : Yes
Forced : No
Original source medium : Blu-ray

Text #1
ID : 3
Format : UTF-8
Codec ID : S_TEXT/UTF8
Codec ID/Info : UTF-8 Plain Text
Duration : 1 h 42 min
Bit rate : 45 b/s
Count of elements : 1298
Stream size : 34.6 KiB (0%)
Title : SRT
Language : English
Default : Yes
Forced : No

Text #2
ID : 4
ID in the original source medium : 4608 (0x1200)
Format : PGS
Muxing mode : zlib
Codec ID : S_HDMV/PGS
Codec ID/Info : Picture based subtitle format used on BDs/HD-DVDs
Duration : 1 h 43 min
Bit rate : 35.8 kb/s
Count of elements : 2698
Stream size : 26.6 MiB (0%)
Language : English
Default : No
Forced : No
Original source medium : Blu-ray

Text #3
ID : 5
ID in the original source medium : 4609 (0x1201)
Format : PGS
Muxing mode : zlib
Codec ID : S_HDMV/PGS
Codec ID/Info : Picture based subtitle format used on BDs/HD-DVDs
Duration : 1 h 41 min
Bit rate : 27.7 kb/s
Count of elements : 2168
Stream size : 20.1 MiB (0%)
Language : Spanish
Default : No
Forced : No
Original source medium : Blu-ray

Text #4
ID : 6
ID in the original source medium : 4610 (0x1202)
Format : PGS
Muxing mode : zlib
Codec ID : S_HDMV/PGS
Codec ID/Info : Picture based subtitle format used on BDs/HD-DVDs
Duration : 1 h 41 min
Bit rate : 29.2 kb/s
Count of elements : 2180
Stream size : 21.1 MiB (0%)
Language : French
Default : No
Forced : No
Original source medium : Blu-ray

Menu
00:00:00.000 : en:Chapter 01
00:11:21.514 : en:Chapter 02
00:22:59.586 : en:Chapter 03
00:37:27.036 : en:Chapter 04
00:48:23.775 : en:Chapter 05
00:59:36.781 : en:Chapter 06
01:10:43.656 : en:Chapter 07
01:23:10.360 : en:Chapter 08
01:35:04.198 : en:Chapter 09
      

本帖子中包含更多资源

您需要 登录 才可以下载或查看,没有帐号?立即注册

x
回复

使用道具 举报

0

主题

1123

帖子

8440

积分

VIP永久

Rank: 12Rank: 12Rank: 12

积分
8440
发表于 2021-3-26 22:49:07 | 显示全部楼层
什么内容啊?
回复

使用道具 举报

0

主题

65

帖子

401

积分

中级会员

Rank: 3Rank: 3

积分
401
发表于 2021-3-27 09:02:56 | 显示全部楼层
谢谢楼主分享
回复

使用道具 举报

0

主题

255

帖子

1311

积分

金牌会员

Rank: 6Rank: 6

积分
1311
发表于 2021-3-27 09:04:30 | 显示全部楼层
地板  地板  地板
回复

使用道具 举报

0

主题

697

帖子

3513

积分

论坛元老

Rank: 8Rank: 8

积分
3513
发表于 2021-3-27 19:13:52 | 显示全部楼层
谢谢楼主分享 楼主辛苦了
回复

使用道具 举报

0

主题

523

帖子

2570

积分

金牌会员

Rank: 6Rank: 6

积分
2570
发表于 2021-3-27 20:47:40 | 显示全部楼层
谢谢楼主分享 楼主辛苦了
回复

使用道具 举报

0

主题

250

帖子

1191

积分

金牌会员

Rank: 6Rank: 6

积分
1191
发表于 2021-3-27 23:05:25 | 显示全部楼层
xiexiefenxiang
回复

使用道具 举报

0

主题

337

帖子

1787

积分

金牌会员

Rank: 6Rank: 6

积分
1787
发表于 2021-3-28 07:15:04 | 显示全部楼层
好资源,膜拜版主。
回复

使用道具 举报

0

主题

255

帖子

1311

积分

金牌会员

Rank: 6Rank: 6

积分
1311
发表于 2021-3-28 14:55:30 | 显示全部楼层
回复

使用道具 举报

0

主题

637

帖子

3347

积分

论坛元老

Rank: 8Rank: 8

积分
3347
发表于 2021-3-29 10:18:10 | 显示全部楼层
谢楼主分享
回复

使用道具 举报

您需要登录后才可以回帖 登录 | 立即注册

本版积分规则

QQ|Archiver|手机版|小黑屋|原盘天堂 好多盘 点击这里给我发消息

GMT+8, 2021-4-16 00:36 , Processed in 0.061214 second(s), 25 queries .

Powered by Discuz! X3.4

Copyright © 2001-2020, Tencent Cloud.

快速回复 返回顶部 返回列表