请选择 进入手机版 | 继续访问电脑版
本站Q群713428235【盘盘多】已满,请新会员加原盘天堂新官方QQ群709708625【好多盘】,验证信息填写您在论坛的会员名,不填会员名的无法入群哈,进群后修改您的群名片名字为您在论坛的会员名,请务必修改,否则群成员多了不知道您是哪个会员。

原盘天堂

 找回密码
 立即注册
京东商城当当华为商城名牌时尚折扣网,一个新型的网上购物平台,我们每周为您精选3~4个国际知名品牌,商品折扣低至2折限时限量售卖,商品囊括时装、护肤品、箱包、皮具、配饰、香水等等,琳琅满目。亿格瑞A10硬盘播放器 苏宁易购
查看: 187|回复: 7

2d蓝光原盘remux 龙骑士 英语原版[16.56 gb]dragon.rider.2020.1080p.bluray.remux.avc.dts-hr.5.1[16.56 GB]

[复制链接]

5851

主题

6475

帖子

132万

积分

管理员

Rank: 18Rank: 18Rank: 18Rank: 18Rank: 18

积分
1327882
发表于 2021-3-25 10:11:28 | 显示全部楼层 |阅读模式




龙骑士 Dragon Rider (2020)

导演: 托默·埃希德
编剧: 柯奈莉亚·冯克 / 约翰·R·史密斯
主演: 托马斯·布罗迪-桑斯特 / 菲丽希缇·琼斯 / 弗莱迪·海默 / 帕特里克·斯图尔特 / 桑吉夫·巴哈斯卡 / 更多...
类型: 动画 / 冒险
制片国家/地区: 德国
语言: 英语
上映日期: 2020-10-15(德国) / 2021-02-12(英国)
片长: 100分钟
又名: 银龙出任务(台)

剧情简介 · · · · · ·
  菲丽希缇·琼斯、托马斯·布罗迪-桑斯特、帕特里克·斯图尔特、弗莱迪·海默等将为动画电影[龙骑士](Dragon Rider,暂译)献声。该片将由托马·艾许执导,根据科妮莉亚·凡克同名畅销小说改编,约翰·史密斯操刀剧本。影片讲述了年轻银龙Firedrake、山神Sorrel、孤儿Ben,在喜马拉雅山脉寻找着天堂边缘,它可以为银龙的亲属们提供避难所,因为它们原本的山谷因一座水坝而无法居住了。本片将于2019年秋天上映。


Video
ID : 1
Format : AVC
Format/Info : Advanced Video Codec
Format profile : [email protected]
Format settings : CABAC / 3 Ref Frames
Format settings, CABAC : Yes
Format settings, Reference frames : 3 frames
Codec ID : V_MPEG4/ISO/AVC
Duration : 1 h 31 min
Bit rate mode : Variable
Bit rate : 23.9 Mb/s
Maximum bit rate : 30.0 Mb/s
Width : 1 920 pixels
Height : 1 080 pixels
Display aspect ratio : 16:9
Frame rate mode : Constant
Frame rate : 23.976 (24000/1001) FPS
Color space : YUV
Chroma subsampling : 4:2:0
Bit depth : 8 bits
Scan type : Progressive
Bits/(Pixel*Frame) : 0.480
Stream size : 15.2 GiB (92%)
Language : English
Default : No
Forced : No

Audio
ID : 2
Format : DTS XBR
Format/Info : Digital Theater Systems
Commercial name : DTS-HD High Resolution Audio
Codec ID : A_DTS
Duration : 1 h 31 min
Bit rate mode : Constant
Bit rate : 2 046 kb/s
Channel(s) : 6 channels
Channel layout : C L R Ls Rs LFE
Sampling rate : 48.0 kHz
Frame rate : 93.750 FPS (512 SPF)
Bit depth : 24 bits
Compression mode : Lossy
Stream size : 1.31 GiB (8%)
Title : DTS-HR 5.1
Language : English
Default : Yes
Forced : No

Text #1
ID : 3
Format : UTF-8
Codec ID : S_TEXT/UTF8
Codec ID/Info : UTF-8 Plain Text
Duration : 1 h 30 min
Bit rate : 53 b/s
Count of elements : 1266
Stream size : 35.3 KiB (0%)
Title : English-SRT
Language : English
Default : Yes
Forced : No

Text #2
ID : 4
Format : UTF-8
Codec ID : S_TEXT/UTF8
Codec ID/Info : UTF-8 Plain Text
Duration : 1 h 30 min
Bit rate : 69 b/s
Count of elements : 1624
Stream size : 45.7 KiB (0%)
Title : English-SDH-SRT
Language : English
Default : No
Forced : No

Text #3
ID : 5
Format : PGS
Muxing mode : zlib
Codec ID : S_HDMV/PGS
Codec ID/Info : Picture based subtitle format used on BDs/HD-DVDs
Duration : 1 h 30 min
Bit rate : 51.8 kb/s
Count of elements : 3250
Stream size : 33.5 MiB (0%)
Title : English-PGS
Language : English
Default : No
Forced : No

Menu
00:00:00.000 : en:Chapter 01
00:05:00.174 : en:Chapter 02
00:10:01.559 : en:Chapter 03
00:17:30.424 : en:Chapter 04
00:22:46.573 : en:Chapter 05
00:27:14.132 : en:Chapter 06
00:34:10.840 : en:Chapter 07
00:41:48.005 : en:Chapter 08
00:46:18.108 : en:Chapter 09
00:53:55.065 : en:Chapter 10
01:01:47.286 : en:Chapter 11
01:08:19.095 : en:Chapter 12
01:14:47.065 : en:Chapter 13
01:18:31.289 : en:Chapter 14
01:24:46.873 : en:Chapter 15

本帖子中包含更多资源

您需要 登录 才可以下载或查看,没有帐号?立即注册

x
回复

使用道具 举报

0

主题

697

帖子

3513

积分

论坛元老

Rank: 8Rank: 8

积分
3513
发表于 2021-3-25 10:25:16 | 显示全部楼层
谢谢楼主分享 楼主辛苦了
回复

使用道具 举报

0

主题

637

帖子

3347

积分

论坛元老

Rank: 8Rank: 8

积分
3347
发表于 2021-3-25 11:01:00 | 显示全部楼层
谢谢楼主
回复

使用道具 举报

0

主题

523

帖子

2570

积分

金牌会员

Rank: 6Rank: 6

积分
2570
发表于 2021-3-25 19:45:39 | 显示全部楼层
谢谢楼主分享 楼主辛苦了
回复

使用道具 举报

0

主题

255

帖子

1311

积分

金牌会员

Rank: 6Rank: 6

积分
1311
发表于 2021-3-25 21:38:00 | 显示全部楼层

谢谢楼主分享 楼主辛苦了
回复

使用道具 举报

0

主题

250

帖子

1191

积分

金牌会员

Rank: 6Rank: 6

积分
1191
发表于 2021-3-26 16:52:53 | 显示全部楼层
xiexielouzhufenxiang
回复

使用道具 举报

0

主题

637

帖子

3347

积分

论坛元老

Rank: 8Rank: 8

积分
3347
发表于 2021-3-26 17:24:41 | 显示全部楼层
谢楼主分享
回复

使用道具 举报

0

主题

523

帖子

2570

积分

金牌会员

Rank: 6Rank: 6

积分
2570
发表于 2021-3-27 20:56:22 | 显示全部楼层
谢谢楼主分享 楼主辛苦了
回复

使用道具 举报

您需要登录后才可以回帖 登录 | 立即注册

本版积分规则

QQ|Archiver|手机版|小黑屋|原盘天堂 好多盘 点击这里给我发消息

GMT+8, 2021-4-16 01:20 , Processed in 0.060348 second(s), 25 queries .

Powered by Discuz! X3.4

Copyright © 2001-2020, Tencent Cloud.

快速回复 返回顶部 返回列表