请选择 进入手机版 | 继续访问电脑版
本站Q群713428235【盘盘多】已满,请新会员加原盘天堂新官方QQ群709708625【好多盘】,验证信息填写您在论坛的会员名,不填会员名的无法入群哈,进群后修改您的群名片名字为您在论坛的会员名,请务必修改,否则群成员多了不知道您是哪个会员。

原盘天堂

 找回密码
 立即注册
京东商城当当华为商城名牌时尚折扣网,一个新型的网上购物平台,我们每周为您精选3~4个国际知名品牌,商品折扣低至2折限时限量售卖,商品囊括时装、护肤品、箱包、皮具、配饰、香水等等,琳琅满目。亿格瑞A10硬盘播放器 苏宁易购
查看: 117|回复: 9

2d蓝光原盘bdmv 前程似锦的女孩 英语原版 promising.young.woman.2020.1080p.bluray.avc.dts-hd.ma.7.1[37.51 GB]

[复制链接]

5851

主题

6475

帖子

132万

积分

管理员

Rank: 18Rank: 18Rank: 18Rank: 18Rank: 18

积分
1327882
发表于 2021-3-21 10:03:28 | 显示全部楼层 |阅读模式








前程似锦的女孩 Promising Young Woman (2020)

导演: 埃默拉尔德·芬内尔
编剧: 埃默拉尔德·芬内尔
主演: 凯瑞·穆里根 / 博·伯翰 / 爱丽森·布里 / 拉弗恩·考克斯 / 克兰西·布朗 / 更多...
类型: 剧情 / 惊悚 / 犯罪
制片国家/地区: 英国 / 美国
语言: 英语
上映日期: 2020-01-25(圣丹斯电影节) / 2020-12-25(美国)
片长: 113分钟
又名: 花漾女子(台) / 有前途的年轻女子

豆瓣评分
7.5
23216人评价
5星 17.9%
4星 45.3%
3星 31.3%
2星 4.6%
1星 1.0%
好于 70% 犯罪片
好于 51% 剧情片

剧情简介 · · · · · ·
  卡桑德拉(凯瑞·穆里根 Carey Mulligan 饰)曾是医学院里前途无量的高材生,却因为朋友的自杀而选择了退学。白天,卡桑德拉在咖啡店里打零工,而每当夜幕降临,她都会换上一身性感的装扮,出没于城市里各间声色犬马的夜总会之中,她会假扮成醉酒的样子,等待着某个“善良”的男人将她带回自己家中,由此来实行她对于男人的无伤大雅的报复。
  一天,卡桑德拉在咖啡店里和曾经的同学雷恩(博·伯翰 Bo Burnham 饰)重逢了,雷恩之后开始了对前者的热烈追求。雷恩的出现再次勾起了卡桑德拉对于学生时代悲惨经历的回忆,当她得知曾经造成自己好友死亡的罪魁祸首们如今都过上了各自精彩的人生后,复仇的火苗在内心里愈演愈烈。

前程似锦的女孩 Promising Young Woman 获奖情况
第93届奥斯卡金像奖  (2021)
最佳影片(提名) 乔西·麦克纳马拉 / 埃默拉尔德·芬内尔 / 阿什莉·福克斯 / 本·布朗宁
最佳导演(提名) 埃默拉尔德·芬内尔
最佳女主角(提名) 凯瑞·穆里根
最佳原创剧本(提名) 埃默拉尔德·芬内尔
最佳剪辑(提名) 弗雷德里克·托拉瓦尔
第78届金球奖  (2021)
电影类 最佳剧情片(提名)
电影类 最佳导演(提名) 埃默拉尔德·芬内尔
电影类 剧情片最佳女主角(提名) 凯瑞·穆里根
电影类 最佳编剧(提名) 埃默拉尔德·芬内尔
第74届英国电影学院奖  (2021)
电影奖 最佳影片(提名)
电影奖 最佳英国影片(提名) 埃默拉尔德·芬内尔
电影奖 最佳原创剧本(提名)
电影奖 最佳剪辑(提名)
电影奖 最佳原创配乐(提名)
电影奖 最佳选角(提名)
第27届美国演员工会奖  (2021)
电影奖 最佳女主角(提名) 凯瑞·穆里根
第32届美国制片人工会奖  (2021)
最佳电影制片人奖(提名)
第25届美国艺术指导工会奖  (2021)
电影奖 最佳当代电影艺术指导(提名) 迈克尔·佩里
第23届美国服装设计工会奖  (2021)
现代电影最佳服装设计(提名) 南西·斯坦纳
第92届美国国家评论协会奖  (2020)
最佳女主角 凯瑞·穆里根
年度佳片
第26届美国评论家选择电影奖  (2021)
最佳影片(提名)
最佳导演(提名) 埃默拉尔德·芬内尔
最佳女主角 凯瑞·穆里根
最佳原创剧本 埃默拉尔德·芬内尔
最佳服装设计(提名) 南西·斯坦纳
最佳发型化妆(提名)
第25届金卫星奖  (2021)
电影部门 最佳剧情片(提名)
电影部门 剧情片最佳女主角(提名) 凯瑞·穆里根
电影部门 最佳原创剧本(提名) 埃默拉尔德·芬内尔
作者导演奖 埃默拉尔德·芬内尔
第41届伦敦影评人协会奖  (2021)
年度电影(提名)
年度女主角(提名) 凯瑞·穆里根
年度英国/爱尔兰女演员(提名) 凯瑞·穆里根
年度突破英国/爱尔兰电影人(提名) 埃默拉尔德·芬内尔
第46届洛杉矶影评人协会奖  (2020)
最佳女主角 凯瑞·穆里根
最佳剧本 埃默拉尔德·芬内尔
第33届芝加哥影评人协会奖  (2020)
最佳影片(提名)
最佳导演(提名) 埃默拉尔德·芬内尔
最佳女主角(提名) 凯瑞·穆里根
最佳原创剧本(提名) 埃默拉尔德·芬内尔
最具突破导演(米洛斯·斯泰利克奖) 埃默拉尔德·芬内尔
第5届亚特兰大影评人协会奖  (2020)
十佳影片
最佳导演(提名) 埃默拉尔德·芬内尔
最佳女主角 凯瑞·穆里根
最佳编剧 埃默拉尔德·芬内尔
最佳处女作 埃默拉尔德·芬内尔
第24届美国在线影评人协会奖  (2021)
最佳影片(提名)
最佳导演(提名) 埃默拉尔德·芬内尔
最佳女主角(提名) 凯瑞·穆里根
最佳原创剧本 埃默拉尔德·芬内尔
最佳突破导演 埃默拉尔德·芬内尔

DISC INFO:

Disc Title:     Promising.Young.Woman.2020.1080p.BluRay.AVC.DTS-HD.MA.7.1-FGT
Disc Size:      40,273,729,489 bytes
Protection:     AACS
Extras:         BD-Java
BDInfo:         0.7.5.9 (compatible layout created by DVDFab 12.0.2.0)

PLAYLIST REPORT:

Name:                   00800.MPLS  
Length:                 1:53:28.301 (h:m:s.ms)
Size:                   36,244,500,480 bytes
Total Bitrate:          42.59 Mbps

VIDEO:

Codec                   Bitrate             Description     
-----                   -------             -----------     
MPEG-4 AVC Video        31988 kbps          1080p / 23.976 fps / 16:9 / High Profile 4.1

AUDIO:

Codec                           Language        Bitrate         Description     
-----                           --------        -------         -----------     
DTS-HD Master Audio             English         4892 kbps       7.1 / 48 kHz / 4892 kbps / 24-bit (DTS Core: 5.1 / 48 kHz / 1509 kbps / 24-bit)
DTS-HD High-Res Audio           Spanish         2046 kbps       7.1 / 48 kHz / 2046 kbps / 24-bit (DTS Core: 5.1 / 48 kHz / 1509 kbps / 24-bit)
DTS Audio                       French          768 kbps        5.1 / 48 kHz / 768 kbps / 24-bit
Dolby Digital Audio             English         192 kbps        2.0 / 48 kHz / 192 kbps / Dolby Surround
Dolby Digital Audio             English         192 kbps        2.0 / 48 kHz / 192 kbps

SUBTITLES:

Codec                           Language        Bitrate         Description     
-----                           --------        -------         -----------     
Presentation Graphics           English         48.892 kbps                     
Presentation Graphics           Spanish         41.59 kbps                     
Presentation Graphics           French          40.99 kbps                     
Presentation Graphics           Spanish         0.042 kbps                     
Presentation Graphics           French          0.463 kbps   

Video
ID : 1
ID in the original source medium : 4113 (0x1011)
Format : AVC
Format/Info : Advanced Video Codec
Format profile : [email protected]
Format settings : CABAC / 4 Ref Frames
Format settings, CABAC : Yes
Format settings, Reference frames : 4 frames
Format settings, GOP : M=3, N=12
Codec ID : V_MPEG4/ISO/AVC
Duration : 1 h 53 min
Bit rate mode : Variable
Bit rate : 31.9 Mb/s
Maximum bit rate : 35.5 Mb/s
Width : 1 920 pixels
Height : 1 080 pixels
Display aspect ratio : 16:9
Frame rate mode : Constant
Frame rate : 23.976 (24000/1001) FPS
Color space : YUV
Chroma subsampling : 4:2:0
Bit depth : 8 bits
Scan type : Progressive
Bits/(Pixel*Frame) : 0.641
Stream size : 25.3 GiB (80%)
Language : English
Default : No
Forced : No
Original source medium : Blu-ray

Audio #1
ID : 2
ID in the original source medium : 4352 (0x1100)
Format : DTS XLL
Format/Info : Digital Theater Systems
Commercial name : DTS-HD Master Audio
Codec ID : A_DTS
Duration : 1 h 53 min
Bit rate mode : Variable
Bit rate : 4 892 kb/s
Channel(s) : 8 channels
Channel layout : C L R LFE Lb Rb Lss Rss
Sampling rate : 48.0 kHz
Frame rate : 93.750 FPS (512 SPF)
Bit depth : 24 bits
Compression mode : Lossless
Stream size : 3.88 GiB (12%)
Title : DTS-HD MA 7.1
Language : English
Default : Yes
Forced : No
Original source medium : Blu-ray

Audio #2
ID : 3
ID in the original source medium : 4353 (0x1101)
Format : DTS XBR
Format/Info : Digital Theater Systems
Commercial name : DTS-HD High Resolution Audio
Codec ID : A_DTS
Duration : 1 h 53 min
Bit rate mode : Constant
Bit rate : 2 046 kb/s
Channel(s) : 8 channels
Channel layout : C L R LFE Lb Rb Lss Rss
Sampling rate : 48.0 kHz
Frame rate : 93.750 FPS (512 SPF)
Bit depth : 24 bits
Compression mode : Lossy
Stream size : 1.62 GiB (5%)
Title : DTS-HR 7.1
Language : Spanish
Default : No
Forced : No
Original source medium : Blu-ray

Audio #3
ID : 4
ID in the original source medium : 4354 (0x1102)
Format : DTS
Format/Info : Digital Theater Systems
Codec ID : A_DTS
Duration : 1 h 53 min
Bit rate mode : Constant
Bit rate : 768 kb/s
Channel(s) : 6 channels
Channel layout : C L R Ls Rs LFE
Sampling rate : 48.0 kHz
Frame rate : 93.750 FPS (512 SPF)
Bit depth : 24 bits
Compression mode : Lossy
Stream size : 623 MiB (2%)
Title : DTS 5.1
Language : French
Default : No
Forced : No
Original source medium : Blu-ray

Audio #4
ID : 5
ID in the original source medium : 4355 (0x1103)
Format : AC-3
Format/Info : Audio Coding 3
Commercial name : Dolby Digital
Codec ID : A_AC3
Duration : 1 h 53 min
Bit rate mode : Constant
Bit rate : 192 kb/s
Channel(s) : 2 channels
Channel layout : L R
Sampling rate : 48.0 kHz
Frame rate : 31.250 FPS (1536 SPF)
Compression mode : Lossy
Stream size : 156 MiB (0%)
Title : DD 2.0
Language : English
Service kind : Complete Main
Default : No
Forced : No
Original source medium : Blu-ray

Audio #5
ID : 6
ID in the original source medium : 4356 (0x1104)
Format : AC-3
Format/Info : Audio Coding 3
Commercial name : Dolby Digital
Codec ID : A_AC3
Duration : 1 h 53 min
Bit rate mode : Constant
Bit rate : 192 kb/s
Channel(s) : 2 channels
Channel layout : L R
Sampling rate : 48.0 kHz
Frame rate : 31.250 FPS (1536 SPF)
Compression mode : Lossy
Stream size : 156 MiB (0%)
Title : DD 2.0
Language : English
Service kind : Complete Main
Default : No
Forced : No
Original source medium : Blu-ray

Text #1
ID : 7
Format : UTF-8
Codec ID : S_TEXT/UTF8
Codec ID/Info : UTF-8 Plain Text
Duration : 1 h 48 min
Bit rate : 68 b/s
Count of elements : 1725
Stream size : 54.0 KiB (0%)
Title : English-SRT
Language : English
Default : Yes
Forced : No

Text #2
ID : 8
ID in the original source medium : 4608 (0x1200)
Format : PGS
Muxing mode : zlib
Codec ID : S_HDMV/PGS
Codec ID/Info : Picture based subtitle format used on BDs/HD-DVDs
Duration : 1 h 48 min
Bit rate : 51.2 kb/s
Count of elements : 3748
Stream size : 39.7 MiB (0%)
Title : English-PGS
Language : English
Default : No
Forced : No
Original source medium : Blu-ray

Text #3
ID : 9
ID in the original source medium : 4609 (0x1201)
Format : PGS
Muxing mode : zlib
Codec ID : S_HDMV/PGS
Codec ID/Info : Picture based subtitle format used on BDs/HD-DVDs
Duration : 1 h 52 min
Bit rate : 42.0 kb/s
Count of elements : 3626
Stream size : 33.8 MiB (0%)
Title : Spanish-PGS
Language : Spanish
Default : No
Forced : No
Original source medium : Blu-ray

Text #4
ID : 10
ID in the original source medium : 4610 (0x1202)
Format : PGS
Muxing mode : zlib
Codec ID : S_HDMV/PGS
Codec ID/Info : Picture based subtitle format used on BDs/HD-DVDs
Duration : 1 h 52 min
Bit rate : 41.4 kb/s
Count of elements : 3180
Stream size : 33.3 MiB (0%)
Title : French-PGS
Language : French
Default : No
Forced : No
Original source medium : Blu-ray

Text #5
ID : 11
ID in the original source medium : 4611 (0x1203)
Format : PGS
Muxing mode : zlib
Codec ID : S_HDMV/PGS
Codec ID/Info : Picture based subtitle format used on BDs/HD-DVDs
Duration : 1 h 46 min
Bit rate : 44 b/s
Count of elements : 4
Stream size : 34.6 KiB (0%)
Title : Spanish-FORCED-PGS
Language : Spanish
Default : No
Forced : No
Original source medium : Blu-ray

Text #6
ID : 12
ID in the original source medium : 4612 (0x1204)
Format : PGS
Muxing mode : zlib
Codec ID : S_HDMV/PGS
Codec ID/Info : Picture based subtitle format used on BDs/HD-DVDs
Duration : 1 h 46 min
Bit rate : 495 b/s
Count of elements : 34
Stream size : 385 KiB (0%)
Title : French-FORCED-PGS
Language : French
Default : No
Forced : No
Original source medium : Blu-ray

Menu
00:00:00.000 : en:Chapter 01
00:09:14.470 : en:Chapter 02
00:13:58.128 : en:Chapter 03
00:20:31.271 : en:Chapter 04
00:25:48.004 : en:Chapter 05
00:34:48.169 : en:Chapter 06
00:40:19.333 : en:Chapter 07
00:43:03.122 : en:Chapter 08
00:49:25.629 : en:Chapter 09
00:54:55.292 : en:Chapter 10
00:59:28.565 : en:Chapter 11
01:04:38.332 : en:Chapter 12
01:08:13.422 : en:Chapter 13
01:12:35.476 : en:Chapter 14
01:18:40.090 : en:Chapter 15
01:22:10.300 : en:Chapter 16
01:26:14.961 : en:Chapter 17
01:36:20.149 : en:Chapter 18
01:43:49.681 : en:Chapter 19
01:48:04.019 : en:Chapter 20

本帖子中包含更多资源

您需要 登录 才可以下载或查看,没有帐号?立即注册

x
回复

使用道具 举报

0

主题

697

帖子

3513

积分

论坛元老

Rank: 8Rank: 8

积分
3513
发表于 2021-3-21 13:42:02 | 显示全部楼层
谢谢楼主分享
回复

使用道具 举报

0

主题

99

帖子

386

积分

中级会员

Rank: 3Rank: 3

积分
386
发表于 2021-3-21 23:47:51 | 显示全部楼层
谢谢楼主分享!
回复

使用道具 举报

0

主题

637

帖子

3347

积分

论坛元老

Rank: 8Rank: 8

积分
3347
发表于 2021-3-22 10:53:57 | 显示全部楼层

谢楼主分享
回复

使用道具 举报

0

主题

637

帖子

3347

积分

论坛元老

Rank: 8Rank: 8

积分
3347
发表于 2021-3-22 10:56:39 | 显示全部楼层

谢楼主分享
回复

使用道具 举报

0

主题

250

帖子

1191

积分

金牌会员

Rank: 6Rank: 6

积分
1191
发表于 2021-3-22 17:59:34 | 显示全部楼层
xiexielouzhufenxiang
回复

使用道具 举报

0

主题

637

帖子

3347

积分

论坛元老

Rank: 8Rank: 8

积分
3347
发表于 2021-3-23 11:49:38 | 显示全部楼层
谢楼主分享
回复

使用道具 举报

0

主题

697

帖子

3513

积分

论坛元老

Rank: 8Rank: 8

积分
3513
发表于 2021-3-23 16:51:36 | 显示全部楼层
谢谢楼主分享 楼主辛苦了
回复

使用道具 举报

0

主题

523

帖子

2570

积分

金牌会员

Rank: 6Rank: 6

积分
2570
发表于 2021-3-23 21:04:00 | 显示全部楼层
谢谢楼主分享 楼主辛苦了
回复

使用道具 举报

0

主题

143

帖子

1573

积分

金牌会员

Rank: 6Rank: 6

积分
1573
发表于 2021-4-1 07:18:28 | 显示全部楼层
M蛮想看呢哈哈
回复

使用道具 举报

您需要登录后才可以回帖 登录 | 立即注册

本版积分规则

QQ|Archiver|手机版|小黑屋|原盘天堂 好多盘 点击这里给我发消息

GMT+8, 2021-4-16 01:35 , Processed in 0.062509 second(s), 25 queries .

Powered by Discuz! X3.4

Copyright © 2001-2020, Tencent Cloud.

快速回复 返回顶部 返回列表