请选择 进入手机版 | 继续访问电脑版
本站Q群713428235【盘盘多】已满,请新会员加原盘天堂新官方QQ群709708625【好多盘】,验证信息填写您在论坛的会员名,不填会员名的无法入群哈,进群后修改您的群名片名字为您在论坛的会员名,请务必修改,否则群成员多了不知道您是哪个会员。

原盘天堂

 找回密码
 立即注册
京东商城当当华为商城名牌时尚折扣网,一个新型的网上购物平台,我们每周为您精选3~4个国际知名品牌,商品折扣低至2折限时限量售卖,商品囊括时装、护肤品、箱包、皮具、配饰、香水等等,琳琅满目。亿格瑞A10硬盘播放器 苏宁易购
查看: 429|回复: 14

4k蓝光原盘bdmv 心灵奇旅 英语原版 soul.2020.2160p.bluray.hevc.truehd.7.1.atmos[59.52 GB]

[复制链接]

5851

主题

6475

帖子

132万

积分

管理员

Rank: 18Rank: 18Rank: 18Rank: 18Rank: 18

积分
1327882
发表于 2021-3-19 09:22:39 | 显示全部楼层 |阅读模式








心灵奇旅 Soul (2020)

导演: 彼特·道格特 / 凯普·鲍尔斯
编剧: 彼特·道格特 / 麦克·琼斯 / 凯普·鲍尔斯
主演: 杰米·福克斯 / 蒂娜·菲 / 菲利西亚·拉斯海德 / 阿米尔-卡利布·汤普森 / 戴维德·迪格斯 / 更多...
类型: 动画 / 音乐 / 奇幻
官方网站: https://movies.disney.com/soul
制片国家/地区: 美国
语言: 英语
上映日期: 2020-12-25(中国大陆/美国网络) / 2020-10-11(伦敦电影节)
片长: 101分钟
又名: 灵魂奇遇记(港) / 灵魂急转弯(台) / 灵魂 / 心灵

豆瓣评分
8.8
627922人评价
5星 53.6%
4星 35.8%
3星 9.7%
2星 0.7%
1星 0.2%
好于 93% 动画片
好于 97% 奇幻片

剧情简介 · · · · · ·
  究竟是什么塑造了真正的你?电影将聚焦乔伊·高纳(杰米·福克斯配音)。这位中学音乐老师获得了梦寐以求的机会——在纽约最好的爵士俱乐部演奏。但一个小失误把他从纽约的街道带到了一个奇幻的地方“生之来处”(the Great Before)。在那里,灵魂们获得培训,在前往地球之前将获得他们的个性特点和兴趣。决心要回到地球生活的乔伊认识了一个早熟的灵魂“二十二”(蒂娜·菲 配音),二十二一直找不到自己对于人类生活的兴趣。随着乔伊不断试图向二十二展示生命的精彩之处,他也将领悟一些人生终极问题的答案。

心灵奇旅 Soul 获奖情况
第93届奥斯卡金像奖  (2021)
最佳动画长片(提名) 彼特·道格特 / 戴娜·默里
最佳音响(提名) 伦·克斯 / 大卫·帕克 / 科亚·艾略特
最佳原创配乐(提名) 特伦特·雷诺 / 阿提喀斯·罗斯 / 乔纳森·巴蒂斯特
第73届戛纳电影节  (2020)
动画片(提名)
第78届金球奖  (2021)
电影类 最佳动画长片
电影类 最佳原创配乐
第74届英国电影学院奖  (2021)
电影奖 最佳动画片(提名) 凯普·鲍尔斯 / 彼特·道格特
电影奖 最佳原创配乐(提名)
电影奖 最佳音效(提名)
第32届美国制片人工会奖  (2021)
最佳动画片制片人奖(提名)
第25届美国艺术指导工会奖  (2021)
电影奖 最佳动画电影艺术指导(提名) 史蒂夫·皮尔彻
第68届美国音效剪辑协会奖  (2021)
金卷轴奖 最佳动画片音效剪辑(提名)
第19届美国视觉效果协会奖  (2021)
最佳动画电影视觉效果(提名)
最佳动画电影CG动画角色(提名)
最佳动画电影CG背景(提名)
最佳动画电影模拟动画效果(提名)
第92届美国国家评论协会奖  (2020)
最佳动画片
年度佳片
第26届美国评论家选择电影奖  (2021)
最佳配乐 特伦特·雷诺 / 阿提喀斯·罗斯 / 乔纳森·巴蒂斯特
第21届美国电影学会奖  (2020)
年度佳片
第25届金卫星奖  (2021)
电影部门 最佳动画片(提名)
电影部门 最佳原创剧本(提名) 麦克·琼斯 / 彼特·道格特 / 凯普·鲍尔斯
第41届伦敦影评人协会奖  (2021)
技术成就奖(提名) 彼特·道格特
第46届洛杉矶影评人协会奖  (2020)
最佳配乐 特伦特·雷诺 / 阿提喀斯·罗斯
最佳动画片(提名)
第33届芝加哥影评人协会奖  (2020)
最佳原创剧本(提名) 麦克·琼斯 / 彼特·道格特 / 凯普·鲍尔斯
最佳动画片(提名)
最佳原创配乐 特伦特·雷诺 / 阿提喀斯·罗斯 / 乔纳森·巴蒂斯特
第5届亚特兰大影评人协会奖  (2020)
十佳影片(提名)
最佳动画片
最佳原创配乐 特伦特·雷诺 / 阿提喀斯·罗斯
第24届美国在线影评人协会奖  (2021)
最佳影片(提名)
最佳原创配乐 特伦特·雷诺 / 阿提喀斯·罗斯
最佳动画片

DISC INFO:

Disc Title:     Soul.2020.2160p.BluRay.HEVC.TrueHD.7.1.Atmos-MT
Disc Size:      63,903,876,517 bytes
Protection:     AACS2
Extras:         Ultra HD, BD-Java
BDInfo:         0.7.5.9 (compatible layout created by DVDFab 12.0.2.0)

PLAYLIST REPORT:

Name:                   00800.MPLS  
Length:                 1:40:32.901 (h:m:s.ms)
Size:                   45,489,555,456 bytes
Total Bitrate:          60.32 Mbps

VIDEO:

Codec                   Bitrate             Description     
-----                   -------             -----------     
MPEG-H HEVC Video       46579 kbps          2160p / 23.976 fps / 16:9 / Main 10 @ Level 5.1 @ High / 4:2:0 / 10 bits / 1000nits / HDR10 / BT.2020

AUDIO:

Codec                           Language        Bitrate         Description     
-----                           --------        -------         -----------     
Dolby TrueHD/Atmos Audio        English         6403 kbps       7.1+13 objects / 48 kHz / 5763 kbps / 24-bit (AC3 Core: 5.1 / 48 kHz / 640 kbps)
Dolby Digital Plus Audio        English         1024 kbps       7.1 / 48 kHz / 1024 kbps (AC3 Core: 5.1 / 48 kHz / 576 kbps ( Core: 5.1 / 48 kHz / 576 kbps))
Dolby Digital Audio             English         640 kbps        5.1 / 48 kHz / 640 kbps
Dolby Digital Audio             English         320 kbps        2.0 / 48 kHz / 320 kbps
Dolby Digital Audio             English         320 kbps        2.0 / 48 kHz / 320 kbps
Dolby Digital Plus Audio        Spanish         1024 kbps       7.1 / 48 kHz / 1024 kbps (AC3 Core: 5.1 / 48 kHz / 576 kbps ( Core: 5.1 / 48 kHz / 576 kbps))

SUBTITLES:

Codec                           Language        Bitrate         Description     
-----                           --------        -------         -----------     
Presentation Graphics           English         51.145 kbps                     
Presentation Graphics           Spanish         40.086 kbps      

Video
ID : 1
ID in the original source medium : 4113 (0x1011)
Format : HEVC
Format/Info : High Efficiency Video Coding
Format profile : Main [email protected]@High
HDR format : SMPTE ST 2086, HDR10 compatible
Codec ID : V_MPEGH/ISO/HEVC
Duration : 1 h 40 min
Bit rate : 46.6 Mb/s
Width : 3 840 pixels
Height : 2 160 pixels
Display aspect ratio : 16:9
Frame rate mode : Constant
Frame rate : 23.976 (24000/1001) FPS
Color space : YUV
Chroma subsampling : 4:2:0 (Type 2)
Bit depth : 10 bits
Bits/(Pixel*Frame) : 0.234
Stream size : 32.7 GiB (75%)
Writing library : ATEME Titan File 3.9.6 (4.9.6.2)
Language : English
Default : No
Forced : No
Color range : Limited
Color primaries : BT.2020
Transfer characteristics : PQ
Matrix coefficients : BT.2020 non-constant
Mastering display color primaries : Display P3
Mastering display luminance : min: 0.0000 cd/m2, max: 1000 cd/m2
Original source medium : Blu-ray

Audio #1
ID : 2
ID in the original source medium : 4352 (0x1100)
Format : MLP FBA 16-ch
Format/Info : Meridian Lossless Packing FBA with 16-channel presentation
Commercial name : Dolby TrueHD with Dolby Atmos
Codec ID : A_TRUEHD
Duration : 1 h 40 min
Bit rate mode : Variable
Bit rate : 5 763 kb/s
Maximum bit rate : 9 087 kb/s
Channel(s) : 8 channels
Channel layout : L R C LFE Ls Rs Lb Rb
Sampling rate : 48.0 kHz
Frame rate : 1 200.000 FPS (40 SPF)
Compression mode : Lossless
Stream size : 4.05 GiB (9%)
Title : TrueHD 7.1 Atmos
Language : English
Default : Yes
Forced : No
Original source medium : Blu-ray
Number of dynamic objects : 13
Bed channel count : 1 channel
Bed channel configuration : LFE

Audio #2
ID : 3
Format : DTS XLL
Format/Info : Digital Theater Systems
Commercial name : DTS-HD Master Audio
Codec ID : A_DTS
Duration : 1 h 40 min
Bit rate mode : Variable
Bit rate : 4 316 kb/s
Channel(s) : 8 channels
Channel layout : C L R LFE Lb Rb Lss Rss
Sampling rate : 48.0 kHz
Frame rate : 93.750 FPS (512 SPF)
Bit depth : 24 bits
Compression mode : Lossless
Stream size : 3.03 GiB (7%)
Title : DTS-HD M A7.1
Language : English
Default : No
Forced : No

Audio #3
ID : 4
ID in the original source medium : 4352 (0x1100)
Format : AC-3
Format/Info : Audio Coding 3
Commercial name : Dolby Digital
Codec ID : A_AC3
Duration : 1 h 40 min
Bit rate mode : Constant
Bit rate : 640 kb/s
Channel(s) : 6 channels
Channel layout : L R C LFE Ls Rs
Sampling rate : 48.0 kHz
Frame rate : 31.250 FPS (1536 SPF)
Compression mode : Lossy
Stream size : 460 MiB (1%)
Title : DD 5.1
Language : English
Service kind : Complete Main
Default : No
Forced : No
Original source medium : Blu-ray

Audio #4
ID : 5
Format : E-AC-3
Format/Info : Enhanced AC-3
Commercial name : Dolby Digital Plus
Format profile : Blu-ray Disc
Codec ID : A_EAC3
Duration : 1 h 40 min
Bit rate mode : Constant
Bit rate : 1 024 kb/s
Channel(s) : 8 channels
Channel layout : L R C LFE Ls Rs Lb Rb
Sampling rate : 48.0 kHz
Frame rate : 31.250 FPS (1536 SPF)
Compression mode : Lossy
Stream size : 736 MiB (2%)
Title : DDP 7.1
Language : English
Service kind : Complete Main
Default : No
Forced : No

Audio #5
ID : 6
ID in the original source medium : 4353 (0x1101)
Format : AC-3
Format/Info : Audio Coding 3
Commercial name : Dolby Digital
Codec ID : A_AC3
Duration : 1 h 40 min
Bit rate mode : Constant
Bit rate : 576 kb/s
Channel(s) : 6 channels
Channel layout : L R C LFE Ls Rs
Sampling rate : 48.0 kHz
Frame rate : 31.250 FPS (1536 SPF)
Compression mode : Lossy
Stream size : 414 MiB (1%)
Title : DD 5.1
Language : English
Service kind : Complete Main
Default : No
Forced : No
Original source medium : Blu-ray

Audio #6
ID : 7
ID in the original source medium : 4354 (0x1102)
Format : AC-3
Format/Info : Audio Coding 3
Commercial name : Dolby Digital
Codec ID : A_AC3
Duration : 1 h 40 min
Bit rate mode : Constant
Bit rate : 640 kb/s
Channel(s) : 6 channels
Channel layout : L R C LFE Ls Rs
Sampling rate : 48.0 kHz
Frame rate : 31.250 FPS (1536 SPF)
Compression mode : Lossy
Stream size : 460 MiB (1%)
Title : DD 5.1
Language : English
Service kind : Complete Main
Default : No
Forced : No
Original source medium : Blu-ray

Audio #7
ID : 8
ID in the original source medium : 4355 (0x1103)
Format : AC-3
Format/Info : Audio Coding 3
Commercial name : Dolby Digital
Codec ID : A_AC3
Duration : 1 h 40 min
Bit rate mode : Constant
Bit rate : 320 kb/s
Channel(s) : 2 channels
Channel layout : L R
Sampling rate : 48.0 kHz
Frame rate : 31.250 FPS (1536 SPF)
Compression mode : Lossy
Stream size : 230 MiB (1%)
Title : DD 2.0
Language : English
Service kind : Complete Main
Default : No
Forced : No
Original source medium : Blu-ray

Audio #8
ID : 9
ID in the original source medium : 4356 (0x1104)
Format : AC-3
Format/Info : Audio Coding 3
Commercial name : Dolby Digital
Codec ID : A_AC3
Duration : 1 h 40 min
Bit rate mode : Constant
Bit rate : 320 kb/s
Channel(s) : 2 channels
Channel layout : L R
Sampling rate : 48.0 kHz
Frame rate : 31.250 FPS (1536 SPF)
Compression mode : Lossy
Stream size : 230 MiB (1%)
Title : DD 2.0
Language : English
Service kind : Complete Main
Default : No
Forced : No
Original source medium : Blu-ray

Audio #9
ID : 10
Format : E-AC-3
Format/Info : Enhanced AC-3
Commercial name : Dolby Digital Plus
Format profile : Blu-ray Disc
Codec ID : A_EAC3
Duration : 1 h 40 min
Bit rate mode : Constant
Bit rate : 1 024 kb/s
Channel(s) : 8 channels
Channel layout : L R C LFE Ls Rs Lb Rb
Sampling rate : 48.0 kHz
Frame rate : 31.250 FPS (1536 SPF)
Compression mode : Lossy
Stream size : 736 MiB (2%)
Title : DDP 7.1
Language : Spanish
Service kind : Complete Main
Default : No
Forced : No

Audio #10
ID : 11
ID in the original source medium : 4357 (0x1105)
Format : AC-3
Format/Info : Audio Coding 3
Commercial name : Dolby Digital
Codec ID : A_AC3
Duration : 1 h 40 min
Bit rate mode : Constant
Bit rate : 576 kb/s
Channel(s) : 6 channels
Channel layout : L R C LFE Ls Rs
Sampling rate : 48.0 kHz
Frame rate : 31.250 FPS (1536 SPF)
Compression mode : Lossy
Stream size : 414 MiB (1%)
Title : DD 5.1
Language : Spanish
Service kind : Complete Main
Default : No
Forced : No
Original source medium : Blu-ray

Text #1
ID : 12
Format : UTF-8
Codec ID : S_TEXT/UTF8
Codec ID/Info : UTF-8 Plain Text
Duration : 1 h 39 min
Bit rate : 68 b/s
Count of elements : 1605
Stream size : 50.3 KiB (0%)
Title : English-SRT
Language : English
Default : Yes
Forced : No

Text #2
ID : 13
ID in the original source medium : 4768 (0x12A0)
Format : PGS
Muxing mode : zlib
Codec ID : S_HDMV/PGS
Codec ID/Info : Picture based subtitle format used on BDs/HD-DVDs
Duration : 1 h 40 min
Bit rate : 51.2 kb/s
Count of elements : 3710
Stream size : 36.8 MiB (0%)
Title : English-PGS
Language : English
Default : No
Forced : No
Original source medium : Blu-ray

Text #3
ID : 14
ID in the original source medium : 4769 (0x12A1)
Format : PGS
Muxing mode : zlib
Codec ID : S_HDMV/PGS
Codec ID/Info : Picture based subtitle format used on BDs/HD-DVDs
Duration : 1 h 39 min
Bit rate : 40.3 kb/s
Count of elements : 2677
Stream size : 28.8 MiB (0%)
Title : Spanish-PGS
Language : Spanish
Default : No
Forced : No
Original source medium : Blu-ray

Menu
00:00:00.000 : en:Chapter 01
00:03:32.337 : en:Chapter 02
00:04:57.922 : en:Chapter 03
00:08:43.064 : en:Chapter 04
00:09:18.808 : en:Chapter 05
00:11:49.333 : en:Chapter 06
00:12:29.457 : en:Chapter 07
00:15:03.569 : en:Chapter 08
00:17:11.947 : en:Chapter 09
00:18:24.686 : en:Chapter 10
00:19:53.984 : en:Chapter 11
00:21:29.663 : en:Chapter 12
00:26:00.058 : en:Chapter 13
00:29:47.535 : en:Chapter 14
00:36:07.582 : en:Chapter 15
00:38:22.091 : en:Chapter 16
00:39:53.307 : en:Chapter 17
00:41:55.804 : en:Chapter 18
00:43:43.621 : en:Chapter 19
00:44:29.166 : en:Chapter 20
00:46:06.263 : en:Chapter 21
00:49:38.183 : en:Chapter 22
00:50:40.537 : en:Chapter 23
00:51:28.126 : en:Chapter 24
00:55:31.328 : en:Chapter 25
00:56:59.624 : en:Chapter 26
00:58:33.927 : en:Chapter 27
01:00:31.502 : en:Chapter 28
01:04:48.551 : en:Chapter 29
01:07:53.360 : en:Chapter 30
01:09:15.484 : en:Chapter 31
01:12:33.974 : en:Chapter 32
01:15:32.236 : en:Chapter 33
01:17:23.639 : en:Chapter 34
01:21:15.453 : en:Chapter 35
01:22:57.806 : en:Chapter 36
01:26:43.323 : en:Chapter 37
01:28:32.307 : en:Chapter 38
01:30:13.574 : en:Chapter 39

本帖子中包含更多资源

您需要 登录 才可以下载或查看,没有帐号?立即注册

x
回复

使用道具 举报

0

主题

1123

帖子

8440

积分

VIP永久

Rank: 12Rank: 12Rank: 12

积分
8440
发表于 2021-3-19 10:08:02 | 显示全部楼层
谢谢楼主分享!!!
回复

使用道具 举报

0

主题

89

帖子

427

积分

中级会员

Rank: 3Rank: 3

积分
427
发表于 2021-3-19 14:33:24 | 显示全部楼层
谢谢楼主分享!!!
回复

使用道具 举报

0

主题

697

帖子

3513

积分

论坛元老

Rank: 8Rank: 8

积分
3513
发表于 2021-3-19 18:28:09 | 显示全部楼层
谢谢楼主分享 楼主辛苦了
回复

使用道具 举报

0

主题

99

帖子

386

积分

中级会员

Rank: 3Rank: 3

积分
386
发表于 2021-3-19 23:08:19 | 显示全部楼层
多谢楼主分享!
回复

使用道具 举报

0

主题

99

帖子

386

积分

中级会员

Rank: 3Rank: 3

积分
386
发表于 2021-3-20 21:41:31 | 显示全部楼层
谢谢楼主分享
回复

使用道具 举报

0

主题

99

帖子

386

积分

中级会员

Rank: 3Rank: 3

积分
386
发表于 2021-3-20 22:09:29 | 显示全部楼层
谢谢楼主分享
回复

使用道具 举报

0

主题

523

帖子

2570

积分

金牌会员

Rank: 6Rank: 6

积分
2570
发表于 2021-3-20 22:27:04 | 显示全部楼层
感谢分享,楼主辛苦了。
回复

使用道具 举报

0

主题

52

帖子

547

积分

高级会员

Rank: 4

积分
547
发表于 2021-3-21 08:45:02 | 显示全部楼层
会不会出现版权保护不能下载的情况,这部影片目前为止就是这个状况
回复

使用道具 举报

0

主题

523

帖子

2570

积分

金牌会员

Rank: 6Rank: 6

积分
2570
发表于 2021-3-21 23:01:19 | 显示全部楼层
谢谢楼主分享 楼主辛苦了
回复

使用道具 举报

您需要登录后才可以回帖 登录 | 立即注册

本版积分规则

QQ|Archiver|手机版|小黑屋|原盘天堂 好多盘 点击这里给我发消息

GMT+8, 2021-4-16 01:33 , Processed in 0.069686 second(s), 25 queries .

Powered by Discuz! X3.4

Copyright © 2001-2020, Tencent Cloud.

快速回复 返回顶部 返回列表